<?xml version="1.0" standalone="no"?>
<!DOCTYPE svg PUBLIC "-//W3C//DTD SVG 1.1//EN" "http://www.w3.org/Graphics/SVG/1.1/DTD/svg11.dtd" >
<svg xmlns="http://www.w3.org/2000/svg">
<metadata></metadata>
<defs>
<font id="vni-helvenormal" horiz-adv-x="81" >
<font-face units-per-em="2048" ascent="1638" descent="-410" />
<missing-glyph horiz-adv-x="602" />
<glyph horiz-adv-x="2048" />
<glyph horiz-adv-x="2048" />
<glyph unicode="&#xd;" horiz-adv-x="602" />
<glyph unicode=" "  horiz-adv-x="602" />
<glyph unicode="&#x09;" horiz-adv-x="602" />
<glyph unicode="&#xa0;" horiz-adv-x="602" />
<glyph unicode="!" horiz-adv-x="602" d="M184 0v209h201v-209h-201zM184 987v483h201v-483l-49 -635h-103z" />
<glyph unicode="&#x22;" horiz-adv-x="786" d="M143 950v520h152v-520h-152zM434 950v520h152v-520h-152z" />
<glyph unicode="#" horiz-adv-x="1200" d="M57 430l21 131h209l41 291h-213l20 127h209l62 430h135l-58 -430h254l58 430h139l-62 -430h213l-20 -127h-209l-41 -291h209l-16 -131h-213l-58 -430h-135l57 430h-253l-62 -430h-135l61 430h-213zM422 561h258l37 291h-254z" />
<glyph unicode="$" horiz-adv-x="1200" d="M66 438h180q0 -164 59.5 -233.5t214.5 -93.5v544q-256 61 -346 162q-80 90 -80 240q0 166 122 283.5t304 117.5v131h94v-131q160 -14 258 -76q160 -98 160 -313h-176q-10 96 -53 148q-57 68 -189 90v-488q195 -57 267 -92q184 -92 184 -326q0 -233 -162 -352 q-123 -90 -289 -90v-197h-94v197q-207 0 -321 104q-133 123 -133 375zM274 1069q0 -98 76 -160q66 -51 170 -69v467q-115 0 -180.5 -68t-65.5 -170zM614 111q131 0 205 79q66 70 66 179q0 84 -45 145t-115 84l-111 33v-520z" />
<glyph unicode="%" horiz-adv-x="1912" d="M82 1077q0 147 100.5 247.5t247.5 100.5q145 0 246.5 -101t101.5 -247q0 -145 -101.5 -246.5t-246.5 -101.5q-143 0 -245.5 100.5t-102.5 247.5zM225 1077q0 -92 58.5 -148.5t146.5 -56.5q90 0 147.5 59.5t57.5 145.5t-59.5 145.5t-145.5 59.5t-145.5 -59.5t-59.5 -145.5 zM451 -41l806 1483h115l-811 -1483h-110zM1044 336q0 147 100.5 247.5t248.5 100.5q145 0 246.5 -101.5t101.5 -246.5t-101.5 -248.5t-246.5 -103.5q-143 0 -246 102.5t-103 249.5zM1188 336q0 -92 58.5 -148.5t146.5 -56.5q90 0 147 59.5t57 145.5t-59 145.5t-145 59.5 t-145.5 -59.5t-59.5 -145.5z" />
<glyph unicode="&#x26;" horiz-adv-x="1454" d="M90 356q0 156 66.5 252.5t265.5 210.5q-86 106 -117 164q-39 74 -39 160q0 137 88 227q98 100 260 100q164 0 254 -96q78 -82 78 -207q0 -137 -90 -241q-51 -59 -176 -144l270 -319q25 68 35 108.5t23 120.5h172q0 -74 -31 -169t-88 -204l262 -319h-233l-140 168 q-84 -98 -170 -143q-109 -57 -256 -58q-240 0 -354 152q-80 106 -80 237zM270 369q0 -123 103 -191q78 -51 164 -51q200 0 319 164l-332 405q-141 -90 -186 -141q-68 -76 -68 -186zM442 1155q0 -61 52 -141q37 -58 92 -113q86 57 121 98q63 72 63 156q0 88 -55 129 q-41 31 -101 31q-98 0 -143 -62q-29 -41 -29 -98z" />
<glyph unicode="'" horiz-adv-x="417" d="M123 950v520h147v-520h-147z" />
<glyph unicode="(" horiz-adv-x="737" d="M139 537q0 260 90 499q82 215 258 467h123q-104 -197 -147 -299q-70 -162 -100.5 -318.5t-30.5 -398.5q0 -160 35.5 -309t99.5 -299q39 -90 147 -305h-122q-182 272 -256 457q-96 240 -97 506z" />
<glyph unicode=")" horiz-adv-x="737" d="M70 1503h123q123 -184 186 -305q80 -152 123 -312.5t43 -340.5q0 -262 -90 -502q-82 -217 -258 -469h-123q100 190 147 301q70 162 100.5 319.5t30.5 399.5q0 160 -34.5 307.5t-100.5 296.5q-39 92 -147 305z" />
<glyph unicode="*" horiz-adv-x="856" d="M82 1212l41 111l213 -78v225h123v-225l217 78l41 -111l-221 -69l135 -189l-99 -69l-135 192l-131 -192l-102 69l139 189z" />
<glyph unicode="+" horiz-adv-x="1269" d="M82 442v152h442v442h152v-442h442v-152h-442v-442h-152v442h-442z" />
<glyph unicode="," horiz-adv-x="602" d="M180 0v217h213v-201q0 -178 -90 -260q-49 -45 -123 -59v94q59 6 86 70q20 49 21 139h-107z" />
<glyph unicode="-" horiz-adv-x="737" d="M90 475v184h504v-184h-504z" />
<glyph unicode="." horiz-adv-x="602" d="M180 0v217h213v-217h-213z" />
<glyph unicode="/" horiz-adv-x="602" d="M-37 -41l508 1552h135l-504 -1552h-139z" />
<glyph unicode="0" horiz-adv-x="1200" d="M78 700q0 293 90 482q125 260 401 260t404 -258q92 -189 92 -484q0 -291 -92 -481q-127 -260 -404 -260q-276 0 -401 258q-90 186 -90 483zM270 700q0 -279 74 -428t225 -149q152 0 227.5 150.5t75.5 426.5q0 281 -73.5 429.5t-229.5 148.5q-150 0 -224.5 -151.5 t-74.5 -426.5z" />
<glyph unicode="1" horiz-adv-x="1200" d="M209 1024v143q184 0 258 47q86 55 127 228h143v-1442h-192v1024h-336z" />
<glyph unicode="2" horiz-adv-x="1200" d="M53 0q0 211 97 356q78 119 243 217l189 111q143 80 190 129q76 80 76 207q0 100 -64 172q-78 86 -223 86q-137 0 -211 -84q-80 -92 -80 -268h-180q0 305 191 432q125 84 309 84q193 0 321.5 -117t128.5 -313q0 -174 -112 -295q-78 -84 -273 -189l-151 -82 q-127 -70 -193 -157q-45 -61 -53 -117h782v-172h-987z" />
<glyph unicode="3" horiz-adv-x="1200" d="M70 442h188q0 -133 51 -209q76 -111 256 -110q139 0 225.5 78t86.5 200q0 160 -121 224q-80 43 -215 43l-82 -4v155l94 -4q117 0 188 51q86 61 86 187q0 84 -51 143q-72 82 -215 82q-166 0 -233 -117q-45 -76 -45 -190h-177q0 193 91 313q119 158 372 158 q207 0 327 -105.5t120 -275.5q0 -125 -62 -207q-49 -66 -123 -88q113 -39 170 -115q68 -88 68 -225q0 -195 -121 -322q-139 -145 -395 -145q-76 0 -141.5 16.5t-124.5 49.5q-113 59 -165 170.5t-52 246.5z" />
<glyph unicode="4" horiz-adv-x="1200" d="M53 352v176l660 914h147v-934h213v-156h-213v-352h-180v352h-627zM217 508h463v651z" />
<glyph unicode="5" horiz-adv-x="1200" d="M66 360h188q12 -123 93 -182t210 -59q137 0 220 94t83 233q0 152 -90 236t-229 84q-158 0 -267 -135l-155 8l110 770h746v-176h-610l-62 -393q53 39 113 61q76 29 166 29q188 0 323 -119q147 -129 148 -344q0 -182 -90 -313q-135 -195 -431 -195q-174 0 -288 78 q-154 102 -178 323z" />
<glyph unicode="6" horiz-adv-x="1200" d="M78 672q0 299 104 502q139 268 428 268q156 0 273 -82q149 -104 149 -303h-176q-20 102 -76 157q-63 63 -174 64q-184 0 -276 -209q-63 -145 -64 -324l4 -4q41 72 113 117q94 59 227 60q166 0 291 -99q160 -125 160 -356q0 -111 -32 -197t-101.5 -161.5t-136.5 -106.5 q-86 -39 -230 -39q-98 0 -188 45q-113 55 -185 168q-61 96 -85.5 218t-24.5 282zM291 442q0 -127 71 -217q82 -102 232 -102q127 0 205 92t78 240q0 117 -62 198q-78 104 -229 105q-145 0 -220 -88.5t-75 -227.5z" />
<glyph unicode="7" horiz-adv-x="1200" d="M78 1233v176h995v-156q-92 -98 -192 -247q-137 -205 -232 -428q-121 -285 -170 -578h-196q37 293 206 645q164 336 379 588h-790z" />
<glyph unicode="8" horiz-adv-x="1200" d="M78 414q0 129 63.5 217t182.5 135q-197 72 -197 278q0 145 90 254q119 143 348 144q219 0 340 -123q103 -105 103 -250q0 -133 -68 -215q-41 -51 -117 -88q133 -55 193 -164q45 -82 45 -184q0 -193 -115 -318q-131 -141 -373 -141q-86 0 -161 21q-106 29 -187 94 q-96 74 -129 186q-18 61 -18 154zM270 410q0 -111 60 -187q80 -100 248 -100q123 0 194 51q96 70 96 223q0 137 -84 208t-215 71q-143 0 -225 -82q-74 -74 -74 -184zM315 1053q0 -98 74 -160t176 -62q115 0 186.5 68t71.5 166q0 80 -55 137q-74 76 -215 76q-129 0 -191 -76 q-47 -59 -47 -149z" />
<glyph unicode="9" horiz-adv-x="1200" d="M86 946q0 209 117 346q127 150 346 150q301 0 424 -246q80 -160 80 -422q0 -145 -25 -280q-41 -227 -139 -359q-131 -176 -357 -176q-227 0 -342 141q-88 109 -88 248h181q0 -111 67.5 -174t177.5 -63q147 0 228.5 128t115.5 412l-4 4q-39 -80 -131 -126t-196 -46 q-203 0 -329 124t-126 339zM274 954q0 -182 101 -258q69 -53 190 -53q102 0 174 57q104 84 105 271q0 135 -68 215q-78 92 -223 92q-127 0 -203 -88t-76 -236z" />
<glyph unicode=":" horiz-adv-x="602" d="M180 0v217h213v-217h-213zM180 840v217h213v-217h-213z" />
<glyph unicode=";" horiz-adv-x="602" d="M180 0v217h213v-201q0 -178 -90 -260q-49 -45 -123 -59v94q59 6 86 70q20 49 21 139h-107zM180 840v217h213v-217h-213z" />
<glyph unicode="&#x3c;" horiz-adv-x="1269" d="M98 446v144l1000 426v-164l-799 -332l799 -332v-163z" />
<glyph unicode="=" horiz-adv-x="1269" d="M82 238v147h1036v-147h-1036zM82 651v148h1036v-148h-1036z" />
<glyph unicode="&#x3e;" horiz-adv-x="1269" d="M98 25v163l799 332l-799 332v164l1000 -426v-144z" />
<glyph unicode="?" horiz-adv-x="1200" d="M115 1012q0 166 43 250q37 72 121 135q125 94 294 94q182 0 304 -102q131 -111 131 -299q0 -98 -43 -170q-35 -59 -150 -170q-84 -82 -108 -113q-72 -92 -72 -240l4 -20h-180q0 197 67 297q27 41 121 138t115 122q53 68 53 168q0 84 -49 147q-68 86 -197 86 q-133 0 -203.5 -80.5t-70.5 -242.5h-180zM455 0v209h196v-209h-196z" />
<glyph unicode="@" horiz-adv-x="1509" d="M328 741q0 319 225 544.5t545 225.5q293 0 498.5 -181t205.5 -458q0 -256 -176 -436q-154 -158 -311 -157q-57 0 -94 32.5t-37 98.5l-4 -4q-53 -53 -111 -87q-72 -41 -135 -40q-131 0 -217 96t-86 231q0 221 129 387q139 178 346 178q76 0 135 -38.5t98 -120.5l41 127 h140q-35 -125 -121 -420q-63 -215 -64 -248q0 -57 45 -57q104 0 197.5 139t93.5 303q0 240 -166 384t-407 144q-270 0 -446.5 -190t-176.5 -465q0 -272 183.5 -455.5t455.5 -183.5q143 0 275.5 62.5t220.5 171.5h139q-102 -170 -272 -267.5t-367 -97.5q-330 0 -556 226.5 t-226 555.5zM799 627q0 -90 47 -145.5t125 -55.5q123 0 219 143q88 132 88 267q0 78 -49 133t-119 55q-131 0 -225 -135q-86 -123 -86 -262z" />
<glyph unicode="A" horiz-adv-x="1454" d="M29 0l553 1470h225l532 -1470h-217l-143 430h-590l-156 -430h-204zM451 606h454l-217 647z" />
<glyph unicode="B" horiz-adv-x="1454" d="M152 0v1470h647q197 0 311 -108q106 -100 107 -260q0 -92 -37 -162q-49 -94 -160 -145q117 -51 168 -101q98 -96 98 -260q0 -186 -127 -305q-137 -129 -373 -129h-634zM352 172h422q154 0 232.5 70.5t78.5 195.5q0 141 -110 203q-84 47 -234 47h-389v-516zM352 848h357 q152 0 225 51q82 57 82 186q0 109 -68 160q-76 57 -235 58h-361v-455z" />
<glyph unicode="C" horiz-adv-x="1568" d="M90 745q0 342 185.5 554t502.5 212q266 0 432 -149q145 -131 170 -334h-192q-35 172 -172 250q-100 57 -238 57q-211 0 -342 -145q-141 -158 -141 -440q0 -281 106 -435q123 -176 381 -176q133 0 234 72q141 102 188 330h193q-41 -279 -212 -430.5t-431 -151.5 q-279 0 -457 180q-207 211 -207 606z" />
<glyph unicode="D" horiz-adv-x="1568" d="M168 0v1470h594q285 0 451.5 -195.5t166.5 -516.5q0 -301 -131 -502q-166 -256 -495 -256h-586zM365 172h385q197 0 311.5 148.5t114.5 424.5q0 272 -116 415t-323 143h-372v-1131z" />
<glyph unicode="E" horiz-adv-x="1454" d="M176 0v1470h1073v-176h-872v-450h803v-176h-803v-492h885v-176h-1086z" />
<glyph unicode="F" horiz-adv-x="1314" d="M176 0v1470h1020v-176h-819v-450h721v-176h-721v-668h-201z" />
<glyph unicode="G" horiz-adv-x="1683" d="M98 750q0 299 168 514q192 247 526 247h3q227 0 399 -118q195 -133 223 -369h-192q-41 174 -183 252q-106 59 -256 59q-209 0 -342 -153q-141 -164 -141 -445q0 -264 98 -415q123 -190 394 -191q78 0 137 14q90 23 162 80q92 72 131 174q32 85 32 211v8h-458v168h643 v-786h-127l-49 193q-74 -104 -205 -169t-279 -65q-172 0 -293 55q-84 39 -157 113q-147 139 -201 332q-33 119 -33 291z" />
<glyph unicode="H" horiz-adv-x="1568" d="M160 0v1470h196v-606h770v606h197v-1470h-197v688h-770v-688h-196z" />
<glyph unicode="I" horiz-adv-x="602" d="M188 0v1470h197v-1470h-197z" />
<glyph unicode="J" horiz-adv-x="1085" d="M37 328v147h184v-102q0 -127 57.5 -184.5t163.5 -57.5q131 0 189 72q49 61 49 182v1085h197v-1073q0 -236 -138 -348q-109 -90 -284 -90q-229 0 -338 133q-80 98 -80 236z" />
<glyph unicode="K" horiz-adv-x="1454" d="M156 0v1470h200v-712l713 712h274l-614 -593l631 -877h-258l-516 737l-230 -221v-516h-200z" />
<glyph unicode="L" horiz-adv-x="1200" d="M156 0v1470h200v-1294h746v-176h-946z" />
<glyph unicode="M" horiz-adv-x="1798" d="M152 0v1470h282l422 -1241l422 1241h283v-1470h-193v1237l-414 -1237h-196l-414 1233v-1233h-192z" />
<glyph unicode="N" horiz-adv-x="1568" d="M156 0v1470h237l733 -1187l4 1187h193v-1470h-221l-750 1188l-4 -1188h-192z" />
<glyph unicode="O" horiz-adv-x="1572" d="M94 737q0 293 152 504q195 270 565 270q371 0 563 -268q154 -213 154 -506q0 -297 -152 -508q-193 -270 -565 -270q-371 0 -563 268q-154 215 -154 510zM299 737q0 -266 137 -432t375 -166q236 0 374 167t138 431t-135 428q-141 170 -377 170q-233 0 -372.5 -168 t-139.5 -430z" />
<glyph unicode="P" horiz-adv-x="1454" d="M176 0v1470h664q199 0 316.5 -115.5t117.5 -297.5q0 -176 -96 -293q-117 -141 -338 -141h-463v-623h-201zM377 791h393q145 0 217 57q82 66 82 209q0 131 -84 192q-72 53 -207 54h-401v-512z" />
<glyph unicode="Q" horiz-adv-x="1683" d="M82 737q0 293 151 504q195 270 566 270t563 -268q154 -213 154 -506q0 -158 -48 -299q-55 -166 -165 -278l200 -156l-102 -119l-225 176q-147 -102 -377 -102q-371 0 -563 268q-154 215 -154 510zM287 737q0 -266 137 -432t375 -166q121 0 217 45l-156 119l103 123 l184 -143q78 76 121 195.5t43 258.5q0 264 -135 428q-141 170 -377 170q-233 0 -372.5 -168t-139.5 -430z" />
<glyph unicode="R" horiz-adv-x="1568" d="M180 0v1470h680q209 0 332 -79q151 -97 151 -311q0 -150 -65 -240q-43 -61 -139 -115q88 -39 121 -76q55 -66 55 -203l12 -266q0 -63 13.5 -91t60.5 -56v-33h-242q-18 55 -27.5 178t-9.5 191q0 152 -73 211q-63 51 -189 51h-479v-631h-201zM381 803h459q135 0 204 45 q94 61 95 209q0 147 -95 207q-61 39 -167 39h-496v-500z" />
<glyph unicode="S" horiz-adv-x="1454" d="M102 475h185q0 -182 131 -272q104 -72 274 -72q197 0 299 76q86 63 86 174q0 113 -62.5 163t-248.5 95l-303 70q-121 31 -191 86q-121 94 -120 262q0 190 116 313q135 141 387 141q338 0 480 -174q94 -117 94 -297h-185q0 158 -120 236q-98 63 -244 63q-135 0 -215 -43 q-121 -63 -121 -215q0 -84 53 -131q39 -35 119 -53l422 -98q154 -37 236 -125q96 -102 96 -268q0 -238 -193 -355q-152 -92 -381 -92q-182 0 -301 49q-72 29 -145 94q-84 78 -116 169t-32 204z" />
<glyph unicode="T" horiz-adv-x="1314" d="M29 1294v176h1196v-176h-500v-1294h-197v1294h-499z" />
<glyph unicode="U" horiz-adv-x="1478" d="M152 492v978h196v-925q0 -219 119 -322q96 -84 254 -84q166 0 264 80q125 102 125 322v929h197v-954q0 -242 -144 -391q-158 -166 -446 -166q-281 0 -432 162q-133 143 -133 371z" />
<glyph unicode="V" horiz-adv-x="1454" d="M41 1470h221l422 -1253l418 1253h225l-536 -1470h-213z" />
<glyph unicode="W" horiz-adv-x="2027" d="M33 1470h217l274 -1196l332 1196h217l332 -1196l278 1196h218l-385 -1470h-209l-336 1221l-344 -1221h-209z" />
<glyph unicode="X" horiz-adv-x="1454" d="M41 0l524 754l-491 716h250l372 -561l373 561h238l-496 -716l516 -754h-246l-393 606l-409 -606h-238z" />
<glyph unicode="Y" horiz-adv-x="1454" d="M29 1470h233l422 -704l422 704h233l-557 -876v-594h-196v594z" />
<glyph unicode="Z" horiz-adv-x="1314" d="M49 0v168l901 1126h-835v176h1089v-172l-905 -1122h905v-176h-1155z" />
<glyph unicode="[" horiz-adv-x="602" d="M131 -401v1880h381v-144h-221v-1593h221v-143h-381z" />
<glyph unicode="\" horiz-adv-x="602" d="M-37 1511h139l504 -1552h-139z" />
<glyph unicode="]" horiz-adv-x="602" d="M57 -258h222v1593h-222v144h385v-1880h-385v143z" />
<glyph unicode="^" horiz-adv-x="1015" d="M-29 541l439 868h147l434 -868h-160l-348 704l-352 -704h-160z" />
<glyph unicode="_" horiz-adv-x="1200" d="M0 -156h1139v-102h-1139v102z" />
<glyph unicode="`" horiz-adv-x="737" d="M29 1503h221l184 -286h-139z" />
<glyph unicode="a" horiz-adv-x="1175" d="M74 279q0 109 51 186q82 125 276 149l295 37q43 4 64 25q31 31 31 102q0 176 -250 176q-133 0 -195 -73q-37 -46 -51 -136h-168q0 184 123 275q113 82 319 82q131 0 230 -45q168 -76 168 -254v-615q0 -65 59 -65h2l57 8v-131q-23 -6 -48 -13t-50 -7q-109 0 -153 51 q-35 39 -35 112q-72 -76 -142 -114q-111 -61 -247 -62q-147 0 -241.5 86t-94.5 226zM262 307q0 -92 46 -140t147 -48q131 0 231 74t100 180v176q-23 -20 -80 -34.5t-199 -33t-193.5 -61.5t-51.5 -113z" />
<glyph unicode="b" horiz-adv-x="1200" d="M119 0v1470h180v-532q121 164 315 164q207 0 330 -154q117 -145 117 -379q0 -236 -98 -397q-125 -205 -373 -205q-123 0 -203 60q-49 37 -92 108l-4 -135h-172zM291 487q0 -190 104 -286q80 -74 191 -74q143 0 214.5 113t71.5 301q0 160 -41 250q-70 151 -247 151h-2 q-174 0 -244 -162q-47 -109 -47 -293z" />
<glyph unicode="c" horiz-adv-x="1085" d="M61 508q0 266 123 422q135 172 394 172q193 0 299 -125q88 -102 102 -264h-176q-16 109 -80 169t-174 60q-152 0 -230 -129q-66 -111 -65 -276q0 -174 53 -275q72 -135 242 -135q90 0 161.5 67.5t92.5 186.5h176q-18 -162 -109 -270q-119 -143 -329 -144 q-221 0 -350.5 150.5t-129.5 390.5z" />
<glyph unicode="d" horiz-adv-x="1200" d="M74 569q0 233 117.5 383t328.5 150q127 0 215 -66q45 -33 105 -114l4 12v536h180v-1470h-172v147q-55 -98 -145 -143q-72 -37 -162 -37q-248 0 -373 203q-98 160 -98 399zM258 541q0 -184 75 -299t216 -115q111 0 188 72q102 94 103 288q0 184 -45 291q-70 164 -242 164 q-182 0 -252 -149q-43 -92 -43 -252z" />
<glyph unicode="e" horiz-adv-x="1200" d="M82 508q0 266 123 422q135 172 393 172q225 0 342 -167t117 -456h-783q0 -170 79 -261t233 -91q119 0 200 74q70 63 78 135h180q-10 -61 -47 -129q-55 -102 -145 -162q-55 -37 -98 -51q-78 -27 -193 -27q-221 0 -350 150.5t-129 390.5zM274 623h598q0 137 -67 221 q-78 98 -232 98q-123 0 -211 -96t-88 -223z" />
<glyph unicode="f" horiz-adv-x="602" d="M29 922v151h147v184q0 233 279 234h37.5t44.5 -4v-160l-74 4q-106 0 -107 -127v-131h181v-151h-181v-922h-180v922h-147z" />
<glyph unicode="g" horiz-adv-x="1200" d="M82 569q0 231 120 382t326 151q129 0 217 -66q51 -39 103 -114l4 151h172v-983q0 -211 -63 -328q-115 -213 -437 -213q-141 0 -237 52q-147 80 -172 268h180q16 -84 78.5 -128t163.5 -44q197 0 266 135q41 80 41 234v57l-4 -8q-41 -66 -107 -103q-78 -45 -180 -45 q-248 0 -373 203q-98 160 -98 399zM270 541q0 -186 73 -300t214 -114q113 0 191 72q104 96 104 288q0 182 -47 291q-72 164 -244 164q-182 0 -250 -149q-41 -90 -41 -252z" />
<glyph unicode="h" horiz-adv-x="1200" d="M135 0v1470h180v-540q61 76 113 110q90 61 203 62q158 0 252 -70q125 -92 125 -303v-729h-181v700q0 123 -41 177q-48 65 -168 65h-4q-127 0 -204 -76q-94 -92 -95 -280v-586h-180z" />
<glyph unicode="i" horiz-adv-x="487" d="M139 0v1073h180v-1073h-180zM139 1266v204h180v-204h-180z" />
<glyph unicode="j" horiz-adv-x="487" d="M-33 -270h37q82 0 108.5 22.5t26.5 108.5v1212h180v-1233q0 -109 -36 -168q-63 -102 -238 -102h-29h-24q-16 4 -25 4v156zM139 1266v204h180v-204h-180z" />
<glyph unicode="k" horiz-adv-x="1085" d="M139 0v1470h172v-852l463 455h230l-410 -401l434 -672h-233l-332 541l-152 -135v-406h-172z" />
<glyph unicode="l" horiz-adv-x="487" d="M139 0v1470h180v-1470h-180z" />
<glyph unicode="m" horiz-adv-x="1798" d="M135 0v1073h168v-151q57 74 109 110q96 70 219 70q96 0 163.5 -38t123.5 -134q82 90 135 123q80 49 192 49q123 0 209 -66q123 -94 123 -295v-741h-180v692q0 121 -41 180q-49 70 -160 70t-180.5 -85t-69.5 -202v-655h-180v741q0 80 -35 133q-45 68 -133 68 q-104 0 -178 -68q-104 -94 -105 -288v-586h-180z" />
<glyph unicode="n" horiz-adv-x="1200" d="M135 0v1073h168v-151q57 72 111 110q98 70 217 70q158 0 252 -70q125 -92 125 -303v-729h-181v659q0 147 -47 211q-53 72 -182 72q-104 0 -178 -68q-104 -94 -105 -288v-586h-180z" />
<glyph unicode="o" horiz-adv-x="1179" d="M74 537q0 231 119 387q135 178 376 178q242 0 379 -178q121 -158 121 -387q0 -227 -121 -385q-137 -180 -379 -181q-240 0 -374 179q-121 158 -121 387zM258 537q0 -152 57 -258q82 -152 254 -152q170 0 252 149q59 109 60 261q0 152 -58 258q-81 151 -252 151h-2 q-170 0 -252 -149q-59 -108 -59 -260z" />
<glyph unicode="p" horiz-adv-x="1200" d="M119 -426v1499h172v-151q57 78 104 112q92 68 219 68q207 0 330 -154q117 -145 117 -379q0 -236 -98 -397q-125 -205 -373 -205q-102 0 -173 40t-114 108l-4 -541h-180zM291 487q0 -190 104 -286q80 -74 191 -74q143 0 214.5 112.5t71.5 301.5q0 160 -41 250 q-70 151 -247 151h-2q-174 0 -244 -162q-47 -109 -47 -293z" />
<glyph unicode="q" horiz-adv-x="1200" d="M74 569q0 233 117.5 383t328.5 150q127 0 215 -66q45 -33 105 -114l4 151h168v-1499h-181v541q-41 -66 -106 -103q-78 -45 -180 -45q-248 0 -373 203q-98 160 -98 399zM258 541q0 -184 75 -299t216 -115q111 0 188 72q103 93 103 288q0 184 -45 291q-70 164 -242 164 q-182 0 -252 -149q-43 -92 -43 -252z" />
<glyph unicode="r" horiz-adv-x="737" d="M160 0v1073h168v-180q61 100 131 151q78 57 176 58q33 0 45 -4v-189h-66q-123 0 -198.5 -81.5t-75.5 -204.5v-623h-180z" />
<glyph unicode="s" horiz-adv-x="1085" d="M66 344h176q0 -117 80 -170q72 -47 202 -47q106 0 172 39q74 45 74 129q0 61 -44 92t-169 64l-209 49q-119 31 -178 88q-68 66 -68 174q0 166 123 258q109 82 283 82q190 0 300 -94.5t110 -241.5h-177q0 72 -41 115q-62 65 -209 65h-4q-98 0 -155.5 -42t-57.5 -109 q0 -61 45 -90q35 -23 152 -54l180 -45q164 -39 231.5 -104.5t67.5 -177.5q0 -164 -117.5 -260.5t-304.5 -96.5q-281 0 -391 139q-72 90 -71 238z" />
<glyph unicode="t" horiz-adv-x="602" d="M29 922v151h147v299h180v-299h172v-151h-172v-697q0 -53 39 -71q23 -10 68 -11h65v-143l-135 -16q-125 0 -176 67q-41 53 -41 166v705h-147z" />
<glyph unicode="u" horiz-adv-x="1200" d="M139 303v770h180v-713q0 -125 60 -182q51 -51 149 -51q154 0 232 119q63 96 63 237v590h181v-1073h-173v156l-4 4q-57 -96 -137 -144.5t-203 -48.5q-139 0 -231 70q-117 88 -117 266z" />
<glyph unicode="v" horiz-adv-x="1085" d="M16 1073h209l279 -872l307 872h197l-406 -1073h-192z" />
<glyph unicode="w" horiz-adv-x="1568" d="M29 1073h196l205 -844l213 844h201l209 -844l221 844h180l-311 -1073h-189l-217 831l-213 -831h-184z" />
<glyph unicode="x" horiz-adv-x="1085" d="M25 0l376 553l-360 520h233l246 -377l250 377h221l-364 -520l377 -553h-230l-266 406l-258 -406h-225z" />
<glyph unicode="y" horiz-adv-x="1085" d="M25 1073h204l283 -872l291 872h201q-94 -264 -187.5 -522t-198.5 -531q-129 -326 -189 -392t-232 -66q-16 0 -27 2q-31 10 -47 14v164q16 -6 46 -13.5t60 -7.5q68 0 96.5 39t96.5 211z" />
<glyph unicode="z" horiz-adv-x="1085" d="M66 0v143l643 779h-594v151h827v-147l-639 -774h660v-152h-897z" />
<glyph unicode="{" horiz-adv-x="737" d="M86 479v123q70 0 119 75t49 187v353q0 121 61.5 191.5t147.5 70.5h135v-131h-90q-49 0 -71.5 -45.5t-22.5 -122.5v-349q0 -131 -74 -215q-53 -61 -107 -71q39 -14 74 -45q106 -90 107 -254v-348q0 -74 22.5 -121t71.5 -47h90v-131h-135q-84 0 -144 67q-66 74 -65 195v352 q0 117 -48 191.5t-120 74.5z" />
<glyph unicode="|" horiz-adv-x="577" d="M193 -41v1552h151v-1552h-151z" />
<glyph unicode="}" horiz-adv-x="737" d="M86 -270h90q51 0 72.5 46t21.5 122v348q0 139 74 223q47 53 107 72q-35 10 -74 43q-106 90 -107 247v349q0 78 -18 116q-25 51 -76 52h-90v131h139q84 0 146.5 -71t62.5 -191v-353q0 -117 45 -189.5t119 -72.5v-123q-72 0 -118 -74.5t-46 -191.5v-352 q0 -121 -62.5 -191.5t-146.5 -70.5h-139v131z" />
<glyph unicode="~" horiz-adv-x="1269" d="M127 483q41 80 92 121q68 55 162 55q49 0 106.5 -17t122.5 -48q78 -33 131.5 -53.5t77.5 -20.5q53 0 103 47q22 23 77 101l74 -115q-51 -80 -115.5 -128t-142.5 -48q-39 0 -83 13t-126 56q-61 35 -104 50q-59 20 -129 20q-61 0 -107 -45q-37 -37 -65 -102z" />
<glyph horiz-adv-x="602" />
<glyph horiz-adv-x="602" />
<glyph horiz-adv-x="602" />
<glyph horiz-adv-x="602" />
<glyph horiz-adv-x="602" />
<glyph horiz-adv-x="602" />
<glyph horiz-adv-x="1933" d="M72 537q0 231 118 387q135 178 379 178q270 0 402 -217q76 115 174 166t241 51q227 0 344 -167t117 -458h-784q0 -170 79 -261t234 -91q117 0 203 76q74 65 74 135h180q-8 -59 -45 -131q-53 -100 -146 -162q-51 -35 -98 -49q-78 -25 -192 -25q-121 0 -222.5 49.5 t-175.5 157.5q-49 -96 -146 -150.5t-239 -54.5q-242 0 -376 179q-121 158 -121 387zM258 537q0 -152 57 -258q82 -152 254 -152q170 0 252 149q59 109 60 261q0 152 -58 258q-82 152 -254 151q-170 0 -252 -149q-59 -108 -59 -260zM1063 621h598q0 139 -66 221 q-78 98 -233 98q-123 0 -211 -96t-88 -223z" />
<glyph horiz-adv-x="602" />
<glyph unicode="&#xa1;" horiz-adv-x="681" d="M242 86l49 635h100l49 -635v-485h-198v485zM242 862v209h198v-209h-198z" />
<glyph unicode="&#xa2;" horiz-adv-x="1224" d="M131 504q0 289 131 443.5t373 154.5q55 0 86 -12l53 188h82l-53 -205q82 -23 151 -96q99 -104 115 -268h-168q-20 78 -39 114q-37 70 -100 95l-225 -791q20 -8 69 -8q111 0 176 47q84 61 119 211h176q-20 -154 -112 -264q-127 -154 -351 -154q-31 0 -67.5 7t-54.5 9 l-66 -213h-82l70 234q-129 61 -201 182q-82 135 -82 326zM311 504q0 -109 41 -205t107 -139l221 782q-16 4 -57 4q-139 0 -222 -104q-90 -115 -90 -338z" />
<glyph unicode="&#xa3;" horiz-adv-x="1200" d="M70 651v127h139q-37 80 -43 92q-43 102 -43 183q0 160 104 272q135 145 400 145q217 0 338 -137q104 -119 104 -297v-32h-180v20q0 127 -78 209t-205 82q-150 0 -229 -94q-61 -72 -62 -156q0 -57 25 -123t78 -164h344v-127h-283q6 -25 11.5 -64.5t5.5 -70.5 q0 -94 -60 -190q-66 -109 -186 -191l4 4q66 33 130.5 51.5t135.5 18.5q68 0 186.5 -35t157.5 -35q43 0 86 17.5t70 44.5l86 -135q-129 -98 -262 -99q-57 0 -200.5 47t-225.5 47q-55 0 -116.5 -23.5t-125.5 -62.5l-98 144q141 96 205 217q45 88 45 168q0 33 -13.5 75 t-27.5 72h-217z" />
<glyph unicode="&#xa4;" horiz-adv-x="1200" d="M57 1139l99 98l118 -115q59 49 136 76t159 27q178 0 299 -103l115 115l98 -98l-110 -111q51 -61 76.5 -139t25.5 -168q0 -184 -102 -311l110 -115l-94 -90l-110 119q-59 -55 -140.5 -85t-167.5 -30q-88 0 -163.5 27.5t-139.5 87.5l-114 -119l-91 90l111 115 q-102 127 -102 311q0 186 102 307zM217 721q0 -150 103.5 -259.5t248.5 -109.5t249 109.5t104 259.5q0 145 -103.5 252.5t-249.5 107.5q-143 0 -247.5 -106.5t-104.5 -253.5z" />
<glyph unicode="&#xa5;" horiz-adv-x="1200" d="M8 1409h205l356 -602l361 602h205l-398 -623h320v-114h-398v-176h398v-115h-398v-381h-180v381h-393v115h393v176h-393v114h315z" />
<glyph unicode="&#xa6;" horiz-adv-x="532" d="M193 -39v602h149v-602h-149zM193 942v567h149v-567h-149z" />
<glyph unicode="&#xa7;" horiz-adv-x="1200" d="M90 635q0 121 57 201q45 63 148 122q-55 59 -76.5 101.5t-21.5 103.5q0 131 84 230q102 119 284 118q154 0 250 -73q127 -96 127 -303h-172q0 86 -29 135q-49 86 -176 86q-72 0 -123 -37q-66 -47 -65 -131q0 -53 39 -98q33 -37 112 -86l299 -177q106 -63 156 -127 q66 -84 66 -200q0 -115 -66 -203q-47 -63 -143 -125q51 -55 78.5 -108.5t27.5 -124.5q0 -152 -119 -246q-109 -86 -254 -86q-184 0 -286 90q-115 100 -115 295h180q0 -84 29 -139q47 -90 168 -91q82 0 137 31q80 45 80 141q0 51 -26.5 87t-88.5 77l-430 287q-53 37 -88 94 q-43 74 -43 156zM258 680q0 -74 35 -123q23 -33 59 -53l385 -250q72 49 101 84q43 53 43 125q0 61 -34 109t-93 87l-357 218q-66 -33 -102.5 -81t-36.5 -116z" />
<glyph unicode="&#xa8;" d="M-985 1790q0 94 64.5 158.5t158.5 64.5q92 0 157.5 -65.5t65.5 -157.5t-65.5 -157.5t-157.5 -65.5t-157.5 63.5t-65.5 159.5zM-893 1790q0 -59 38 -95t93 -36t93 38t38 93t-38 93t-93 38q-53 0 -92 -39t-39 -92z" />
<glyph unicode="&#xa9;" horiz-adv-x="1642" d="M20 737q0 330 230.5 552t556.5 222q322 0 552 -222t230 -552q0 -332 -229 -555t-553 -223t-555.5 223.5t-231.5 554.5zM176 737q0 -279 182.5 -463t448.5 -184t446.5 184.5t180.5 462.5q0 274 -180.5 458.5t-446.5 184.5t-448.5 -184.5t-182.5 -458.5zM377 741 q0 205 123 338t327 133q154 0 259.5 -81.5t125.5 -237.5h-135q-18 84 -84.5 134t-165.5 50q-141 0 -218 -92t-77 -244q0 -145 82 -244.5t222 -99.5q92 0 158.5 55.5t82.5 141.5h140q-31 -152 -135.5 -242t-245.5 -90q-207 0 -333 136.5t-126 342.5z" />
<glyph unicode="&#xaa;" horiz-adv-x="1277" d="M203 295v926h901v-926h-901z" />
<glyph unicode="&#xab;" horiz-adv-x="1200" d="M201 475v189l319 249v-180l-213 -164l213 -168v-180zM618 475v189l324 249v-180l-217 -164l217 -168v-180z" />
<glyph unicode="&#xac;" horiz-adv-x="2048" d="M74 727q0 289 121 498q166 285 507 284q158 0 263 -73q59 -41 102 -115l4 149h901v-176h-715v-450h682v-176h-682v-492h719v-176h-907v154q-78 -96 -131 -129q-100 -63 -264 -64q-283 0 -441.5 213t-158.5 553zM279 694q0 -178 53 -310t141 -192.5t258 -60.5 q121 0 213 76q115 94 115 264v537q0 152 -98.5 241.5t-255.5 89.5q-256 0 -361 -247q-66 -158 -65 -398z" />
<glyph unicode="&#xad;" horiz-adv-x="737" d="M90 475v184h504v-184h-504z" />
<glyph unicode="&#xae;" horiz-adv-x="1642" d="M20 737q0 330 230.5 552t556.5 222q322 0 552 -222t230 -552q0 -332 -229 -555t-553 -223t-555.5 223.5t-231.5 554.5zM176 737q0 -279 182.5 -463t448.5 -184t446.5 184.5t180.5 462.5q0 274 -180.5 458.5t-446.5 184.5t-448.5 -184.5t-182.5 -458.5zM508 291v893h340 q162 0 238.5 -60.5t76.5 -193.5q0 -113 -62.5 -173.5t-166.5 -72.5l254 -393h-152l-237 385h-156v-385h-135zM643 791h164q137 0 177 35.5t40 111.5t-54.5 103.5t-142.5 27.5h-184v-278z" />
<glyph unicode="&#xaf;" horiz-adv-x="737" d="M20 1286v115h644v-115h-644z" />
<glyph unicode="&#xb0;" horiz-adv-x="1806" d="M444 780q0 201 132.5 341.5t343.5 140.5q215 0 348 -139.5t133 -342.5t-133 -340t-348 -137q-211 0 -343.5 138.5t-132.5 338.5z" />
<glyph unicode="&#xb1;" horiz-adv-x="1269" d="M82 0v152h1036v-152h-1036zM82 557v152h442v327h152v-327h442v-152h-442v-328h-152v328h-442z" />
<glyph unicode="&#xb2;" horiz-adv-x="737" d="M8 578q0 125 62 213q49 72 151 127l123 69q102 55 127 78q49 45 49 123v8q0 51 -37 84q-47 43 -135 43q-111 0 -155 -76q-29 -49 -29 -117h-123q0 184 123 263q78 49 201 49q131 0 215 -69.5t84 -188.5q0 -84 -41 -144q-49 -72 -205 -147l-90 -49q-68 -35 -109 -72 q-29 -27 -55 -72h500v-122h-656z" />
<glyph unicode="&#xb3;" horiz-adv-x="737" d="M12 840h140q0 -70 28 -109q43 -59 148 -59q92 0 144 35.5t52 111.5q0 94 -75 127q-47 20 -138 21h-45v102h53q78 0 117 27q51 35 51 112q0 45 -26 72q-41 43 -137 43q-92 0 -134 -55q-31 -41 -30 -109h-127q0 115 63 189q80 94 248 94q133 0 210 -64.5t77 -165.5 q0 -76 -41 -125q-33 -41 -78 -51q72 -23 114 -73t42 -132q0 -115 -80 -190q-94 -88 -264 -88q-96 0 -172 41q-72 35 -106 99.5t-34 146.5z" />
<glyph unicode="&#xb4;" d="M-1065 1839h164l135 -192l135 192h164l-205 -291h-188z" />
<glyph unicode="&#xb5;" horiz-adv-x="1200" d="M139 -426v1499h180v-713q0 -125 60 -182q51 -51 149 -51q154 0 232 119q63 96 63 237v590h181v-1073h-173v156l-4 4q-57 -96 -137 -144.5t-203 -48.5q-43 0 -77 13q-53 18 -86 61l-5 -467h-180z" />
<glyph unicode="&#xb6;" horiz-adv-x="880" d="M-14 1171q0 158 99 235t280 77h407v-1458h-121v1359h-194v-1359h-119v845q-158 0 -255 85t-97 216z" />
<glyph unicode="&#xb7;" horiz-adv-x="512" d="M145 678q0 43 32 76.5t79 33.5t79 -31.5t32 -78.5q0 -45 -32 -78t-79 -33q-43 0 -80 31q-31 35 -31 80z" />
<glyph unicode="&#xb8;" d="M-881 1434h164l135 -189l136 189h159l-200 -287h-193z" />
<glyph unicode="&#xb9;" horiz-adv-x="737" d="M90 1184v94q123 0 168 27q55 33 82 137h115v-864h-144v606h-221z" />
<glyph unicode="&#xba;" horiz-adv-x="1359" d="M231 264v1002h967v-1002h-967zM322 342h790v838h-790v-838z" />
<glyph unicode="&#xbb;" horiz-adv-x="1200" d="M201 221v180l213 168l-213 164v180l319 -249v-189zM618 221v180l218 168l-218 164v180l324 -249v-189z" />
<glyph unicode="&#xbc;" horiz-adv-x="1798" d="M152 1188v90q123 0 167 27q55 33 82 137h111v-864h-139v610h-221zM315 -41l906 1483h118l-905 -1483h-119zM860 193v122l422 549h131v-553h135v-118h-135v-193h-131v193h-422zM987 311h295v385z" />
<glyph unicode="&#xbd;" horiz-adv-x="1798" d="M90 1184v94q123 0 168 27q55 33 82 137h115v-864h-144v606h-221zM242 -41l905 1483h119l-906 -1483h-118zM930 0q0 127 61 215q51 74 152 129l123 66q98 53 127 79q49 47 49 121v8q0 51 -37 84q-47 43 -135 43q-111 0 -156 -75q-29 -47 -29 -113h-122q0 182 122 258 q80 49 201 49q131 0 215 -69.5t84 -188.5q0 -106 -72 -178q-47 -47 -174 -113l-90 -45q-70 -39 -108 -73q-27 -25 -56 -70h500v-127h-655z" />
<glyph unicode="&#xbe;" horiz-adv-x="1798" d="M94 840h139q0 -70 29 -109q43 -59 148 -59q92 0 144 35.5t52 111.5q0 94 -76 127q-47 20 -137 21h-45v102h53q78 0 117 27q51 35 51 112q0 45 -26 72q-41 43 -137 43q-92 0 -134 -55q-31 -41 -30 -109h-127q0 115 63 189q80 94 248 94q133 0 210 -64.5t77 -165.5 q0 -76 -41 -125q-33 -41 -78 -51q72 -23 114 -73t42 -132q0 -115 -80 -190q-94 -88 -264 -88q-96 0 -173 41q-72 35 -105.5 99.5t-33.5 146.5zM438 -41l905 1483h115l-905 -1483h-115zM971 193v122l422 549h131v-553h135v-118h-135v-193h-131v193h-422zM1098 311h295v385z " />
<glyph unicode="&#xbf;" horiz-adv-x="1251" d="M186 -10q0 98 43 170q35 59 150 168q88 84 113 118q66 88 65 256h180q0 -164 -43 -251q-33 -66 -151 -189q-90 -94 -111 -119q-53 -68 -53 -166q0 -84 49 -147q68 -86 199 -86q168 0 233 129q39 76 39 195h180q0 -127 -24 -201q-35 -106 -137 -184q-57 -45 -137.5 -70 t-159.5 -25q-182 0 -304 103q-131 111 -131 299zM543 866v209h198v-209h-198z" />
<glyph unicode="&#xc0;" d="M-1065 1618l205 291h188l205 -291h-164l-135 192l-135 -192h-164zM-692 2159h221l180 -291h-135z" />
<glyph unicode="&#xc1;" d="M-1065 1618l205 291h188l205 -291h-164l-135 192l-135 -192h-164zM-524 1835l180 291h221l-266 -291h-135z" />
<glyph unicode="&#xc2;" d="M-1065 1618l205 291h188l205 -291h-164l-135 192l-135 -192h-164z" />
<glyph unicode="&#xc3;" d="M-1110 2011q14 100 59 154q53 63 154 63q35 0 68.5 -7t70.5 -21l45 -21q25 -10 53.5 -17.5t41.5 -7.5q53 0 77 31q17 21 25 64h102q-10 -96 -64 -161t-140 -65q-45 0 -119 29l-54 16q-98 33 -127 33q-39 0 -59 -21.5t-35 -68.5h-98zM-1065 1618l205 291h188l205 -291 h-164l-135 192l-135 -192h-164z" />
<glyph unicode="&#xc4;" d="M-1065 1618l205 291h188l205 -291h-164l-135 192l-135 -192h-164zM-856 -143h180v-205h-180v205z" />
<glyph unicode="&#xc5;" d="M-1065 1618l205 291h188l205 -291h-164l-135 192l-135 -192h-164zM-666 2058q0 111 72 168q61 49 150 49q78 0 137 -30q98 -51 98 -166q0 -53 -25.5 -90t-86 -80t-60.5 -137h-117q0 78 16.5 124t75 86.5t58.5 92.5q0 49 -26.5 70.5t-61.5 21.5q-55 0 -77 -31t-22 -76z " />
<glyph unicode="&#xc6;" horiz-adv-x="602" d="M72 1833q0 111 71 168q61 49 150 49q78 0 137 -31q98 -51 98 -166q0 -53 -25.5 -90t-86 -80t-60.5 -137h-116q0 78 16 124t74.5 87t58.5 92q0 49 -26.5 71t-61.5 22q-55 0 -76.5 -31t-21.5 -76zM188 0v1470h197v-1470h-197z" />
<glyph unicode="&#xc7;" horiz-adv-x="1568" d="M90 745q0 342 185.5 554t502.5 212q266 0 432 -149q145 -131 170 -334h-192q-35 172 -172 250q-100 57 -238 57q-211 0 -342 -145q-141 -158 -141 -440q0 -281 106 -435q123 -176 381 -176q133 0 234 72q141 102 188 330h193q-41 -279 -212 -430.5t-431 -151.5 q-279 0 -457 180q-207 211 -207 606zM492 -418l36 82q70 -29 131 -29q31 0 54 7q61 18 61 79q0 41 -32.5 59.5t-65.5 18.5q-18 0 -41 -6t-37 -10l-37 41l131 176h99l-95 -127q10 2 24.5 5t37.5 3q92 0 137 -53q35 -41 35 -102q0 -82 -65.5 -135.5t-176.5 -53.5 q-51 0 -94 11.5t-102 33.5z" />
<glyph unicode="&#xc8;" d="M-1065 1839h98q10 -31 17 -45q14 -31 32 -53q27 -31 68 -48.5t105 -17.5q106 0 159 58q31 32 54 106h98q-18 -145 -107 -215q-80 -63 -221 -63q-135 0 -211 67.5t-92 210.5zM-1061 2138h221l181 -291h-136z" />
<glyph unicode="&#xc9;" d="M-1065 1839h98q10 -31 17 -45q14 -31 32 -53q27 -31 68 -48.5t105 -17.5q106 0 159 58q31 32 54 106h98q-18 -145 -107 -215q-80 -63 -221 -63q-135 0 -211 67.5t-92 210.5zM-815 1851l180 291h221l-266 -291h-135z" />
<glyph unicode="&#xca;" d="M-1065 1839h98q10 -31 17 -45q14 -31 32 -53q27 -31 68 -48.5t105 -17.5q106 0 159 58q31 32 54 106h98q-18 -145 -107 -215q-80 -63 -221 -63q-135 0 -211 67.5t-92 210.5z" />
<glyph unicode="&#xcb;" d="M-1065 1839h98q10 -31 17 -45q14 -31 32 -53q27 -31 68 -48.5t105 -17.5q106 0 159 58q31 32 54 106h98q-18 -145 -107 -215q-80 -63 -221 -63q-135 0 -211 67.5t-92 210.5zM-856 -139h180v-205h-180v205z" />
<glyph unicode="&#xcc;" horiz-adv-x="602" d="M12 1884h226l180 -291h-135zM188 0v1470h197v-1470h-197z" />
<glyph unicode="&#xcd;" horiz-adv-x="602" d="M184 1606l181 290h221l-267 -290h-135zM188 0v1470h197v-1470h-197z" />
<glyph unicode="&#xce;" horiz-adv-x="1454" d="M29 1470h233l422 -704l422 704h233l-557 -876v-594h-196v594zM602 -139h180v-205h-180v205z" />
<glyph unicode="&#xcf;" d="M-852 -119h180v-205h-180v205z" />
<glyph unicode="&#xd0;" horiz-adv-x="569" d="M33 1665v209h188v-209h-188zM188 0v1470h197v-1470h-197zM365 1665v209h188v-209h-188z" />
<glyph unicode="&#xd1;" horiz-adv-x="1568" d="M61 668v176h107v626h594q285 0 451.5 -195.5t166.5 -516.5q0 -129 -28 -252q-51 -213 -168 -338q-160 -168 -430 -168h-586v668h-107zM365 172h385q197 0 311.5 148.5t114.5 424.5q0 272 -116 415t-323 143h-372v-459h393v-176h-393v-496z" />
<glyph unicode="&#xd2;" horiz-adv-x="602" d="M188 0v1470h197v-1470h-197zM197 -135h180v-205h-180v205z" />
<glyph unicode="&#xd3;" horiz-adv-x="602" d="M-53 1638q14 100 59 154q53 63 154 63q35 0 68.5 -7t70.5 -21l45 -21q25 -10 53.5 -17t40.5 -7q53 0 78 30q17 21 25 64h102q-10 -96 -64.5 -160.5t-140.5 -64.5q-45 0 -119 28l-53 17q-98 33 -127 33q-39 0 -59.5 -21.5t-34.5 -69.5h-98zM188 0v1470h197v-1470h-197z " />
<glyph unicode="&#xd4;" horiz-adv-x="1572" d="M94 737q0 293 152 504q195 270 565 270q102 0 189 -21.5t163 -64.5q12 2 42 25t40 33q27 25 36 53.5t9 65.5h-114v127h196v-181q0 -57 -61 -118q-45 -40 -78 -54q152 -109 229 -301q66 -160 66 -338q0 -297 -152 -508q-193 -270 -565 -270q-371 0 -563 268 q-154 215 -154 510zM299 737q0 -266 137 -432t375 -166q236 0 374 167t138 431t-135 428q-141 170 -377 170q-233 0 -372.5 -168t-139.5 -430z" />
<glyph unicode="&#xd5;" d="M-1114 1642q14 100 59 154q53 63 154 64q35 0 68.5 -7.5t70.5 -21.5l45 -21q25 -10 53.5 -17t40.5 -7q53 0 78 31q17 20 25 63h102q-10 -96 -64.5 -160.5t-140.5 -64.5q-45 0 -118 28l-54 17q-98 33 -127 33q-39 0 -59 -21.5t-35 -69.5h-98z" />
<glyph unicode="&#xd6;" horiz-adv-x="1478" d="M152 492v978h196v-925q0 -219 119 -322q96 -84 254 -84q166 0 264 80q125 102 125 322v929h197v-69q12 4 31.5 15t32.5 22.5t19.5 29t6.5 31.5v49h-115v127h197v-180q0 -57 -62 -119q-23 -20 -55 -37q-10 -4 -55 -24v-799q0 -242 -144 -391q-158 -166 -446 -166 q-281 0 -432 162q-133 143 -133 371z" />
<glyph unicode="&#xd7;" horiz-adv-x="1269" d="M82 106l414 414l-414 414l106 102l410 -409l414 409l106 -102l-413 -414l413 -414l-106 -106l-414 414l-414 -414z" />
<glyph unicode="&#xd8;" d="M-1077 1905h221l180 -291h-135z" />
<glyph unicode="&#xd9;" d="M-856 1614l180 291h221l-266 -291h-135z" />
<glyph unicode="&#xda;" d="M-1065 1880h98q10 -31 17 -45q14 -31 32 -53q27 -31 68 -48.5t105 -17.5q106 0 159 58q31 32 54 106h98q-18 -145 -107 -215q-80 -63 -221 -63q-135 0 -211 67.5t-92 210.5zM-961 2079q0 111 72 168q61 49 150 49q78 0 137 -31q98 -51 98 -166q0 -53 -25.5 -90t-84.5 -80 q-33 -23 -45.5 -44t-12.5 -68h-121q0 72 15.5 107.5t75 77.5t59.5 93q0 49 -26.5 70.5t-61.5 21.5q-55 0 -76.5 -30.5t-21.5 -75.5z" />
<glyph unicode="&#xdb;" d="M-977 1841q0 111 72 168q61 49 149 49q78 0 138 -30q98 -51 98 -166q0 -53 -25.5 -90t-86 -80.5t-60.5 -137.5h-117q0 78 16.5 124t75 87t58.5 93q0 49 -27 70.5t-62 21.5q-55 0 -76.5 -31t-21.5 -76z" />
<glyph unicode="&#xdc;" d="M-1065 1880h98q10 -31 17 -45q14 -31 32 -53q27 -31 68 -48.5t105 -17.5q106 0 159 58q31 32 54 106h98q-18 -145 -107 -215q-80 -63 -221 -63q-135 0 -211 67.5t-92 210.5zM-897 1970q12 98 64.5 159.5t148.5 61.5q35 0 67.5 -9t71.5 -23l45 -17q72 -29 99 -28 q53 0 77 32q17 21 25 62h102q-12 -94 -67 -157.5t-137 -63.5q-25 0 -50.5 5t-72.5 19l-54 21q-27 8 -63.5 18t-58.5 10q-39 0 -61.5 -23.5t-37.5 -66.5h-98z" />
<glyph unicode="&#xdd;" horiz-adv-x="602" d="M-12 1622l200 287h193l201 -287h-164l-135 188l-136 -188h-159zM188 0v1470h197v-1470h-197z" />
<glyph unicode="&#xde;" horiz-adv-x="1593" d="M80 735q0 295 151 506q193 268 566 268q162 0 281.5 -47t207.5 -135l166 182l64 -61l-170 -186q84 -109 129 -261q39 -133 38 -266q0 -295 -151 -506q-193 -268 -565 -268q-154 0 -275 47t-209 131l-163 -178l-66 57l170 185q-90 113 -132 253t-42 279zM285 735 q0 -223 104 -385l766 834q-66 72 -157 110.5t-201 38.5q-236 0 -374 -167t-138 -431zM444 283q66 -70 155 -108t198 -38q236 0 374 167t138 431q-1 225 -101 377z" />
<glyph unicode="&#xdf;" horiz-adv-x="1251" d="M137 0v1090q0 182 124 291.5t349 109.5t357.5 -100.5t132.5 -268.5q0 -129 -66 -215q-33 -43 -102 -88q106 -29 176 -135q61 -94 61 -197q0 -260 -147 -395q-135 -123 -369 -123q-41 0 -65 4q-29 8 -43 11v153l90 -6q348 0 348 307q0 154 -90 220.5t-258 66.5 q-47 0 -80 -8v162l47 -5q170 0 250 70q68 59 68 162q0 102 -81 165.5t-231 63.5q-162 0 -231 -80q-59 -70 -60 -211v-1044h-180z" />
<glyph unicode="&#xe0;" d="M-922 1196l201 287h193l200 -287h-164l-135 188l-135 -188h-160zM-565 1733h221l184 -287h-139z" />
<glyph unicode="&#xe1;" d="M-922 1196l201 287h193l200 -287h-164l-135 188l-135 -188h-160zM-381 1430l184 286h222l-267 -286h-139z" />
<glyph unicode="&#xe2;" d="M-922 1196l201 287h193l200 -287h-164l-135 188l-135 -188h-160z" />
<glyph unicode="&#xe3;" d="M-958 1561q12 98 64 159.5t149 61.5q35 0 67.5 -9.5t71.5 -23.5l45 -16q72 -29 98 -29q53 0 78 33q17 20 25 61h102q-12 -94 -67.5 -157.5t-137.5 -63.5q-25 0 -50.5 5t-72.5 20l-53 20q-27 8 -63.5 18.5t-59.5 10.5q-39 0 -61.5 -23.5t-36.5 -66.5h-98zM-922 1196 l201 287h193l200 -287h-164l-135 188l-135 -188h-160z" />
<glyph unicode="&#xe4;" d="M-922 1196l201 287h193l200 -287h-164l-135 188l-135 -188h-160zM-705 -160h181v-205h-181v205z" />
<glyph unicode="&#xe5;" d="M-922 1196l201 287h193l200 -287h-164l-135 188l-135 -188h-160zM-535 1632q0 111 72 168q61 49 150 49q78 0 137 -30q98 -51 98 -166q0 -53 -25.5 -90t-84.5 -80q-33 -23 -45.5 -44.5t-12.5 -68.5h-121q0 72 15.5 107.5t75 77.5t59.5 94q0 49 -26.5 70.5t-61.5 21.5 q-55 0 -76.5 -31t-21.5 -76z" />
<glyph unicode="&#xe6;" horiz-adv-x="487" d="M23 1415q0 111 71 168q61 49 150 49q78 0 137 -30q98 -51 98 -166q0 -53 -25.5 -90t-84.5 -80q-33 -23 -45.5 -44.5t-12.5 -68.5h-121q0 72 15.5 107.5t75 77.5t59.5 94q0 49 -26.5 70.5t-61.5 21.5q-55 0 -76.5 -31t-21.5 -76zM143 0v1073h181v-1073h-181z" />
<glyph unicode="&#xe7;" horiz-adv-x="1085" d="M61 508q0 266 123 422q135 172 394 172q193 0 299 -125q88 -102 102 -264h-176q-16 109 -80 169t-174 60q-152 0 -230 -129q-66 -111 -65 -276q0 -174 53 -275q72 -135 242 -135q90 0 161.5 67.5t92.5 186.5h176q-18 -162 -109 -270q-119 -143 -329 -144 q-221 0 -350.5 150.5t-129.5 390.5zM266 -418l33 82q37 -14 61.5 -21.5t73.5 -7.5q45 0 70 13q45 23 45 73q0 41 -33 59.5t-65 18.5q-23 0 -82 -16l-33 41l131 176h94l-94 -127q25 4 37 6t28 2q88 0 136 -53q37 -43 37 -102q0 -82 -66 -135.5t-176 -53.5q-51 0 -94 11.5 t-103 33.5z" />
<glyph unicode="&#xe8;" d="M-967 1782h222l184 -287h-139zM-950 1475h98q10 -31 16 -45q14 -31 33 -54q27 -31 68 -48t104 -17q106 0 160 57q30 33 53 107h99q-18 -145 -107 -215q-80 -63 -221 -64q-135 0 -211 67.5t-92 211.5z" />
<glyph unicode="&#xe9;" d="M-950 1475h98q10 -31 16 -45q14 -31 33 -54q27 -31 68 -48t104 -17q106 0 160 57q30 33 53 107h99q-18 -145 -107 -215q-80 -63 -221 -64q-135 0 -211 67.5t-92 211.5zM-713 1520l185 286h221l-266 -286h-140z" />
<glyph unicode="&#xea;" d="M-950 1475h98q10 -31 16 -45q14 -31 33 -54q27 -31 68 -48t104 -17q106 0 160 57q30 33 53 107h99q-18 -145 -107 -215q-80 -63 -221 -64q-135 0 -211 67.5t-92 211.5z" />
<glyph unicode="&#xeb;" d="M-950 1475h98q10 -31 16 -45q14 -31 33 -54q27 -31 68 -48t104 -17q106 0 160 57q30 33 53 107h99q-18 -145 -107 -215q-80 -63 -221 -64q-135 0 -211 67.5t-92 211.5zM-705 -152h181v-204h-181v204z" />
<glyph unicode="&#xec;" horiz-adv-x="487" d="M-29 1470h226l180 -286h-135zM143 0v1073h181v-1073h-181z" />
<glyph unicode="&#xed;" horiz-adv-x="487" d="M127 1188l180 287h221l-266 -287h-135zM143 0v1073h181v-1073h-181z" />
<glyph unicode="&#xee;" horiz-adv-x="1085" d="M25 1073h204l283 -872l291 872h201q-94 -264 -187.5 -522t-198.5 -531q-129 -326 -189 -392t-232 -66q-16 0 -27 2q-31 10 -47 14v164q16 -6 46 -13.5t60 -7.5q68 0 96.5 39t96.5 211zM721 -119h180v-205h-180v205z" />
<glyph unicode="&#xef;" d="M-700 -119h180v-205h-180v205z" />
<glyph unicode="&#xf0;" horiz-adv-x="487" d="M-10 1264v209h188v-209h-188zM143 0v1073h181v-1073h-181zM322 1264v209h188v-209h-188z" />
<glyph unicode="&#xf1;" horiz-adv-x="1200" d="M74 569q0 233 117.5 383t328.5 150q127 0 215 -66q45 -33 105 -114l4 12v258h-258v156h258v122h180v-127h82v-143h-82v-1200h-172v147q-55 -98 -145 -143q-72 -37 -162 -37q-248 0 -373 203q-98 160 -98 399zM258 541q0 -184 75 -299t216 -115q111 0 188 72 q102 94 103 288q0 184 -45 291q-70 164 -242 164q-182 0 -252 -149q-43 -92 -43 -252z" />
<glyph unicode="&#xf2;" horiz-adv-x="487" d="M139 0v1073h180v-1073h-180zM139 1266v204h180v-204h-180zM147 -139h181v-205h-181v205z" />
<glyph unicode="&#xf3;" horiz-adv-x="487" d="M-94 1237q12 98 64.5 159.5t148.5 61.5q35 0 67.5 -9t71.5 -24l45 -16q72 -29 98 -29q53 0 78 33q17 21 25 62h102q-12 -94 -67.5 -158t-137.5 -64q-25 0 -50 5.5t-72 19.5l-54 20q-27 8 -63.5 18.5t-59.5 10.5q-39 0 -61.5 -23.5t-36.5 -66.5h-98zM143 0v1073h181v-1073 h-181z" />
<glyph unicode="&#xf4;" horiz-adv-x="1200" d="M74 537q0 231 119 387q135 178 376 178q213 0 336 -123q10 2 33 22.5t37 34.5q27 25 36 53.5t9 65.5h-115v127h197v-180q0 -57 -62 -119q-23 -20 -44 -39.5t-38 -25.5q55 -76 83 -176.5t28 -204.5q0 -227 -121 -385q-137 -180 -379 -181q-240 0 -374 179 q-121 158 -121 387zM258 537q0 -152 57 -258q82 -152 254 -152q170 0 252 149q59 109 60 261q0 152 -58 258q-82 152 -254 151q-170 0 -252 -149q-59 -108 -59 -260z" />
<glyph unicode="&#xf5;" d="M-995 1241q12 98 64 159.5t149 61.5q35 0 67.5 -9t71.5 -23l45 -17q72 -29 98 -29q53 0 78 33q17 21 25 62h102q-12 -94 -67.5 -158t-137.5 -64q-25 0 -50 5.5t-73 19.5l-53 21q-27 8 -63.5 18t-59.5 10q-39 0 -61.5 -23.5t-36.5 -66.5h-98z" />
<glyph unicode="&#xf6;" horiz-adv-x="1200" d="M139 303v770h180v-713q0 -125 60 -182q51 -51 149 -51q154 0 232 119q63 96 63 237v590h181v-69q12 4 30 20q10 12 15 16q27 25 34 53.5t7 69.5h-115v127h196v-180q0 -57 -61 -119q-53 -47 -106 -69v-922h-173v156l-4 4q-57 -96 -137 -144.5t-203 -48.5q-139 0 -231 70 q-117 88 -117 266z" />
<glyph unicode="&#xf7;" horiz-adv-x="1269" d="M82 442v152h1036v-152h-1036zM459 102q0 57 41 98.5t98 41.5t98 -41t41 -99q0 -55 -40 -99t-99 -44q-55 0 -97 42t-42 101zM459 934q0 57 41 98t98 41q59 0 99 -40t40 -99q0 -55 -40 -97t-99 -42q-55 0 -97 42t-42 97z" />
<glyph unicode="&#xf8;" d="M-868 1503h225l180 -286h-135z" />
<glyph unicode="&#xf9;" d="M-717 1217l185 286h221l-267 -286h-139z" />
<glyph unicode="&#xfa;" d="M-950 1475h98q10 -31 16 -45q14 -31 33 -54q27 -31 68 -48t104 -17q106 0 160 57q30 33 53 107h99q-18 -145 -107 -215q-80 -63 -221 -64q-135 0 -211 67.5t-92 211.5zM-846 1714q0 111 72 168q61 49 149 49q78 0 138 -30q98 -51 98 -166q0 -53 -25.5 -90t-85.5 -80 q-33 -23 -45 -44.5t-12 -68.5h-121q0 72 15.5 107.5t75 77.5t59.5 94q0 49 -27 70.5t-61 21.5q-55 0 -77 -31t-22 -76z" />
<glyph unicode="&#xfb;" d="M-879 1440q0 111 72 168q61 49 150 49q78 0 137 -31q98 -51 98 -166q0 -53 -25.5 -90t-84.5 -80q-33 -23 -45.5 -44t-12.5 -68h-121q0 72 15.5 107.5t75 77.5t59.5 93q0 49 -26.5 70.5t-61.5 21.5q-55 0 -77 -30.5t-22 -75.5z" />
<glyph unicode="&#xfc;" d="M-950 1475h98q10 -31 16 -45q14 -31 33 -54q27 -31 68 -48t104 -17q106 0 160 57q30 33 53 107h99q-18 -145 -107 -215q-80 -63 -221 -64q-135 0 -211 67.5t-92 211.5zM-815 1573q12 98 64.5 159.5t148.5 61.5q35 0 67.5 -9t71.5 -24l45 -16q72 -29 99 -29q53 0 77 33 q17 20 25 61h102q-12 -94 -67.5 -157.5t-136.5 -63.5q-25 0 -50.5 5t-72.5 20l-54 20q-27 8 -63.5 18.5t-58.5 10.5q-39 0 -61.5 -23.5t-37.5 -66.5h-98z" />
<glyph unicode="&#xfd;" horiz-adv-x="487" d="M-74 1167l201 287h192l201 -287h-164l-135 189l-135 -189h-160zM143 0v1073h181v-1073h-181z" />
<glyph unicode="&#xfe;" horiz-adv-x="1251" d="M57 8l131 148q-57 78 -86.5 176t-29.5 205q0 231 118 387q135 178 379 178q106 0 189.5 -34t146.5 -99l131 147l64 -53l-142 -160q53 -74 81 -169t28 -197q0 -231 -119 -387q-135 -178 -379 -179q-102 0 -183 32t-142 91l-123 -139zM258 537q0 -61 11 -123t40 -121 l484 547q-37 49 -93.5 77.5t-130.5 28.5q-170 0 -252 -149q-59 -109 -59 -260zM356 221q35 -43 88.5 -68.5t124.5 -25.5q170 0 252 149q59 109 60 261q0 61 -9 115.5t-36 111.5z" />
<glyph unicode="&#xff;" horiz-adv-x="1085" d="M25 1073h204l283 -872l291 872h201q-94 -264 -187.5 -522t-198.5 -531q-129 -326 -189 -392t-232 -66q-16 0 -27 2q-31 10 -47 14v164q16 -6 46 -13.5t60 -7.5q68 0 96.5 39t96.5 211zM721 -119h180v-205h-180v205z" />
<glyph unicode="&#x152;" d="M-967 1823v12q0 74 54 129q61 63 163 64q94 0 150 -58q47 -49 47 -123q-14 -55 -49 -100q-27 -35 -86 -84q-4 -10 -8 -21v-69h-86v29q0 55 9 88.5t44 70.5q18 25 29.5 42.5t23.5 39.5q0 41 -22.5 72t-63.5 31q-61 0 -83.5 -32t-22.5 -91h-99z" />
<glyph unicode="&#x153;" d="M-864 1434v12q0 74 53 129q61 63 164 63q94 0 149 -57q47 -49 47 -123q-14 -55 -49 -100q-27 -35 -86 -84q-4 -10 -8 -21v-69h-86v28q0 55 9 89t44 71q18 25 29.5 42.5t24.5 39.5q0 41 -22.5 71.5t-63.5 30.5q-61 0 -84 -31.5t-23 -90.5h-98z" />
<glyph unicode="&#x178;" horiz-adv-x="1454" d="M29 1470h233l422 -704l422 704h233l-557 -876v-594h-196v594zM602 -139h180v-205h-180v205z" />
<glyph unicode="&#x2c6;" horiz-adv-x="602" />
<glyph unicode="&#x2dc;" d="M-850 1384q0 94 64.5 159t158.5 65q92 0 158 -65.5t66 -158.5q0 -92 -66 -157.5t-158 -65.5t-157.5 63.5t-65.5 159.5zM-758 1384q0 -59 38 -95t93 -36t93 38t38 93t-37.5 93.5t-93.5 38.5q-53 0 -92 -39.5t-39 -92.5z" />
<glyph unicode="&#x2000;" horiz-adv-x="1148" />
<glyph unicode="&#x2001;" horiz-adv-x="2296" />
<glyph unicode="&#x2002;" horiz-adv-x="1148" />
<glyph unicode="&#x2003;" horiz-adv-x="2296" />
<glyph unicode="&#x2004;" horiz-adv-x="765" />
<glyph unicode="&#x2005;" horiz-adv-x="574" />
<glyph unicode="&#x2006;" horiz-adv-x="382" />
<glyph unicode="&#x2007;" horiz-adv-x="382" />
<glyph unicode="&#x2008;" horiz-adv-x="287" />
<glyph unicode="&#x2009;" horiz-adv-x="459" />
<glyph unicode="&#x200a;" horiz-adv-x="127" />
<glyph unicode="&#x2010;" horiz-adv-x="737" d="M90 475v184h504v-184h-504z" />
<glyph unicode="&#x2011;" horiz-adv-x="737" d="M90 475v184h504v-184h-504z" />
<glyph unicode="&#x2012;" horiz-adv-x="737" d="M90 475v184h504v-184h-504z" />
<glyph unicode="&#x2013;" horiz-adv-x="1200" d="M0 492v151h1139v-151h-1139z" />
<glyph unicode="&#x2014;" horiz-adv-x="2166" d="M0 492v151h2048v-151h-2048z" />
<glyph unicode="&#x2018;" horiz-adv-x="487" d="M135 963v200q0 131 46 213t167 111v-98q-70 -10 -94 -84q-16 -47 -16 -125h110v-217h-213z" />
<glyph unicode="&#x2019;" horiz-adv-x="487" d="M111 950v94q68 10 92 84q14 45 14 125h-106v217h213v-200q0 -127 -45 -205q-51 -88 -168 -115z" />
<glyph unicode="&#x201a;" horiz-adv-x="2048" d="M16 0l598 1470h1319v-176h-798v-450h729v-176h-729v-492h813v-176h-1012v428h-543l-162 -428h-215zM465 604h471v690h-199z" />
<glyph unicode="&#x201c;" horiz-adv-x="737" d="M78 963v200q0 129 48 212t165 112v-98q-68 -10 -92 -84q-14 -45 -15 -125h107v-217h-213zM418 963v200q0 131 46 213t167 111v-98q-70 -10 -94 -84q-16 -47 -17 -125h111v-217h-213z" />
<glyph unicode="&#x201d;" horiz-adv-x="737" d="M53 950v94q70 10 94 84q16 47 17 125h-111v217h213v-200q0 -129 -43 -205q-51 -88 -170 -115zM393 950v94q68 10 92 84q14 45 15 125h-107v217h213v-200q0 -127 -45 -205q-51 -88 -168 -115z" />
<glyph unicode="&#x201e;" horiz-adv-x="1820" d="M74 279q0 111 49 186q82 125 276 149l297 37q43 4 64 25q31 29 31 102q0 174 -252 174q-135 0 -195 -71q-37 -45 -51 -136h-166q0 186 115.5 271.5t326.5 85.5q109 0 182.5 -27.5t166.5 -124.5q74 70 118 97q98 55 238 55q227 0 344 -167t117 -458h-783q0 -170 79 -261 t233 -91q117 0 202 76q74 65 74 135h180q-8 -59 -45 -131q-53 -100 -145 -162q-51 -35 -98 -49q-78 -25 -193 -25q-166 0 -276 84q-68 51 -117 140q-76 -115 -183.5 -169.5t-252.5 -54.5q-150 0 -243 85t-93 225zM260 305q0 -186 195 -186q131 0 231 73t100 179v176 q-23 -18 -82 -32.5t-215 -35.5q-96 -14 -147 -41q-82 -43 -82 -133zM952 621h596q0 139 -65 221q-78 98 -234 98q-123 0 -210 -95t-87 -224z" />
<glyph unicode="&#x2022;" horiz-adv-x="602" />
<glyph unicode="&#x2026;" horiz-adv-x="1245" d="M184 0v209h189v-209h-189zM516 0v209h189v-209h-189zM848 0v209h188v-209h-188z" />
<glyph unicode="&#x202f;" horiz-adv-x="459" />
<glyph unicode="&#x2039;" horiz-adv-x="737" d="M201 475v189l319 249v-180l-213 -164l213 -168v-180z" />
<glyph unicode="&#x203a;" horiz-adv-x="737" d="M201 221v180l213 168l-213 164v180l319 -249v-189z" />
<glyph unicode="&#x205f;" horiz-adv-x="574" />
<glyph unicode="&#x2122;" horiz-adv-x="2048" d="M94 1348v122h670v-122h-260v-721h-150v721h-260zM911 627v843h230l241 -620l238 620h229v-843h-149v686l-268 -686h-103l-264 686l-4 -686h-150z" />
<glyph unicode="&#xe000;" horiz-adv-x="1075" d="M0 0v1075h1075v-1075h-1075z" />
</font>
</defs>
</svg>
