<?xml version="1.0" standalone="no"?>
<!DOCTYPE svg PUBLIC "-//W3C//DTD SVG 1.1//EN" "http://www.w3.org/Graphics/SVG/1.1/DTD/svg11.dtd" >
<svg xmlns="http://www.w3.org/2000/svg">
<metadata></metadata>
<defs>
<font id="vni-helveitalic" horiz-adv-x="81" >
<font-face units-per-em="2048" ascent="1638" descent="-410" />
<missing-glyph horiz-adv-x="704" />
<glyph horiz-adv-x="2048" />
<glyph horiz-adv-x="2048" />
<glyph unicode="&#xd;" horiz-adv-x="704" />
<glyph unicode=" "  horiz-adv-x="704" />
<glyph unicode="&#x09;" horiz-adv-x="704" />
<glyph unicode="&#xa0;" horiz-adv-x="704" />
<glyph unicode="!" horiz-adv-x="585" d="M254 0l45 213h172l-45 -213h-172zM369 344l49 414l155 737h172l-155 -737l-135 -414h-86z" />
<glyph unicode="&#x22;" horiz-adv-x="749" d="M365 946l4 279l45 225h192l-45 -225l-115 -279h-81zM688 946l4 279l49 225h193l-49 -225l-115 -279h-82z" />
<glyph unicode="#" horiz-adv-x="1146" d="M111 389l36 164h234l123 315h-213l33 164h245l156 398h160l-160 -398h254l156 398h163l-155 -398h188l-37 -164h-217l-123 -315h205l-33 -164h-241l-168 -430h-156l168 430h-254l-172 -430h-151l163 430h-204zM541 553h254l123 315h-254z" />
<glyph unicode="$" horiz-adv-x="1146" d="M139 279q0 31 6.5 68.5t14.5 78.5h155q0 -18 -3 -49t-5 -66q0 -82 39 -129q51 -61 174 -88l115 557q-102 33 -152 56q-98 47 -131 100q-41 61 -41 151q0 37 5.5 65t19.5 75q53 176 192 272q115 80 283 100l25 107h122l-24 -111q86 0 147.5 -26.5t110.5 -79.5 q35 -35 50 -88t15 -109q0 -27 -3 -51t-9 -47h-164q2 18 3 38.5t1 31.5q0 63 -22.5 103t-60 60.5t-80.5 20.5h-21l-106 -504q180 -53 241 -94q119 -78 119 -221q0 -53 -12 -115q-39 -160 -168 -283q-119 -111 -246 -131l-119 -16l-45 -213h-123l45 209q-147 25 -211 61 q-137 82 -137 267zM475 1024q0 -72 54.5 -125.5t146.5 -67.5l102 492q-92 0 -177 -65.5t-109 -155.5q-4 -14 -10.5 -40t-6.5 -38zM643 98q109 23 164 56q131 74 164 227l4 49q0 88 -74 139q-45 31 -147 62z" />
<glyph unicode="%" horiz-adv-x="1847" d="M274 979l9 74q31 143 155.5 247.5t270.5 104.5q123 0 200.5 -82t77.5 -201v-24q0 -16 -4 -45q-31 -143 -153.5 -245.5t-268.5 -102.5q-127 0 -207 77.5t-80 196.5zM418 1008q0 -68 50 -114t122 -46q86 0 158.5 60.5t91.5 144.5l4 45q0 68 -46 116t-118 48 q-86 0 -161 -62.5t-93 -146.5zM430 -41l1126 1491h136l-1123 -1491h-139zM1118 238l8 73q31 143 154 245.5t268 102.5q125 0 204 -78.5t79 -199.5v-27q0 -18 -4 -43q-31 -143 -156 -247.5t-270 -104.5q-123 0 -203 80t-80 199zM1262 266q0 -68 50 -116t122 -48 q84 0 157.5 61.5t91.5 147.5l5 41q0 68 -48.5 116t-119.5 48q-86 0 -159 -60.5t-91 -144.5z" />
<glyph unicode="&#x26;" horiz-adv-x="1380" d="M168 250l8 82q27 141 105 239q68 84 198 162l123 74l-49 98q-45 78 -45 160q0 98 55 186t154 146q45 27 102.5 42t114.5 15q66 0 120 -20.5t93 -65.5q31 -37 46 -82t15 -90q0 -102 -68.5 -198.5t-172.5 -153.5l-127 -70l200 -332q43 61 68 111q37 70 47 131h164 q-12 -80 -69.5 -183.5t-131.5 -189.5l189 -311h-226l-94 152q-74 -55 -129 -92t-108 -64q-72 -18 -137.5 -29.5t-108.5 -11.5q-61 0 -109.5 11t-91.5 42q-68 45 -101.5 103.5t-33.5 138.5zM352 324q0 -72 43 -131q59 -82 170 -82l8 4q74 0 136 26q86 38 209 138l-242 409 q-201 -121 -242 -164q-82 -88 -82 -188v-12zM680 1085q0 -39 16 -73q6 -12 78 -111q84 29 154 84q109 86 108 191l-4 49q-8 39 -47 62.5t-92 23.5q-61 0 -115.5 -34t-76 -93.5t-21.5 -98.5z" />
<glyph unicode="'" horiz-adv-x="397" d="M356 946l4 279l46 225h192l-45 -225l-115 -279h-82z" />
<glyph unicode="(" horiz-adv-x="704" d="M229 233q0 66 9.5 138.5t23.5 156.5q53 246 207 516q146 258 330 451h114q-199 -246 -329 -528q-106 -231 -150 -439q-18 -94 -29.5 -182t-11.5 -186q0 -152 25.5 -297.5t85.5 -300.5h-115q-72 133 -116 312t-44 359z" />
<glyph unicode=")" horiz-adv-x="704" d="M-16 -438q203 248 333 528q106 229 150 438q18 88 27.5 175.5t9.5 189.5q0 156 -24 302t-83 300h115q70 -133 111 -313.5t41 -366.5q0 -145 -25 -287q-53 -246 -207 -516q-145 -258 -330 -450h-118z" />
<glyph unicode="*" horiz-adv-x="819" d="M348 1245l66 123l196 -82l41 230h127l-57 -230l229 78l17 -127l-234 -53l98 -185l-114 -73l-86 192l-172 -188l-86 74l180 180z" />
<glyph unicode="+" horiz-adv-x="1216" d="M188 406l33 143h422l90 422h144l-91 -422h426l-32 -143h-422l-90 -426h-144l90 426h-426z" />
<glyph unicode="," horiz-adv-x="585" d="M115 -307l20 94q63 31 108.5 90.5t59.5 122.5h-123l45 213h213l-45 -213q-39 -127 -129 -217q-80 -80 -149 -90z" />
<glyph unicode="-" horiz-adv-x="704" d="M201 492l32 151h488l-33 -151h-487z" />
<glyph unicode="." horiz-adv-x="585" d="M180 0l45 213h213l-45 -213h-213z" />
<glyph unicode="/" horiz-adv-x="585" d="M-25 -45l803 1495h111l-799 -1495h-115z" />
<glyph unicode="0" horiz-adv-x="1146" d="M201 369q0 74 10 158.5t27 177.5q33 145 84 278q63 164 137 258q82 102 193.5 157.5t219.5 55.5q113 0 199 -53t125 -160q14 -39 21.5 -90t7.5 -119q0 -82 -9.5 -164t-27.5 -163q-29 -147 -80 -279q-61 -162 -143 -264.5t-190.5 -156.5t-221.5 -54q-111 0 -198 55 t-126 162q-12 43 -20 95t-8 106zM377 381q0 -37 4 -64.5t8 -42.5q23 -74 79 -110.5t122 -36.5q68 0 131 33q76 39 131 114q37 47 85 174t75 257q16 70 24 160.5t8 150.5q0 78 -8 119q-23 74 -78 110.5t-122 36.5q-66 0 -136.5 -37t-126.5 -110q-35 -43 -83 -171t-76 -259 q-18 -100 -27.5 -178t-9.5 -146z" />
<glyph unicode="1" horiz-adv-x="1146" d="M426 1024l33 139q223 33 287.5 77t154.5 214h119l-307 -1454h-172l217 1024h-332z" />
<glyph unicode="2" horiz-adv-x="1146" d="M70 0q59 221 151 340q115 147 361 274l241 123q90 43 150 99q84 78 108 184q4 16 4 36.5v28.5q0 119 -100 172q-61 33 -137 33q-158 0 -250 -96q-78 -80 -119 -244h-176q49 209 162 330q162 174 453 174q172 0 268 -104q88 -94 88 -240q0 -20 -3 -46t-5 -40 q-31 -139 -154 -266q-100 -104 -227 -164l-262 -123q-111 -49 -215 -143q-92 -84 -109 -156h774l-37 -172h-966z" />
<glyph unicode="3" horiz-adv-x="1146" d="M143 307q0 23 5.5 59t7.5 56h172q-4 -27 -6.5 -43.5t-2.5 -42.5q0 -94 41 -148q53 -70 164 -69q193 0 303 90q98 80 115 217l4 57q0 111 -80 146t-272 35l33 155q193 0 268 37q102 51 137 209l4 53q0 88 -71 135q-57 37 -138 37q-281 0 -348 -307h-172q53 225 191.5 348 t353.5 123q166 0 264 -74q109 -82 109 -233v-25q0 -47 -8 -82q-25 -113 -101 -190q-41 -43 -137 -100q82 -39 119 -100.5t37 -141.5q0 -53 -13 -115q-43 -197 -208.5 -319.5t-376.5 -122.5q-217 0 -316 110q-78 88 -78 246z" />
<glyph unicode="4" horiz-adv-x="1146" d="M131 340l41 197l856 917h135l-200 -942h213l-37 -172h-213l-70 -340h-172l70 340h-623zM328 512h463l139 651z" />
<glyph unicode="5" horiz-adv-x="1146" d="M139 299q0 10 4 30.5t4 26.5h185q0 -80 30 -133q55 -96 191 -96q162 0 258 76q104 82 143 260l9 86q0 115 -68 178.5t-174 63.5q-88 0 -157.5 -33t-141.5 -99h-164l283 795h749l-37 -172h-606l-143 -405q68 49 135.5 65t134.5 16q150 0 250 -67q139 -94 139 -289 q0 -35 -6 -78t-10 -69q-39 -188 -205 -340q-180 -164 -389 -164q-219 0 -330 125q-84 94 -84 223z" />
<glyph unicode="6" horiz-adv-x="1146" d="M193 365q0 61 10 129.5t26 156.5q41 203 107 350q88 203 223 316q162 137 387 137q86 0 176 -65q127 -92 127 -267v-49h-176l4 41q0 70 -55 123t-141 53q-190 0 -328 -211q-100 -154 -139 -346q63 49 129 98q111 74 252 74q158 0 261 -95t103 -257q0 -55 -12 -111 q-39 -178 -170 -315q-168 -176 -416 -176q-199 0 -291 127q-78 106 -77 287zM360 352q0 -109 76 -174q70 -59 166 -59q135 0 227 78q102 86 138 245q4 18 6 39t2 60q0 92 -45 139q-57 61 -193 61q-113 0 -211 -67q-122 -84 -153 -240q-4 -25 -7.5 -46t-5.5 -36z" />
<glyph unicode="7" horiz-adv-x="1146" d="M283 0q117 258 192 391q84 147 225 338q92 125 220 279q113 137 227 274h-778l37 172h970l-33 -156q-137 -133 -278 -309q-29 -37 -188 -244q-100 -129 -207 -323q-121 -219 -195 -422h-192z" />
<glyph unicode="8" horiz-adv-x="1146" d="M147 295l9 74q18 82 50 146.5t77 107.5q25 37 72.5 70.5t119.5 68.5q-104 84 -119 151q-6 33 -9 51.5t-3 22.5q0 16 4 40t8 46q18 84 73.5 162t143.5 133q63 39 136 62.5t147 23.5q82 0 159 -21.5t140 -68.5q39 -31 58.5 -91.5t19.5 -121.5v-31q0 -23 -4 -51 q-27 -123 -94 -184q-25 -25 -73 -62t-83 -57q41 -12 71.5 -45t51.5 -78q41 -61 41 -164q0 -55 -13 -110q-14 -82 -80.5 -167t-168.5 -153q-70 -49 -161 -73.5t-188 -24.5q-193 0 -307 127q-78 98 -78 217zM340 332q0 -90 57 -148q68 -66 193 -65q125 0 229.5 81t130.5 193 l8 74q0 121 -98 178q-66 39 -147 39q-152 0 -247 -83t-118 -212zM528 999l4 -24q12 -66 65.5 -102.5t123.5 -36.5q76 0 141.5 21.5t108.5 68.5q59 59 73 135l5 49q-1 86 -50 135q-45 45 -155 45q-63 0 -110.5 -11t-91.5 -45t-69.5 -74t-35.5 -87q0 -10 -3.5 -30.5 t-5.5 -43.5z" />
<glyph unicode="9" horiz-adv-x="1146" d="M172 283l4 49h180l-8 -45q0 -68 57.5 -118t143.5 -50q190 0 328 209q100 154 139 344q-66 -49 -129 -99q-111 -74 -252 -73q-160 0 -260 90q-109 96 -109 258q0 23 3 43t14 72q39 178 170 315q168 176 415 176q197 0 289 -129q76 -106 76 -289q0 -63 -9.5 -135 t-23.5 -147q-41 -203 -106 -351q-88 -203 -224 -315q-162 -137 -387 -137q-92 0 -180 63q-131 94 -131 269zM451 860q0 -117 79 -164q57 -33 162 -32q113 0 209 67q123 84 156 240l8 78q0 111 -71.5 176t-166.5 65q-133 0 -231 -83t-133 -240q-12 -55 -12 -107z" />
<glyph unicode=":" horiz-adv-x="585" d="M225 0l45 213h213l-45 -213h-213zM410 864l45 213h213l-45 -213h-213z" />
<glyph unicode=";" horiz-adv-x="585" d="M160 -307l20 94q61 29 108.5 89.5t63.5 123.5h-123l45 213h213l-45 -213q-41 -129 -129 -217q-80 -80 -153 -90zM410 844l45 213h213l-45 -213h-213z" />
<glyph unicode="&#x3c;" horiz-adv-x="1216" d="M180 406l29 143l1094 422l-37 -164l-881 -332l741 -332l-36 -163z" />
<glyph unicode="=" horiz-adv-x="1216" d="M152 229l32 144h992l-33 -144h-991zM225 578l33 143h991l-32 -143h-992z" />
<glyph unicode="&#x3e;" horiz-adv-x="1216" d="M98 -20l37 163l869 332l-730 332l37 164l910 -422l-29 -143z" />
<glyph unicode="?" horiz-adv-x="1146" d="M377 1032q43 205 164 326q150 150 393 149h78q150 -20 221 -110q57 -74 57 -185q0 -66 -16.5 -126t-40.5 -103q-33 -57 -113 -131q-59 -55 -174 -143q-68 -55 -86 -74q-57 -61 -74 -139l-20 -95h-188l24 123q18 106 146 219q78 61 100 80q63 51 96 78q61 51 84 86 q35 49 52.5 99.5t17.5 93.5q0 80 -52.5 128t-148.5 48q-184 0 -272 -137q-20 -31 -72 -187h-176zM492 0l45 213h188l-45 -213h-188z" />
<glyph unicode="@" horiz-adv-x="2105" d="M160 352q0 92 23.5 195.5t70.5 197.5q76 147 176 273q145 180 324 293q137 84 305 137q184 59 334 59h53q150 0 307 -71q180 -82 270 -219q43 -59 71 -152.5t28 -179.5v-31q0 -23 -4 -51q-18 -123 -70 -225q-35 -70 -106 -168q-84 -109 -176.5 -179.5t-188.5 -99.5 q-35 -8 -80 -16.5t-76 -8.5q-27 0 -59.5 7.5t-42.5 9.5q-55 14 -78.5 55t-23.5 88q-70 -61 -103 -82q-49 -31 -110 -49q-6 -2 -44 -9t-67 -7q-33 0 -55.5 5t-55.5 19q-63 29 -98 76t-49 129l-4 49q0 94 49 213q61 137 158 238q68 72 157 127q51 31 127 57q94 33 164 33 q20 0 43 -1t39 -7q59 -18 99 -70.5t40 -101.5l74 135h168l-328 -610q-16 -29 -24 -48.5t-8 -33.5q6 -18 12 -37q12 -18 28.5 -29.5t45.5 -11.5l28 4q90 20 170 74.5t125 113.5q76 98 116 191.5t40 157.5v16q0 84 -25.5 170t-68.5 145q-51 66 -148 125q-121 74 -250 96 l-127 9q-143 0 -291 -56q-115 -43 -229 -120q-131 -92 -242 -222q-92 -109 -134 -192.5t-66.5 -176.5t-24.5 -188q0 -80 21 -155q29 -92 114 -183q94 -98 226 -161q59 -25 122.5 -35t131.5 -10q102 0 227 24q84 16 199 49l28 -139q-123 -41 -242.5 -63.5t-240.5 -22.5 q-170 0 -311 49q-109 37 -228 133q-164 131 -207 281q-10 49 -19 96t-9 92zM819 430q0 -23 8.5 -49.5t20.5 -52.5q23 -41 58.5 -61.5t72.5 -20.5q10 0 22.5 3t30.5 9q96 27 185 127q61 72 122.5 190.5t69.5 198.5v25q0 41 -21.5 66.5t-76.5 43.5q-33 8 -62 9 q-39 0 -72.5 -9.5t-70.5 -31.5q-131 -74 -217 -234q-35 -76 -43 -96q-27 -68 -27 -117z" />
<glyph unicode="A" horiz-adv-x="1380" d="M37 0l860 1495h233l209 -1495h-217l-57 446h-569l-254 -446h-205zM582 606h462l-81 656z" />
<glyph unicode="B" horiz-adv-x="1380" d="M164 0l315 1495h656q111 0 202 -65q121 -86 121 -234l-8 -86q-23 -106 -91.5 -191t-170.5 -128q35 -20 72 -39q117 -82 116 -232l-8 -90q-43 -207 -219 -332q-137 -98 -252 -98h-733zM393 172h479q131 0 218 90q68 72 90 176q2 16 5 32.5t3 33.5q0 104 -96 147 q-74 33 -215 33h-377zM537 852h393q150 0 233 74q61 55 82 147l4 53q0 80 -53 129q-74 68 -233 68h-328z" />
<glyph unicode="C" horiz-adv-x="1495" d="M229 520q0 41 5.5 86t19.5 131q43 180 125 330q100 180 248 297q74 57 180 100q139 55 266 56h8q229 0 362.5 -131.5t133.5 -356.5h-197q-18 147 -98 228q-86 88 -233 88q-94 0 -184.5 -36t-168.5 -108q-84 -80 -151.5 -208t-93.5 -259q-8 -45 -16.5 -99t-8.5 -93 q0 -84 18.5 -152.5t51.5 -122.5q45 -72 120.5 -107.5t169.5 -35.5q322 0 521 422h196q-100 -262 -301 -426q-211 -172 -457 -172q-133 0 -245 53q-92 43 -140 102q-63 78 -97 190t-34 224z" />
<glyph unicode="D" horiz-adv-x="1495" d="M184 0l316 1495h577q215 0 345 -134t130 -370v-39v-32q-4 -25 -4 -35q-25 -207 -95.5 -373t-189 -284.5t-235.5 -178.5q-94 -49 -164 -49h-680zM414 172h417q53 0 80 5t79 26.5t127 98.5t105.5 140.5t65.5 159.5q29 80 42 139.5t21.5 118t8.5 111.5q0 90 -25 164 q-41 98 -123.5 143t-191.5 45h-365z" />
<glyph unicode="E" horiz-adv-x="1380" d="M184 0l320 1495h1036l-37 -172h-844l-102 -471h811l-33 -168h-811l-110 -512h880l-37 -172h-1073z" />
<glyph unicode="F" horiz-adv-x="1261" d="M184 0l320 1495h999l-37 -172h-807l-102 -471h709l-33 -168h-709l-147 -684h-193z" />
<glyph unicode="G" horiz-adv-x="1613" d="M221 524q0 53 5 92t20 113q41 180 131 334q106 184 266 301q82 57 199 100q154 55 293 56h28q86 0 157 -15.5t122 -46.5q123 -74 176 -184q37 -78 37 -176v-54h-189v25q0 102 -86 182q-104 96 -282 97q-104 0 -204.5 -36t-188.5 -108q-94 -82 -166 -209t-97 -262 q-8 -43 -16 -91t-8 -85q0 -82 23.5 -162t62.5 -133q53 -68 142 -105.5t190 -37.5q152 0 278 74q168 98 240 235q29 57 59 195h-455l37 172h627l-172 -803h-123l-4 184q-158 -115 -231 -151q-152 -74 -342 -74q-106 0 -214 46t-163 101q-76 80 -114 195t-38 231z" />
<glyph unicode="H" horiz-adv-x="1495" d="M172 0l315 1495h193l-135 -643h762l139 643h192l-319 -1495h-193l148 684h-766l-143 -684h-193z" />
<glyph unicode="I" horiz-adv-x="585" d="M205 0l319 1495h193l-320 -1495h-192z" />
<glyph unicode="J" horiz-adv-x="1028" d="M94 250q0 12 4 36.5t4 32.5l33 156h193l-29 -151l-8 -54q0 -55 33.5 -93t85.5 -50q25 -8 49 -8q51 0 109.5 23.5t103.5 66.5q35 31 60.5 93.5t49.5 176.5l217 1016h193l-254 -1184q-29 -76 -76 -143q-74 -104 -174 -160q-57 -31 -126.5 -46t-123.5 -15l-49 4 q-158 0 -235 106q-59 82 -60 193z" />
<glyph unicode="K" horiz-adv-x="1380" d="M164 0l315 1495h193l-156 -741l897 741h254l-745 -610l421 -885h-225l-356 754l-299 -246l-107 -508h-192z" />
<glyph unicode="L" horiz-adv-x="1146" d="M164 0l319 1495h193l-283 -1323h737l-36 -172h-930z" />
<glyph unicode="M" horiz-adv-x="1732" d="M156 0l315 1495h274l160 -1270l701 1270h270l-315 -1495h-197l258 1212l-668 -1212h-196l-148 1212l-258 -1212h-196z" />
<glyph unicode="N" horiz-adv-x="1495" d="M156 0l319 1495h225l492 -1208l258 1208h192l-319 -1495h-217l-504 1196l-254 -1196h-192z" />
<glyph unicode="O" horiz-adv-x="1495" d="M147 532q0 53 5.5 92.5t19.5 112.5q41 178 131 330q109 184 266 297q82 57 199 100q154 56 293 56q141 0 268 -54q102 -43 158 -102q74 -78 110.5 -191.5t36.5 -234.5q0 -98 -20 -201q-33 -172 -127 -331q-106 -180 -266 -300q-80 -57 -201 -100q-154 -55 -291 -55 q-145 0 -270 53q-98 43 -156 102q-80 82 -118 193t-38 233zM348 569q0 -186 86 -299q51 -72 138 -107.5t194 -35.5q102 0 206.5 36t186.5 107q92 78 163 203t99 264q8 33 12.5 78t4.5 86q0 92 -20.5 171t-61.5 132q-51 68 -140.5 106t-191.5 38q-104 0 -204.5 -36 t-190.5 -112t-163 -204t-95.5 -237.5t-22.5 -189.5z" />
<glyph unicode="P" horiz-adv-x="1380" d="M188 0l316 1495h659q121 0 213 -63q123 -84 123 -252v-50q0 -236 -184 -380q-150 -119 -303 -119l-4 4h-492l-135 -635h-193zM549 803h491q82 0 172 96q72 76 86 178v45q0 106 -73 160q-57 41 -135 41h-431z" />
<glyph unicode="Q" horiz-adv-x="1613" d="M209 532q0 53 5 92.5t19 112.5q41 178 132 330q109 184 266 297q82 57 198 100q154 55 293 56q141 0 269 -54q102 -43 157 -102q74 -78 111 -191.5t37 -234.5q0 -98 -21 -201q-31 -156 -108 -301q-89 -163 -224 -280l160 -156l-127 -123l-172 180q-98 -47 -201.5 -76.5 t-211.5 -29.5q-145 0 -271 53q-98 43 -155 102q-80 82 -118 193t-38 233zM410 569q0 -186 86 -299q51 -72 138 -107.5t193 -35.5q119 0 250 53l-123 127l119 115l152 -152q90 78 160.5 204t97.5 263q8 33 12 78t4 86q0 92 -20.5 171t-61.5 132q-51 68 -140 106t-192 38 q-104 0 -204.5 -36t-190.5 -112t-162.5 -204t-95 -237.5t-22.5 -189.5z" />
<glyph unicode="R" horiz-adv-x="1495" d="M193 0l315 1495h668q186 0 278 -51q123 -68 123 -236l-8 -94q-20 -141 -82 -221q-49 -63 -193 -156q119 -80 119 -188q0 -37 -9 -93.5t-15 -99.5q-12 -59 -22.5 -117.5t-10.5 -86.5q0 -63 45 -103l-8 -49h-234l-8 86v33.5t8 68.5q25 145 49 291q0 76 -39 115 q-49 49 -157 49h-492l-135 -643h-192zM557 811h479q115 0 187 41q94 55 137 188q20 68 20 111q0 76 -49 119q-61 53 -188 53h-479z" />
<glyph unicode="S" horiz-adv-x="1380" d="M180 324q0 31 10 92q4 29 11 59h176q-4 -25 -8 -54.5t-4 -35.5q0 -86 45 -147q59 -80 184 -103q35 -4 77 -8t50 -4l70 4q72 8 127 22.5t98 47.5q59 43 103 107.5t44 125.5q0 82 -73 143q-57 31 -140 58q-25 8 -156.5 39.5t-142.5 36.5q-47 20 -139 55q-53 16 -92 61 q-55 66 -55 164l4 49q23 195 178 332q172 152 428 152q102 0 194.5 -19.5t149.5 -58.5q78 -55 115 -142q28 -66 28 -136q0 -34 -5 -66t-7 -41h-188q4 31 6 43t2 35q0 45 -21.5 88t-71 77.5t-96.5 45t-110 10.5h-25q-172 0 -287 -101q-102 -90 -102 -194q0 -76 66 -115 q39 -25 90 -43t123 -31l348 -102q78 -29 131 -108.5t53 -174.5l-4 -49q-33 -211 -236 -352q-195 -135 -436 -135h-16q-166 0 -256 35q-113 43 -182 157q-57 92 -58 181z" />
<glyph unicode="T" horiz-adv-x="1261" d="M324 1323l36 172h1172l-37 -172h-487l-279 -1323h-192l278 1323h-491z" />
<glyph unicode="U" horiz-adv-x="1495" d="M254 340q0 18 2 36.5t6 41.5l230 1077h192l-225 -1065l-8 -57q0 -102 67 -170q84 -84 256 -84q197 0 324 110q98 86 123 201l225 1065h192l-229 -1077q-33 -164 -180 -295q-193 -172 -492 -172q-258 0 -385 133q-98 102 -98 256z" />
<glyph unicode="V" horiz-adv-x="1380" d="M381 1495h205l164 -1266l684 1266h204l-839 -1495h-209z" />
<glyph unicode="W" horiz-adv-x="1941" d="M365 1495h213l20 -1204l590 1204h205l77 -1204l537 1204h213l-696 -1495h-213l-82 1217l-594 -1217h-213z" />
<glyph unicode="X" horiz-adv-x="1380" d="M45 0l688 766l-332 729h234l258 -573l500 573h233l-655 -729l360 -766h-237l-271 610l-540 -610h-238z" />
<glyph unicode="Y" horiz-adv-x="1380" d="M344 1495h238l278 -725l578 725h233l-753 -909l-127 -586h-193l127 586z" />
<glyph unicode="Z" horiz-adv-x="1261" d="M57 0l37 164l1135 1159h-828l37 172h1073l-36 -176l-1135 -1147h893l-37 -172h-1139z" />
<glyph unicode="[" horiz-adv-x="585" d="M41 -438l410 1933h380l-32 -152h-209l-344 -1630h205l-29 -151h-381z" />
<glyph unicode="\" horiz-adv-x="585" d="M303 1495h111l159 -1536h-110z" />
<glyph unicode="]" horiz-adv-x="585" d="M-49 -442l33 155h209l348 1626h-209l33 156h380l-409 -1937h-385z" />
<glyph unicode="^" horiz-adv-x="983" d="M238 684l479 778h151l148 -778h-144l-118 606l-377 -606h-139z" />
<glyph unicode="_" horiz-adv-x="1146" d="M-123 -360l21 102h1232l-20 -102h-1233z" />
<glyph unicode="`" horiz-adv-x="704" d="M369 1516h229l135 -304h-127z" />
<glyph unicode="a" horiz-adv-x="1146" d="M131 193q0 25 3 40t13 58q33 121 117 192q66 57 165 85t201.5 40.5t213.5 26.5q29 4 55 20q39 25 47 62l29 127q0 51 -80 80.5t-174 29.5q-131 0 -203 -82q-41 -47 -59 -118h-164l29 94q20 53 73 108q66 70 148 105q47 18 108.5 31.5t124.5 13.5q55 0 96 -3t84 -13 q92 -23 148.5 -72t56.5 -117v-20l-151 -717l-4 -12q0 -16 23.5 -33t45.5 -17q29 0 41 4l-28 -135q-29 -8 -63 -14t-73 -6q-51 0 -91 44t-40 99l4 17q-117 -78 -170 -105q-111 -55 -206 -55q-147 0 -233.5 63.5t-86.5 178.5zM315 233q0 -66 46.5 -98.5t109.5 -32.5l12 -4 q145 0 273 95q102 75 108 118l45 217q-76 -29 -237.5 -52t-212.5 -46q-35 -12 -74 -47q-47 -43 -61 -96z" />
<glyph unicode="b" horiz-adv-x="1146" d="M111 0l319 1495h172l-119 -549q23 27 50.5 50.5t69.5 47t110.5 43t138.5 19.5q86 0 149 -27q84 -35 138 -108q31 -43 48 -110.5t17 -143.5q0 -125 -37 -254q-45 -156 -135 -277q-96 -131 -225 -190q-102 -45 -221 -45t-176 45q-45 35 -76 65.5t-47 57.5l-25 -119h-151z M377 389q0 -35 8 -76t21 -80q23 -53 69.5 -83.5t110.5 -30.5l24 -4q57 0 118.5 27.5t102.5 74.5q84 88 134 221q43 119 43 238q0 94 -27 148.5t-78 82t-112 27.5h-13q-66 0 -127 -26.5t-111.5 -77t-101.5 -171.5q-61 -145 -61 -270z" />
<glyph unicode="c" horiz-adv-x="1028" d="M156 340q0 100 25.5 208.5t80.5 211.5q63 115 160 203q78 72 170 107.5t186 35.5h17q172 0 266 -94q39 -29 56.5 -86.5t17.5 -134.5l-5 -78h-172v49q0 117 -69 151q-27 16 -62.5 26.5t-81.5 10.5q-106 0 -233 -114q-43 -39 -80 -111t-56.5 -142.5t-29.5 -123.5t-10 -99 q0 -16 5 -40.5t7 -36.5q27 -86 86.5 -129t130.5 -43l17 4q72 0 135 35.5t95 82t49.5 76t27.5 64.5h168q-18 -68 -44 -120t-59 -97q-82 -98 -199.5 -151.5t-238.5 -53.5h-12q-119 0 -209 62.5t-119 166.5q-20 76 -20 160z" />
<glyph unicode="d" horiz-adv-x="1146" d="M147 360l9 103q20 154 83.5 289t161.5 215q82 70 168 104.5t160 34.5h16q70 0 128.5 -19.5t93.5 -46.5q29 -20 48 -45.5t25 -48.5l119 549h172l-315 -1499h-152l29 127q-41 -37 -76 -64q-49 -37 -100 -67q-76 -41 -193 -41q-121 0 -206 46t-128 142.5t-43 220.5zM344 393 q0 -92 41 -180q25 -49 76 -75.5t112 -26.5l17 4q70 6 129 35.5t100 82.5q80 96 117 218q31 100 31 204q0 59 -7.5 99.5t-21.5 72.5q-51 102 -193 103h-16q-133 0 -229 -103q-63 -68 -109.5 -191.5t-46.5 -242.5z" />
<glyph unicode="e" horiz-adv-x="1146" d="M172 336q0 47 4 77.5t21 118.5q27 123 83 231.5t138 182.5q92 82 190.5 121t194.5 39h45q94 0 171 -43t116 -109q53 -106 53 -221q0 -55 -8.5 -109.5t-28.5 -152.5h-782q-20 -61 -21 -111q0 -59 30 -121.5t71 -93.5q57 -43 141 -43q106 0 190 56q72 47 146 170h172 q-41 -92 -66 -129q-31 -45 -74 -84q-74 -78 -181 -121t-216 -43q-111 0 -202 45t-142 131q-45 90 -45 209zM406 623h589q6 31 7.5 43t1.5 39q0 57 -9.5 101t-23.5 66q-10 35 -55.5 62t-108.5 33h-33q-59 0 -120.5 -23.5t-104.5 -71.5q-29 -25 -72 -94q-53 -83 -71 -155z" />
<glyph unicode="f" horiz-adv-x="585" d="M184 0l193 918h-144l33 159h148l37 180q18 88 79 152q70 72 142 86l73 4l103 -8l-33 -143h-57q-59 0 -93 -25t-47 -90l-32 -156h172l-37 -159h-172l-193 -918h-172z" />
<glyph unicode="g" horiz-adv-x="1146" d="M66 -176l4 53h176l-4 -33q0 -35 19.5 -63.5t70.5 -54.5q55 -25 127 -25q43 0 81 6t83 23q78 37 112 77q20 25 51 95q16 35 35 92t35 137q-74 -70 -160 -117q-117 -63 -225 -63q-61 8 -102 24q-55 23 -107 74q-55 41 -85 119t-30 172q0 27 4.5 62.5t8.5 68.5 q23 131 81 256t136 211q63 63 174 115.5t190 52.5h17q90 0 156.5 -38t113.5 -122l33 131h172l-193 -893q-74 -313 -170 -442q-82 -111 -211 -148q-37 -12 -85 -24t-103 -21h-49q-55 0 -99 7.5t-85 25.5q-96 39 -140 113q-33 55 -32 129zM332 360q0 -31 8 -64.5t20 -62.5 q59 -118 183 -118h2l24 -4q113 0 209 90q80 70 128 203t48 260q0 131 -41 184q-14 23 -65 46.5t-111 23.5h-16q-70 0 -138.5 -38t-123.5 -118q-25 -35 -55.5 -103.5t-47.5 -138.5q-8 -33 -16 -80t-8 -80z" />
<glyph unicode="h" horiz-adv-x="1146" d="M143 0l320 1495h172l-119 -549q39 35 88 68q66 43 116 60.5t87 24.5t74 7q51 0 87 -7t81 -30q70 -25 102 -92q25 -51 25 -113l-5 -45l-176 -819h-172l156 733q4 14 6 41t2 37q0 49 -17.5 75.5t-39.5 35.5q-64 32 -123 32h-4l-49 -4q-41 -6 -83 -27.5t-106 -62.5 q-43 -35 -59 -57q-29 -39 -43 -103l-148 -700h-172z" />
<glyph unicode="i" horiz-adv-x="471" d="M135 0l230 1077h172l-230 -1077h-172zM410 1282l45 213h172l-45 -213h-172z" />
<glyph unicode="j" horiz-adv-x="471" d="M-135 -451l33 152l106 12q39 0 64.5 30t33.5 60l271 1274h172l-279 -1315q-12 -53 -55 -104q-57 -68 -145 -92q-27 -8 -68 -12.5t-76 -4.5h-57zM414 1282l45 213h172l-45 -213h-172z" />
<glyph unicode="k" horiz-adv-x="1028" d="M119 0l319 1495h172l-184 -868l549 450h221l-455 -372l287 -705h-209l-233 573l-209 -167l-86 -406h-172z" />
<glyph unicode="l" horiz-adv-x="471" d="M139 0l320 1495h172l-320 -1495h-172z" />
<glyph unicode="m" horiz-adv-x="1732" d="M147 0l230 1077h172l-33 -139q43 47 66 70q41 41 73 57q96 41 213 41q70 0 104 -6t66.5 -34t50 -49.5t37.5 -70.5l62 58q57 51 110 73q37 14 78 21.5t86 7.5h33q100 0 160 -33q37 -23 63.5 -77t26.5 -111l-4 -45l-176 -840h-172l163 770v8q0 90 -43 131t-124 41 q-111 0 -191 -67q-68 -57 -100 -154l-156 -729h-172l164 774v29q0 76 -46 111.5t-114 35.5q-100 0 -188 -73.5t-119 -184.5l-148 -692h-172z" />
<glyph unicode="n" horiz-adv-x="1146" d="M143 0l230 1077h172l-29 -135q41 41 77 69.5t71 45.5q80 49 196 49h29q59 0 100 -7t68 -22q61 -35 90 -89t29 -124v-28l-177 -836h-172l160 750l4 49q0 72 -48 111.5t-128 39.5q-125 0 -219 -80q-119 -100 -158 -297l-123 -573h-172z" />
<glyph unicode="o" horiz-adv-x="1146" d="M164 336q0 31 4 69.5t20 126.5q70 322 267 467q145 106 340 107q154 0 254 -76q131 -98 131 -309q0 -41 -3.5 -73t-17.5 -116q-70 -322 -268 -471q-149 -110 -339 -110h-3q-154 0 -254 76q-131 98 -131 309zM348 410q0 -121 53 -195q63 -88 185 -88q158 0 270 135 q94 112 127 270q4 37 8 76t4 43q0 121 -51 195q-61 88 -186 88q-156 0 -266 -133q-94 -113 -127 -269q-8 -61 -17 -122z" />
<glyph unicode="p" horiz-adv-x="1146" d="M16 -451l324 1528h152l-29 -135q61 68 172 123q35 20 85 30.5t107 10.5q61 0 114.5 -11.5t90.5 -33.5q86 -45 127 -140.5t41 -224.5v-34v-39q-4 -18 -4 -25q-20 -154 -83.5 -289t-162.5 -215q-84 -76 -180 -112q-80 -31 -164 -31q-70 0 -128 20.5t-90 45t-51.5 50 t-25.5 48.5l-123 -566h-172zM381 401q0 -57 8 -93t25 -75q29 -47 80 -74.5t112 -27.5l12 -4q133 0 234 106q63 66 107.5 189t44.5 242q0 104 -37 184q-25 47 -77 72.5t-116 25.5h-12q-68 -6 -126 -35.5t-104 -83.5q-80 -96 -115.5 -208.5t-35.5 -217.5z" />
<glyph unicode="q" horiz-adv-x="1146" d="M143 348q0 61 10.5 120.5t30.5 129.5q45 156 138.5 281t222.5 182q47 23 105.5 34t119.5 11q123 0 176 -41q39 -27 67.5 -57.5t51.5 -65.5l29 135h151l-327 -1528h-173l123 566q-25 -29 -50 -50.5t-68 -44.5q-47 -29 -114 -49t-136 -20q-84 0 -148 29q-80 35 -135 114 q-74 94 -74 254zM340 385q0 -41 9 -80t24 -72q25 -51 75 -78.5t109 -27.5l16 4q66 0 129.5 26.5t108.5 75.5q68 68 131 238q14 49 21.5 99.5t7.5 97.5q0 86 -21.5 148.5t-70 93t-113.5 36.5h-16q-61 0 -123 -25.5t-107 -72.5q-61 -63 -102 -149.5t-62 -178.5q-6 -35 -8 -51 q-8 -51 -8 -84z" />
<glyph unicode="r" horiz-adv-x="704" d="M143 0l230 1077h172l-37 -168q152 197 291 197h94l-37 -180q-94 0 -168 -25q-102 -41 -164.5 -122t-89.5 -218l-119 -561h-172z" />
<glyph unicode="s" horiz-adv-x="1028" d="M127 213q0 25 5 58.5t7 47.5h160l-4 -40q0 -125 147 -168q23 -6 61 -9.5t87 -3.5q53 12 88 22.5t59 26.5q74 45 94 132v24q0 35 -20 65.5t-66 45.5q-104 25 -210.5 51.5t-165.5 58.5q-51 16 -80 58q-35 47 -35 118q0 16 4 40t8 46q33 147 166 233.5t297 86.5 q188 0 272 -80q63 -61 64 -166q0 -37 -8 -86h-168l4 49q0 49 -39 80q-55 43 -174 43q-74 0 -136.5 -32.5t-97.5 -82.5q-25 -41 -24 -73q0 -47 45 -74q33 -20 95.5 -39.5t144 -37t130 -33t97.5 -50.5q78 -53 78 -168q0 -23 -2 -35t-15 -63q-29 -84 -93 -152.5t-157 -109.5 q-45 -18 -102 -31.5t-106 -13.5h-23h-25q-31 0 -66.5 1t-86.5 15q-115 29 -168 103q-41 57 -41 143z" />
<glyph unicode="t" horiz-adv-x="585" d="M197 86l4 20l172 812h-148l33 159h152l61 291h172l-61 -291h168l-33 -159h-172l-156 -746l-4 -20q0 -20 20.5 -30.5t57.5 -10.5l82 8l-33 -156q-80 -12 -143 -12h-45q-66 0 -101 49q-27 39 -26 86z" />
<glyph unicode="u" horiz-adv-x="1146" d="M176 205l4 16l185 856h172l-164 -762l-8 -61q0 -78 53 -111q33 -23 90 -28l24 -4q25 0 40.5 3t58.5 13q104 35 172 106q84 90 119 259l122 585h173l-230 -1077h-172l25 115q-29 -33 -73 -68t-81 -54.5t-96.5 -30.5t-122.5 -11t-103 6t-65 18q-53 33 -88 92.5t-35 137.5z " />
<glyph unicode="v" horiz-adv-x="1028" d="M250 1077h192l95 -872l495 872h193l-639 -1077h-189z" />
<glyph unicode="w" horiz-adv-x="1495" d="M242 1077h192l33 -839l389 839h213l21 -835l397 835h192l-544 -1077h-197l-41 819l-381 -819h-197z" />
<glyph unicode="x" horiz-adv-x="1028" d="M37 0l491 553l-241 524h196l176 -381l345 381h192l-479 -524l254 -553h-193l-188 401l-361 -401h-192z" />
<glyph unicode="y" horiz-adv-x="1028" d="M16 -422l37 156q14 -4 42 -10.5t44 -6.5h37q31 6 61.5 31t53.5 64l98 172l-119 1093h185l98 -815l471 815h184l-770 -1327q-35 -59 -85 -104t-99 -68q-43 -16 -77 -22.5t-71 -6.5q-29 0 -51 7.5t-39 21.5z" />
<glyph unicode="z" horiz-adv-x="1028" d="M66 0l28 143l791 762h-582l37 172h803l-33 -151l-778 -754h643l-37 -172h-872z" />
<glyph unicode="{" horiz-adv-x="704" d="M188 459l29 143q100 20 152 92q43 61 73 199l70 352q23 102 102 180q68 66 119 66l152 8l-29 -135l-94 -12q-74 0 -98 -131l-78 -361q-29 -139 -117 -242q-27 -33 -100 -90q37 -37 61.5 -96t24.5 -129v-22q0 -14 -1 -32t-8 -48l-77 -365q-6 -33 -13 -65q0 -66 58 -66 l86 -12l-25 -131l-151 4q-39 0 -78 51q-45 59 -45 137l8 62l78 352q6 39 11 75t5 64q0 61 -27 100.5t-88 51.5z" />
<glyph unicode="|" horiz-adv-x="540" d="M111 -442l413 1937h123l-414 -1937h-122z" />
<glyph unicode="}" horiz-adv-x="704" d="M-33 -438l29 135l94 8q41 6 63.5 37t34.5 94l78 365q23 111 82.5 196.5t134.5 130.5q-33 45 -63 93q-27 61 -27 133q0 51 13 106l77 361l9 65q0 66 -54 66l-90 12l29 135l151 -8q39 0 79 -55.5t40 -132.5q0 -37 -4 -58l-78 -352q-20 -88 -20 -148q0 -120 119 -143 l-29 -143q-100 -20 -152 -92q-43 -61 -73 -199l-70 -352q-23 -104 -102 -183q-70 -68 -119 -67z" />
<glyph unicode="~" horiz-adv-x="1216" d="M283 598q16 72 44.5 129t71.5 98t83 56.5t79 15.5q31 0 56.5 -6t46.5 -19l237 -163q25 -14 39 -19.5t31 -5.5q41 0 73 25q33 20 49.5 60t16.5 75h107q-6 -68 -33 -119t-74 -98q-39 -39 -82 -60.5t-90 -21.5q-33 0 -72 14t-75 39l-189 139q-37 29 -70 29q-47 0 -90 -51 t-49 -117h-110z" />
<glyph horiz-adv-x="704" />
<glyph horiz-adv-x="704" />
<glyph horiz-adv-x="704" />
<glyph horiz-adv-x="704" />
<glyph horiz-adv-x="704" />
<glyph horiz-adv-x="704" />
<glyph horiz-adv-x="1953" d="M106 350q0 31 4.5 70t20.5 127q70 322 266 467q145 106 340 106q119 0 205 -45q113 -59 156 -182q20 29 38.5 49.5t47.5 46.5q92 82 190.5 121t194.5 39h45q94 0 171 -43t116 -109q53 -106 53 -221q0 -55 -8.5 -109.5t-28.5 -152.5h-782q-20 -61 -21 -111 q0 -59 30 -121.5t70 -93.5q57 -43 142 -43q106 0 190 56q72 47 146 170h172q-41 -92 -66 -129q-31 -45 -74 -84q-74 -78 -181 -121t-216 -43q-111 0 -202 45t-142 131l-18 43q-94 -133 -236 -197q-113 -51 -237 -51q-154 0 -254 76q-131 98 -132 309zM291 424 q0 -121 53 -195q63 -88 184 -88q158 0 271 135q94 113 127 271q4 37 8 76t4 43q0 121 -51 194q-61 88 -187 88q-156 0 -266 -133q-94 -113 -127 -268q-8 -61 -16 -123zM1171 666h590q6 31 7 43t1 39q0 57 -9 101t-23 66q-10 35 -55.5 62t-108.5 33h-33q-59 0 -120.5 -23.5 t-104.5 -71.5q-29 -25 -72 -94q-54 -83 -72 -155z" />
<glyph horiz-adv-x="704" />
<glyph unicode="&#xa1;" horiz-adv-x="681" d="M158 -399l102 485l184 635h101l-86 -635l-103 -485h-198zM424 862l45 209h199l-45 -209h-199z" />
<glyph unicode="&#xa2;" horiz-adv-x="1146" d="M197 344q0 125 43 261t96 206q70 113 160 180q74 55 155 78q45 14 102.5 23.5t94.5 9.5h41.5t44.5 -4l94 188h86l-110 -213q70 -16 112.5 -60t63 -101.5t20.5 -133.5l-4 -69h-160q0 78 -26.5 136t-79.5 77l-398 -799q14 -6 38 -11.5t44 -5.5q41 0 81 9.5t83 31.5 q72 41 121 107q39 51 64 123h163q-29 -104 -84 -184q-80 -117 -211 -177q-53 -27 -122.5 -42t-126.5 -15q-74 0 -123 16l-111 -221h-78l127 242q-63 29 -110 86q-61 74 -82 172q-4 37 -6 50t-2 40zM377 401q0 -72 27.5 -138t70.5 -103l389 790l-57 8q-31 0 -71 -10t-68 -22 q-100 -41 -169 -152.5t-102 -261.5q-20 -55 -20 -111z" />
<glyph unicode="&#xa3;" horiz-adv-x="1146" d="M90 111q80 53 125 90q61 51 113 110q61 76 85.5 134.5t24.5 107.5q0 31 -4 47t-16 55h-225l24 115h172q-35 74 -50 117t-15 80q0 14 4 39.5t8 50.5q35 166 205 298t360 132l70 -4q178 -23 256 -121q59 -76 59 -191q0 -41 -7 -82.5t-13 -72.5h-181l9 110q0 84 -37 127 q-45 53 -156 66h-29q-115 0 -217 -70q-135 -92 -135 -258l4 -4q7 -76 66 -217h328l-25 -115h-287v-73q0 -43 -10 -80t-43 -92q-61 -94 -147 -174q-6 -6 -132 -109q90 39 140 55q72 23 135 23q84 0 185.5 -31t142.5 -31q43 0 106 29q43 20 86 41l41 -143q-70 -61 -141.5 -86 t-149.5 -25t-164 25q-31 8 -114 41q-68 25 -140 24q-70 0 -141 -29q-74 -37 -100 -49z" />
<glyph unicode="&#xa4;" horiz-adv-x="1146" d="M225 381l123 102q-16 27 -24.5 57.5t-8.5 69.5q0 82 36 163t95 124l-90 123l136 115l90 -119q125 53 213 53q43 0 90 -14.5t98 -38.5l139 110l95 -127l-144 -110q6 -23 13.5 -59.5t7.5 -71.5v-45q-10 -66 -50 -129q-18 -31 -65 -88l94 -115l-143 -115l-86 115 q-57 -33 -114.5 -53.5t-102.5 -20.5q-39 0 -82 15.5t-99 42.5l-131 -107zM483 631q0 -70 48.5 -111t107.5 -41l16 4l13 -4q74 0 143 53q82 63 102 164l5 49q0 74 -48.5 115t-111.5 41h-13h-16q-76 0 -141 -51q-78 -59 -92 -158q-6 -31 -13 -61z" />
<glyph unicode="&#xa5;" horiz-adv-x="1146" d="M205 360l24 107h365l33 156h-365l21 106h311l-262 725h155l246 -688l541 688h151l-569 -725h307l-20 -106h-365l-33 -156h365l-25 -107h-360l-78 -360h-155l77 360h-364z" />
<glyph unicode="&#xa6;" horiz-adv-x="630" d="M180 -41l131 606h152l-131 -606h-152zM389 942l119 569h151l-118 -569h-152z" />
<glyph unicode="&#xa7;" horiz-adv-x="1146" d="M127 -139q0 35 6.5 59t18.5 51h176q-8 -39 -17 -77q0 -66 35 -114t105 -54h32q61 0 113 24q72 35 104 107q8 14 12.5 36.5t4.5 40.5q0 43 -18.5 77t-43.5 55l-319 241q-47 39 -76 86q-43 72 -43 156q0 27 6 60.5t10 54.5q27 111 105 180q53 47 178 110q-61 61 -61 160 q0 12 3 27.5t9 42.5q41 121 162 213q129 98 272 98h41q145 -16 213 -102q53 -68 53 -172q0 -39 -10 -83t-14 -61h-172q0 2 10 46t10 65q0 51 -26 88q-35 47 -109 63h-29q-94 0 -157 -57q-53 -47 -64 -106l-8 -41q0 -43 43 -86q25 -25 92 -70l238 -164q72 -51 104 -127 q27 -61 27 -135l-4 -66q-25 -160 -142 -260q-80 -68 -149 -80q33 -53 47 -90t14 -82q0 -47 -20 -114q-49 -143 -184 -226q-121 -74 -263 -73h-45q-137 0 -211 102q-59 82 -59 197zM393 627q0 -55 37 -103q31 -31 62 -61q49 -55 159 -146q61 -51 123 -100q68 31 129 105 q51 61 60 120v29q0 55 -23.5 101t-58.5 75l-283 242q-84 -49 -117 -78q-49 -45 -68.5 -97t-19.5 -87z" />
<glyph unicode="&#xa8;" d="M-604 1819q0 102 68.5 170.5t170.5 68.5t171 -68.5t69 -170.5q0 -104 -67.5 -172t-172.5 -68q-102 0 -170.5 68.5t-68.5 171.5zM-524 1819q0 -68 47 -119t112 -51q66 0 113 51t47 119q0 63 -47 114.5t-113 51.5q-63 0 -111 -50.5t-48 -115.5z" />
<glyph unicode="&#xa9;" horiz-adv-x="1744" d="M111 569q0 80 20 168q68 324 346.5 553.5t603.5 229.5q281 0 456 -177.5t175 -445.5q0 -35 -2 -57.5t-14 -102.5q-72 -326 -348 -556t-598 -230q-281 0 -460 175t-179 443zM213 590q0 -231 156.5 -386t400.5 -155q283 0 526.5 201t305.5 487q12 74 12 144 q0 231 -154.5 387.5t-398.5 156.5q-285 0 -529.5 -201.5t-302.5 -486.5q-4 -27 -10 -75t-6 -72zM504 635q0 20 4 51t8 59q43 199 185.5 323t338.5 124q139 0 223.5 -74t84.5 -205v-16h-115q0 90 -59.5 147.5t-149.5 57.5q-150 0 -258 -105q-100 -96 -135 -252 q-4 -29 -8.5 -58.5t-4.5 -31.5q0 -119 67 -194.5t192 -75.5q96 0 177.5 56.5t116.5 152.5h111q-45 -135 -166 -219t-260 -84q-162 0 -257 95t-95 249z" />
<glyph unicode="&#xaa;" horiz-adv-x="1277" d="M203 295v926h901v-926h-901z" />
<glyph unicode="&#xab;" horiz-adv-x="1077" d="M303 471l37 176l373 250l-37 -172l-254 -168l184 -168l-37 -172zM717 471l37 176l368 250l-37 -172l-245 -168l176 -168l-37 -172z" />
<glyph unicode="&#xac;" horiz-adv-x="1261" d="M217 651l33 148h1036l-123 -578h-151l90 430h-885z" />
<glyph unicode="&#xad;" horiz-adv-x="704" d="M201 492l32 151h488l-33 -151h-487z" />
<glyph unicode="&#xae;" horiz-adv-x="1683" d="M111 569q0 80 20 168q68 324 346.5 553.5t603.5 229.5q281 0 456 -177.5t175 -445.5q0 -35 -2 -57.5t-14 -102.5q-72 -326 -348 -556t-598 -230q-281 0 -460 175t-179 443zM213 590q0 -231 156.5 -386t400.5 -155q283 0 526.5 201t305.5 487q12 74 12 144 q0 231 -154.5 387.5t-398.5 156.5q-285 0 -529.5 -201.5t-302.5 -486.5q-4 -27 -10 -75t-6 -72zM532 299l185 877h381q86 0 130 -11.5t75 -34.5q29 -16 45 -55t16 -80l-4 -53q-27 -121 -119 -182q-84 -55 -209 -55l180 -406h-127l-163 406h-197l-86 -406h-107zM741 786h164 l70 -4q137 0 205 47q55 39 73 117l4 37q0 68 -55 91.5t-145 23.5h-250z" />
<glyph unicode="&#xaf;" horiz-adv-x="937" d="M291 1286l24 115h643l-24 -115h-643z" />
<glyph unicode="&#xb0;" horiz-adv-x="1806" d="M444 780q0 201 132.5 341.5t343.5 140.5q215 0 348 -139.5t133 -342.5t-133 -340t-348 -137q-211 0 -343.5 138.5t-132.5 338.5z" />
<glyph unicode="&#xb1;" horiz-adv-x="1171" d="M82 0l33 152h1003l-37 -152h-999zM188 569l33 144h422l62 323h155l-74 -323h426l-32 -144h-422l-74 -340h-143l73 340h-426z" />
<glyph unicode="&#xb2;" horiz-adv-x="819" d="M184 582q33 125 86 194q61 80 201 154l139 69q49 18 84 52q47 43 64 100v33q0 53 -38 88t-97 35q-86 0 -140 -56q-44 -47 -69 -137h-95q25 117 89 186q92 100 256 101q90 0 143 -55.5t53 -133.5q0 -37 -4 -53q-14 -80 -82 -151q-57 -61 -127 -95l-147 -65 q-66 -29 -125 -82q-51 -47 -60 -86h435l-21 -98h-545z" />
<glyph unicode="&#xb3;" horiz-adv-x="679" d="M102 762l9 69h98l-4 -49q0 -57 27.5 -92t91.5 -35q109 0 171 50.5t74 130.5v28q0 70 -45 90.5t-164 20.5l21 90q115 0 158 20q61 29 84 119v25q0 55 -37 80.5t-82 25.5q-166 0 -209 -176h-98q35 131 113.5 201t201.5 70q98 0 157.5 -43.5t59.5 -129.5q0 -41 -4 -61 q-14 -68 -57 -115q-27 -29 -78 -61q90 -39 90 -135q0 -25 -8 -66q-25 -115 -123 -186.5t-221 -71.5t-181 64q-45 51 -45 137z" />
<glyph unicode="&#xb4;" d="M-602 1909h131l123 -193l205 193h131l-262 -307h-197z" />
<glyph unicode="&#xb5;" horiz-adv-x="1146" d="M49 -426l152 729l164 770h180l-152 -713q-6 -41 -12 -81q0 -78 47 -115t125 -37q154 0 256 119q82 96 113 237l127 590h180l-225 -1073h-173l33 156l-4 4q-80 -96 -169 -144.5t-212 -48.5q-59 0 -95 19.5t-52 54.5l-103 -467h-180z" />
<glyph unicode="&#xb6;" horiz-adv-x="1286" d="M305 1126q0 18 4 36t6 26q33 160 148 235.5t297 75.5h407l-309 -1460h-121l289 1362h-195l-286 -1362h-123l180 848q-135 0 -216 66.5t-81 172.5z" />
<glyph unicode="&#xb7;" horiz-adv-x="512" d="M145 678q0 43 32 76.5t79 33.5t79 -31.5t32 -78.5q0 -45 -32 -78t-79 -33q-43 0 -80 31q-31 35 -31 80z" />
<glyph unicode="&#xb8;" d="M-516 1495h131l123 -197l205 197h131l-262 -307h-197z" />
<glyph unicode="&#xb9;" horiz-adv-x="491" d="M170 1163l16 70q111 16 141.5 36.5t80.5 106.5h57l-152 -725h-86l107 512h-164z" />
<glyph unicode="&#xba;" horiz-adv-x="1359" d="M231 264v1002h967v-1002h-967zM322 342h790v838h-790v-838z" />
<glyph unicode="&#xbb;" horiz-adv-x="1007" d="M250 217l33 172l262 168l-180 168l36 172l246 -250l-37 -176zM655 217l37 172l258 168l-184 168l37 172l258 -250l-37 -176z" />
<glyph unicode="&#xbc;" horiz-adv-x="1425" d="M332 1188l16 82q129 14 166 39.5t92 128.5h82l-192 -844h-99l127 594h-192zM344 -45l803 1495h110l-798 -1495h-115zM807 188l24 111l480 537h94l-115 -549h127l-24 -99h-123l-37 -192h-103l37 192h-360zM922 287h270l70 327l12 62z" />
<glyph unicode="&#xbd;" horiz-adv-x="1568" d="M332 1188l16 82q129 14 166 39.5t92 128.5h82l-192 -844h-99l127 594h-192zM344 -45l803 1495h110l-798 -1495h-115zM901 8q33 125 86 195q61 80 201 153l139 70q49 18 84 51q47 43 64 101v32q0 53 -38 88t-98 35q-86 0 -139 -55q-45 -47 -70 -137h-94q25 117 88 186 q92 100 256 100q90 0 143.5 -55t53.5 -133q0 -37 -4 -53q-14 -80 -82 -152q-57 -61 -127 -94l-147 -66q-66 -29 -125 -81q-51 -47 -60 -87h434l-20 -98h-545z" />
<glyph unicode="&#xbe;" horiz-adv-x="1449" d="M102 762l9 69h98l-4 -49q0 -57 27.5 -92t91.5 -35q109 0 171 50.5t74 130.5v28q0 70 -45 90.5t-164 20.5l21 90q115 0 158 20q61 29 84 119v25q0 55 -37 80.5t-82 25.5q-166 0 -209 -176h-98q35 131 113.5 201t201.5 70q98 0 157.5 -43.5t59.5 -129.5q0 -41 -4 -61 q-14 -68 -57 -115q-27 -29 -78 -61q90 -39 90 -135q0 -25 -8 -66q-25 -115 -123 -186.5t-221 -71.5t-181 64q-45 51 -45 137zM344 -45l803 1495h110l-798 -1495h-115zM807 188l24 111l480 537h94l-115 -549h127l-24 -99h-123l-37 -192h-103l37 192h-360zM922 287h270l70 327 l12 62z" />
<glyph unicode="&#xbf;" horiz-adv-x="1251" d="M174 -72.5q0 13.5 10 62.5q20 96 80 170q49 61 185 168q109 88 139 118q86 90 119 256h180q-35 -164 -96 -251q-47 -66 -193 -189q-111 -94 -135 -119q-68 -68 -88 -166q-6 -25 -6 -53q0 -76 39 -121q51 -59 163 -59q133 0 220 81t122 243h181q-33 -133 -70 -201 q-57 -109 -174 -184q-68 -45 -153 -70t-165 -25q-158 0 -253 78q-104 84 -105 232v29.5zM727 866l45 209h199l-45 -209h-199z" />
<glyph unicode="&#xc0;" d="M-651 1622l262 307h196l132 -307h-132l-122 193l-205 -193h-131zM-250 2171h230l135 -303h-123z" />
<glyph unicode="&#xc1;" d="M-651 1622l262 307h196l132 -307h-132l-122 193l-205 -193h-131zM-49 1831l184 299h250l-311 -299h-123z" />
<glyph unicode="&#xc2;" d="M-651 1622l262 307h196l132 -307h-132l-122 193l-205 -193h-131z" />
<glyph unicode="&#xc3;" d="M-651 1622l262 307h196l132 -307h-132l-122 193l-205 -193h-131zM-606 2052q41 82 117 137q63 47 124 47l62 -8l139 -49q61 -20 94 -20q35 0 64 20q20 19 43 37l82 -12q-49 -70 -84 -103t-92 -57l-49.5 -11t-40.5 -5l-37 4l-152 57q-16 8 -36.5 12t-33.5 4 q-37 0 -114 -65z" />
<glyph unicode="&#xc4;" d="M-868 -356l45 213h172l-45 -213h-172zM-651 1618l262 307h196l132 -307h-132l-122 192l-205 -192h-131z" />
<glyph unicode="&#xc5;" d="M-651 1622l262 307h196l132 -307h-132l-122 193l-205 -193h-131zM-221 2066q20 86 86 138q78 61 205 61h36q100 -14 154 -61q45 -39 45 -90q0 -20 -18.5 -64.5t-38.5 -60.5q-74 -51 -107 -76q-57 -43 -63 -64l-17 -67h-110l12 67q8 55 57 97q43 41 89 84q37 41 43 67l4 8 q0 29 -29 53.5t-57 24.5q-92 0 -125 -49q-16 -57 -23 -68h-143z" />
<glyph unicode="&#xc6;" horiz-adv-x="585" d="M205 0l319 1495h193l-320 -1495h-192zM434 1853q20 86 86 138q78 61 205 61h37q100 -14 153 -61q45 -39 46 -90q0 -20 -18.5 -64.5t-39.5 -60.5q-74 -51 -106 -76q-57 -43 -64 -64l-16 -67h-111l12 67q8 55 58 97q43 41 88 84q37 41 43 67l4 8q0 29 -28.5 53.5 t-57.5 24.5q-92 0 -125 -49q-16 -57 -22 -68h-144z" />
<glyph unicode="&#xc7;" horiz-adv-x="1495" d="M229 520q0 41 5.5 86t19.5 131q43 180 125 330q100 180 248 297q74 57 180 100q139 55 266 56q238 0 371 -129t133 -359h-197q-18 147 -98 228q-86 88 -233 88q-94 0 -184.5 -36t-168.5 -108q-84 -80 -151.5 -208t-93.5 -259q-8 -45 -16.5 -99t-8.5 -93 q0 -84 18.5 -152.5t51.5 -122.5q45 -72 120.5 -107.5t169.5 -35.5q322 0 521 422h196q-78 -195 -216 -342.5t-308 -210.5l-57 -107l49 5q33 0 59.5 -8.5t47 -29t20.5 -65.5q0 -31 -13 -61q-33 -80 -88 -119q-43 -31 -104 -41l-102 -8q-47 0 -93.5 14t-136.5 55l62 86 q41 -25 87 -49t85 -24t71.5 14t59.5 51q2 8 7 24.5t5 24.5q0 35 -25 41q-20 20 -41 21q-12 0 -25 -6.5t-28 -14.5l-20 13l82 155q-27 -8 -66 -12t-74 -4q-129 0 -241 53q-92 43 -140 102q-63 78 -97 190t-34 224z" />
<glyph unicode="&#xc8;" d="M-623 1819q0 14 4.5 43t4.5 39h69v-33q0 -76 111 -94q53 -6 88 -9.5t39 -3.5q23 0 51.5 4t54.5 9q68 10 101 53q20 27 34 74h70q-31 -63 -61 -127q-59 -92 -160 -127q-41 -8 -83 -16.5t-73 -8.5q-37 0 -60.5 5t-62.5 20q-72 31 -99.5 74.5t-27.5 97.5zM-598 2191h229 l136 -303h-123z" />
<glyph unicode="&#xc9;" d="M-623 1819q0 14 4.5 43t4.5 39h69v-33q0 -76 111 -94q53 -6 88 -9.5t39 -3.5q23 0 51.5 4t54.5 9q68 10 101 53q20 27 34 74h70q-31 -63 -61 -127q-59 -92 -160 -127q-41 -8 -83 -16.5t-73 -8.5q-37 0 -60.5 5t-62.5 20q-72 31 -99.5 74.5t-27.5 97.5zM-377 1909l184 299 h250l-311 -299h-123z" />
<glyph unicode="&#xca;" d="M-623 1819q0 14 4.5 43t4.5 39h69v-33q0 -76 111 -94q53 -6 88 -9.5t39 -3.5q23 0 51.5 4t54.5 9q68 10 101 53q20 27 34 74h70q-31 -63 -61 -127q-59 -92 -160 -127q-41 -8 -83 -16.5t-73 -8.5q-37 0 -60.5 5t-62.5 20q-72 31 -99.5 74.5t-27.5 97.5z" />
<glyph unicode="&#xcb;" d="M-827 -348l45 213h172l-45 -213h-172zM-623 1819q0 14 4.5 43t4.5 39h69v-33q0 -76 111 -94q53 -6 88 -9.5t39 -3.5q23 0 51.5 4t54.5 9q68 10 101 53q20 27 34 74h70q-31 -63 -61 -127q-59 -92 -160 -127q-41 -8 -83 -16.5t-73 -8.5q-37 0 -60.5 5t-62.5 20 q-72 31 -99.5 74.5t-27.5 97.5z" />
<glyph unicode="&#xcc;" horiz-adv-x="585" d="M205 0l319 1495h193l-320 -1495h-192zM385 1905h229l136 -303h-123z" />
<glyph unicode="&#xcd;" horiz-adv-x="585" d="M205 0l319 1495h193l-320 -1495h-192zM541 1626l184 299h250l-311 -299h-123z" />
<glyph unicode="&#xce;" horiz-adv-x="1380" d="M344 1495h238l278 -725l578 725h233l-753 -909l-127 -586h-193l127 586zM541 -340l45 213h172l-45 -213h-172z" />
<glyph unicode="&#xcf;" d="M-872 -365l45 213h172l-45 -213h-172z" />
<glyph unicode="&#xd0;" horiz-adv-x="569" d="M205 0l319 1495h193l-320 -1495h-192zM420 1657l45 213h172l-45 -213h-172zM707 1657l45 213h172l-45 -213h-172z" />
<glyph unicode="&#xd1;" horiz-adv-x="1495" d="M184 0l148 700h-107l29 144h111l135 651h577q215 0 345 -134t130 -370v-39v-32q-4 -25 -4 -35q-25 -207 -95.5 -373t-189 -284.5t-235.5 -178.5q-94 -49 -164 -49h-680zM414 172h417q53 0 80 5t79 26.5t127 98.5t105.5 140.5t65.5 159.5q29 80 42 139.5t21.5 118 t8.5 111.5q0 90 -25 164q-41 98 -123.5 143t-191.5 45h-365l-98 -479h270l-28 -144h-275z" />
<glyph unicode="&#xd2;" horiz-adv-x="585" d="M139 -348l45 213h172l-45 -213h-172zM205 0l319 1495h193l-320 -1495h-192z" />
<glyph unicode="&#xd3;" horiz-adv-x="585" d="M205 0l319 1495h193l-320 -1495h-192zM315 1642q31 59 82 111q76 74 156 74l65 -8l140 -50q61 -20 90 -20q43 0 78 29l32 28l82 -12q-49 -70 -83.5 -102.5t-92.5 -57.5q-25 -6 -49 -11t-45 -5l-33 4l-151 57q-39 16 -74 17q-25 0 -47 -15q-12 -8 -64 -51z" />
<glyph unicode="&#xd4;" horiz-adv-x="1495" d="M147 532q0 53 5.5 92.5t19.5 112.5q41 178 131 330q109 184 266 297q82 57 199 100q154 55 293 56q127 0 248 -47q93 -38 161 -93q23 14 68 47t55.5 46.5t16.5 43t8 35.5h-135l37 131h217q-6 -41 -13 -71q-12 -55 -28 -92q-16 -51 -67.5 -106.5t-112.5 -82.5 q55 -78 84.5 -190.5t29.5 -227.5q0 -51 -3 -79.5t-13 -96.5q-33 -172 -127 -331q-106 -180 -266 -300q-80 -57 -201 -100q-154 -55 -291 -55q-145 0 -270 53q-98 43 -156 102q-80 82 -118 193t-38 233zM348 569q0 -186 86 -299q51 -72 138 -107.5t194 -35.5q102 0 206.5 36 t186.5 107q92 78 163 203t99 264q8 33 12.5 78t4.5 86q0 92 -20.5 171t-61.5 132q-51 68 -140.5 106t-191.5 38q-104 0 -204.5 -36t-190.5 -112t-163 -204t-95.5 -237.5t-22.5 -189.5z" />
<glyph unicode="&#xd5;" d="M-676 1667q41 82 117 137q63 47 125 47l61 -8l140 -49q61 -20 94 -20q35 0 60.5 19.5t45.5 37.5l82 -12q-49 -70 -84 -103t-92 -57q-27 -6 -49.5 -11.5t-40.5 -5.5l-37 5l-152 57q-16 8 -36.5 12t-32.5 4q-37 0 -115 -65z" />
<glyph unicode="&#xd6;" horiz-adv-x="1495" d="M254 340q0 18 2 36.5t6 41.5l230 1077h192l-225 -1065l-8 -57q0 -102 67 -170q84 -84 256 -84q197 0 324 110q98 86 123 201l225 1065h192l-16 -65q49 29 76.5 45t36 26t14.5 40t8 36h-135l37 131h217q-6 -41 -12 -72q-12 -55 -29 -92q-14 -47 -87 -109.5t-138 -91.5 l-33 -167l-168 -758q-33 -164 -180 -295q-193 -172 -492 -172q-258 0 -385 133q-98 102 -98 256z" />
<glyph unicode="&#xd7;" horiz-adv-x="1286" d="M102 106l500 414l-323 414l127 102l323 -409l500 409l86 -102l-504 -414l328 -414l-127 -106l-328 414l-500 -414z" />
<glyph unicode="&#xd8;" d="M-664 1925h230l135 -303h-123z" />
<glyph unicode="&#xd9;" d="M-557 1622l184 299h250l-311 -299h-123z" />
<glyph unicode="&#xda;" d="M-623 1819q0 14 4.5 43t4.5 39h69v-33q0 -76 111 -94q53 -6 88 -9.5t39 -3.5q23 0 51.5 4t54.5 9q68 10 101 53q20 27 34 74h70q-31 -63 -61 -127q-59 -92 -160 -127q-41 -8 -83 -16.5t-73 -8.5q-37 0 -60.5 5t-62.5 20q-72 31 -99.5 74.5t-27.5 97.5zM-532 2154 q20 90 86 144q80 66 204 65h37q100 -14 154 -63q45 -43 45 -96q0 -23 -18.5 -69t-40 -63.5t-78.5 -60.5q-84 -63 -90 -86l-17 -70h-110l12 70q4 27 17.5 53.5t39.5 49.5q45 43 88 88q37 45 43 71l4 8q0 29 -28.5 55.5t-57.5 26.5q-94 0 -125 -51q-16 -59 -22 -72h-143z" />
<glyph unicode="&#xdb;" d="M-602 1913q20 90 86 143q80 66 205 66h37q100 -14 153 -64q45 -43 45 -96q0 -23 -18.5 -69t-40 -63.5t-78.5 -60.5q-84 -63 -90 -86l-16 -69h-111l12 69q4 27 17.5 53.5t40.5 49.5q45 43 88 88q37 45 43 72l4 8q0 29 -29 55.5t-57 26.5q-94 0 -125 -51q-16 -59 -23 -72 h-143z" />
<glyph unicode="&#xdc;" d="M-623 1819q0 14 4.5 43t4.5 39h69v-33q0 -76 111 -94q53 -6 88 -9.5t39 -3.5q23 0 51.5 4t54.5 9q68 10 101 53q20 27 34 74h70q-31 -63 -61 -127q-59 -92 -160 -127q-41 -8 -83 -16.5t-73 -8.5q-37 0 -60.5 5t-62.5 20q-72 31 -99.5 74.5t-27.5 97.5zM-492 2011 q41 82 117 137q63 47 125 47l62 -8l139 -49q61 -20 90 -20q43 0 78 28q17 15 33 29l81 -12q-49 -70 -83.5 -102.5t-92.5 -57.5q-25 -6 -49 -11t-45 -5l-33 4l-151 57q-16 8 -37 12t-33 4q-37 0 -115 -65z" />
<glyph unicode="&#xdd;" horiz-adv-x="585" d="M205 0l319 1495h193l-320 -1495h-192zM356 1614l262 307h197l131 -307h-131l-123 196l-205 -196h-131z" />
<glyph unicode="&#xde;" horiz-adv-x="1593" d="M88 18l209 185q-43 74 -62.5 157.5t-19.5 178.5q0 94 21 196q63 293 260 506q250 268 622 268q162 0 271.5 -47t179.5 -135l205 182l49 -61l-209 -186q39 -70 58.5 -154t19.5 -172q0 -47 -6.5 -100.5t-16.5 -100.5q-63 -295 -258 -506q-250 -268 -623 -268 q-154 0 -265 47t-181 131l-201 -178zM422 565q0 -117 41 -215l944 834q-104 150 -328 149q-238 0 -409.5 -166t-229.5 -432q-18 -90 -18 -170zM504 283q51 -70 132 -108t189 -38q238 0 410 166t229 432q20 88 21 172q0 117 -41 205z" />
<glyph unicode="&#xdf;" horiz-adv-x="1251" d="M137 0l232 1090q39 182 182 288q152 113 377 113q199 0 308.5 -78t109.5 -213q0 -14 -1.5 -30.5t-7.5 -47.5q-27 -129 -110 -215q-41 -43 -121 -88q84 -25 129 -103.5t45 -166.5q0 -33 -6 -62q-55 -262 -232 -395q-160 -123 -395 -123q-39 0 -63 4q-29 8 -43 11l32 153 l91 -6q168 0 273 77t138 230q10 51 10 84q0 106 -77.5 154.5t-219.5 48.5q-47 0 -81 -8l34 162l47 -5q170 0 265 70q80 59 102 162q4 16 4 47q0 84 -66.5 133t-199.5 49q-164 0 -250 -80q-74 -70 -104 -211l-222 -1044h-180z" />
<glyph unicode="&#xe0;" d="M-614 1188l262 307h196l131 -307h-131l-123 196l-204 -196h-131zM-229 1757h229l135 -303h-123z" />
<glyph unicode="&#xe1;" d="M-614 1188l262 307h196l131 -307h-131l-123 196l-204 -196h-131zM-25 1384l185 299h250l-312 -299h-123z" />
<glyph unicode="&#xe2;" d="M-614 1188l262 307h196l131 -307h-131l-123 196l-204 -196h-131z" />
<glyph unicode="&#xe3;" d="M-614 1188l262 307h196l131 -307h-131l-123 196l-204 -196h-131zM-573 1606q41 82 116 137q63 47 125 47l62 -8l139 -49q61 -20 94 -21q35 0 64 21q20 18 43 36l82 -12q-49 -70 -84 -102.5t-93 -57.5q-27 -6 -49 -11t-41 -5l-37 4l-151 57q-16 8 -36.5 12.5t-33.5 4.5 q-37 0 -114 -66z" />
<glyph unicode="&#xe4;" d="M-664 -377l46 213h172l-46 -213h-172zM-614 1188l262 307h196l131 -307h-131l-123 196l-204 -196h-131z" />
<glyph unicode="&#xe5;" d="M-614 1188l262 307h196l131 -307h-131l-123 196l-204 -196h-131zM-172 1591q20 82 86 131q78 57 205 58h37q102 -12 153 -58q45 -39 45 -88q0 -18 -18.5 -60t-38.5 -56q-74 -49 -107 -72q-57 -41 -63 -62l-16 -61h-111l12 61q4 25 17.5 48.5t38 43t47.5 37.5 q76 68 86 107l4 8q0 27 -27.5 50.5t-58.5 23.5q-92 0 -125 -47q-16 -53 -23 -64h-143z" />
<glyph unicode="&#xe6;" horiz-adv-x="471" d="M193 0l229 1077h172l-229 -1077h-172zM291 1450q20 82 86 131q78 57 205 57h36q102 -12 154 -57q45 -39 45 -88q0 -18 -18.5 -60t-38.5 -57q-74 -49 -107 -71q-57 -41 -63 -62l-17 -61h-110l12 61q4 25 17.5 48.5t38 43t47.5 37.5q76 68 86 107l4 8q0 27 -28 50.5 t-58 23.5q-92 0 -125 -48q-16 -53 -23 -63h-143z" />
<glyph unicode="&#xe7;" horiz-adv-x="1122" d="M156 340q0 100 25.5 208.5t80.5 211.5q63 115 160 203q78 72 170 107.5t186 35.5q92 0 163 -22.5t120 -71.5q39 -29 56.5 -86.5t17.5 -134.5l-5 -78h-172q0 96 -12 136t-57 64q-27 16 -62.5 26.5t-81.5 10.5q-106 0 -233 -114q-43 -39 -80 -111t-56.5 -142.5 t-29.5 -123.5t-10 -99q0 -16 5 -40.5t7 -36.5q29 -92 94 -133q55 -35 140 -35q72 0 135 35.5t95 82t49.5 76t27.5 64.5h168q-18 -68 -44 -120t-59 -97q-47 -59 -108.5 -100.5t-136.5 -67.5l-54 -99l50 5q33 0 59.5 -8.5t46.5 -29t20 -65.5q0 -31 -12 -61q-33 -80 -88 -119 q-43 -31 -104 -41l-103 -8q-47 0 -93 14t-136 55l61 86q41 -25 87 -49t85 -24t72 14t59 51q2 8 7.5 24.5t5.5 24.5q0 35 -25 41q-20 20 -41 21q-12 0 -25.5 -6.5t-27.5 -14.5l-21 13l78 151q-18 0 -53 -6t-53 -6q-119 0 -209 62.5t-119 166.5q-20 76 -20 160z" />
<glyph unicode="&#xe8;" d="M-565 1761h229l135 -303h-123zM-545 1368l4 74h62v-25q0 -68 102 -86q53 -6 80 -9t31 -3q20 0 52 5t46 7q57 10 90 49q18 20 33 62h61q-29 -57 -57 -113q-55 -84 -143 -112q-39 -10 -76 -17.5t-64 -7.5q-31 0 -55 5t-55 20q-63 25 -87 64.5t-24 86.5z" />
<glyph unicode="&#xe9;" d="M-545 1368l4 74h62v-25q0 -68 102 -86q53 -6 80 -9t31 -3q20 0 52 5t46 7q57 10 90 49q18 20 33 62h61q-29 -57 -57 -113q-55 -84 -143 -112q-39 -10 -76 -17.5t-64 -7.5q-31 0 -55 5t-55 20q-63 25 -87 64.5t-24 86.5zM-328 1434l185 299h249l-311 -299h-123z" />
<glyph unicode="&#xea;" d="M-545 1368l4 74h62v-25q0 -68 102 -86q53 -6 80 -9t31 -3q20 0 52 5t46 7q57 10 90 49q18 20 33 62h61q-29 -57 -57 -113q-55 -84 -143 -112q-39 -10 -76 -17.5t-64 -7.5q-31 0 -55 5t-55 20q-63 25 -87 64.5t-24 86.5z" />
<glyph unicode="&#xeb;" d="M-647 -369l45 213h172l-45 -213h-172zM-545 1368l4 74h62v-25q0 -68 102 -86q53 -6 80 -9t31 -3q20 0 52 5t46 7q57 10 90 49q18 20 33 62h61q-29 -57 -57 -113q-55 -84 -143 -112q-39 -10 -76 -17.5t-64 -7.5q-31 0 -55 5t-55 20q-63 25 -87 64.5t-24 86.5z" />
<glyph unicode="&#xec;" horiz-adv-x="471" d="M193 0l229 1077h172l-229 -1077h-172zM266 1483h230l135 -303h-123z" />
<glyph unicode="&#xed;" horiz-adv-x="471" d="M193 0l229 1077h172l-229 -1077h-172zM430 1184l184 299h250l-311 -299h-123z" />
<glyph unicode="&#xee;" horiz-adv-x="1114" d="M16 -422l37 156q14 -4 42 -10.5t44 -6.5h37q31 6 61.5 31t53.5 64l98 172l-119 1093h185l98 -815l471 815h184l-770 -1327q-35 -59 -85 -104t-99 -68q-43 -16 -77 -22.5t-71 -6.5q-29 0 -51 7.5t-39 21.5zM606 -356l45 213h172l-45 -213h-172z" />
<glyph unicode="&#xef;" d="M-717 -348l45 213h172l-45 -213h-172z" />
<glyph unicode="&#xf0;" horiz-adv-x="471" d="M193 0l229 1077h172l-229 -1077h-172zM319 1241l46 213h172l-45 -213h-173zM606 1241l45 213h172l-45 -213h-172z" />
<glyph unicode="&#xf1;" horiz-adv-x="1146" d="M147 360l9 103q20 154 83.5 289t161.5 215q82 70 168 104.5t160 34.5h16q70 0 128.5 -19.5t93.5 -46.5q29 -20 48 -45.5t25 -48.5l58 271h-295l41 159h286l29 119h172l-28 -119h102l-33 -159h-102l-254 -1221h-152l29 127q-41 -37 -76 -64q-49 -37 -100 -67 q-76 -41 -193 -41q-121 0 -206 46t-128 142.5t-43 220.5zM344 393q0 -92 41 -180q25 -49 76 -75.5t112 -26.5l17 4q70 6 129 35.5t100 82.5q80 96 117 218q31 100 31 204q0 59 -7.5 99.5t-21.5 72.5q-51 102 -193 103h-16q-133 0 -229 -103q-63 -68 -109.5 -191.5 t-46.5 -242.5z" />
<glyph unicode="&#xf2;" horiz-adv-x="471" d="M70 -360l45 213h172l-45 -213h-172zM135 0l230 1077h172l-230 -1077h-172zM410 1282l45 213h172l-45 -213h-172z" />
<glyph unicode="&#xf3;" horiz-adv-x="471" d="M193 0l229 1077h172l-229 -1077h-172zM205 1245q31 59 82 111q76 74 155 74l66 -9l139 -49q61 -20 90 -20q43 0 78 28q17 15 33 29l82 -12q-49 -70 -84 -102.5t-92 -57.5q-25 -6 -49.5 -11t-45.5 -5l-32 4l-152 57q-39 16 -74 16q-25 0 -47 -14q-12 -8 -63 -51z" />
<glyph unicode="&#xf4;" horiz-adv-x="1146" d="M164 336q0 31 4 69.5t20 126.5q70 322 267 467q145 106 340 107q90 0 153 -19q88 -27 142 -88q18 12 46.5 34t39 35t16.5 43t8 36h-135l37 131h217q-4 -31 -15.5 -76t-29.5 -84q-12 -37 -55.5 -83t-96.5 -81q27 -57 35 -80q23 -57 23 -92v-49q0 -84 -21 -201 q-70 -322 -268 -471q-150 -111 -342 -110q-154 0 -254 76q-131 98 -131 309zM348 410q0 -121 53 -195q63 -88 185 -88q158 0 270 135q94 112 127 270q4 37 8 76t4 43q0 121 -51 195q-61 88 -186 88q-156 0 -266 -133q-94 -113 -127 -269q-8 -61 -17 -122z" />
<glyph unicode="&#xf5;" d="M-668 1270q41 82 117 137q63 47 125 47l61 -8l140 -49q61 -20 94 -21q35 0 60.5 20t45.5 38l82 -13q-49 -70 -83.5 -102.5t-92.5 -56.5q-45 -8 -61.5 -12.5t-28.5 -4.5l-37 4l-151 58q-16 8 -37 12t-33 4q-37 0 -115 -66z" />
<glyph unicode="&#xf6;" horiz-adv-x="1146" d="M176 205l4 16l185 856h172l-164 -762l-8 -61q0 -78 53 -111q33 -23 90 -28l24 -4q25 0 40.5 3t58.5 13q104 35 172 106q84 90 119 259l122 585h173l-17 -53q18 12 51 37.5t43.5 39t16.5 43.5t8 36h-135l37 131h217q-4 -31 -15.5 -76t-29.5 -84q-16 -51 -80 -120.5 t-125 -96.5l-201 -934h-172l25 115q-29 -33 -73 -68t-81 -54.5t-96.5 -30.5t-122.5 -11t-103 6t-65 18q-53 33 -88 92.5t-35 137.5z" />
<glyph unicode="&#xf7;" horiz-adv-x="1216" d="M172 442l33 152h1036l-33 -152h-1036zM475 70l4 32q12 57 61.5 98.5t106.5 41.5q49 0 80 -33t31 -82v-25q-12 -55 -62.5 -99t-109.5 -44q-47 0 -79 32t-32 79zM651 905l4 29q12 57 61.5 98t106.5 41q49 0 80 -30.5t31 -79.5v-29q-12 -55 -62.5 -97t-109.5 -42 q-45 0 -78 32.5t-33 77.5z" />
<glyph unicode="&#xf8;" d="M-537 1491h230l135 -303h-123z" />
<glyph unicode="&#xf9;" d="M-430 1208l184 299h250l-311 -299h-123z" />
<glyph unicode="&#xfa;" d="M-545 1368l4 74h62v-25q0 -68 102 -86q53 -6 80 -9t31 -3q20 0 52 5t46 7q57 10 90 49q18 20 33 62h61q-29 -57 -57 -113q-55 -84 -143 -112q-39 -10 -76 -17.5t-64 -7.5q-31 0 -55 5t-55 20q-63 25 -87 64.5t-24 86.5zM-479 1688q20 82 86 131q78 57 205 57h36 q102 -12 154 -57q45 -39 45 -88q0 -18 -18.5 -60.5t-38.5 -56.5q-63 -45 -129 -88q-37 -29 -41 -45l-17 -62h-110l12 62q4 25 17.5 48t38 42.5t46.5 38.5q76 68 87 106l4 8q0 27 -28 50.5t-58 23.5q-92 0 -125 -47q-16 -53 -23 -63h-143z" />
<glyph unicode="&#xfb;" d="M-592 1450q20 82 86 131q78 57 205 57h37q102 -12 153 -57q45 -39 45 -88q0 -18 -18 -60t-39 -57q-63 -45 -129 -88q-37 -29 -41 -45l-16 -61h-111l12 61q4 25 17.5 48.5t38 43t47.5 37.5q76 68 86 107l4 8q0 27 -27.5 50.5t-58.5 23.5q-92 0 -125 -48q-16 -53 -23 -63 h-143z" />
<glyph unicode="&#xfc;" d="M-545 1368l4 74h62v-25q0 -68 102 -86q53 -6 80 -9t31 -3q20 0 52 5t46 7q57 10 90 49q18 20 33 62h61q-29 -57 -57 -113q-55 -84 -143 -112q-39 -10 -76 -17.5t-64 -7.5q-31 0 -55 5t-55 20q-63 25 -87 64.5t-24 86.5zM-426 1540q41 82 117 137q63 47 125 47l61 -8 l139 -49q61 -20 90 -20q43 0 78 28q17 15 33 29l82 -12q-49 -70 -84 -103t-92 -57q-25 -6 -49.5 -11t-44.5 -5l-33 4l-152 57q-16 8 -36.5 12t-32.5 4q-37 0 -115 -65z" />
<glyph unicode="&#xfd;" horiz-adv-x="471" d="M193 0l229 1077h172l-229 -1077h-172zM225 1208l262 308h197l131 -308h-131l-123 197l-205 -197h-131z" />
<glyph unicode="&#xfe;" horiz-adv-x="1251" d="M59 8l162 148q-51 96 -51 231q0 59 3 82t13 68q47 229 201 387q174 178 416 178q106 0 182 -34t127 -99l162 147l51 -53l-174 -160q47 -92 47 -219q0 -70 -16 -147q-49 -229 -203 -387q-174 -178 -416 -179q-100 0 -176 32t-123 91l-153 -139zM358 399q1 -53 13 -106 l600 547q-27 49 -76 77.5t-125 28.5q-170 0 -283 -149q-82 -111 -114 -260q-14 -68 -15 -138zM403 221q27 -43 75 -68.5t118 -25.5q172 0 285 149q82 109 114 261q4 29 8.5 62.5t4.5 66.5q-1 59 -11 98z" />
<glyph unicode="&#xff;" horiz-adv-x="1073" d="M16 -422l37 156q14 -4 42 -10.5t44 -6.5h37q31 6 61.5 31t53.5 64l98 172l-119 1093h185l98 -815l471 815h184l-770 -1327q-35 -59 -85 -104t-99 -68q-43 -16 -77 -22.5t-71 -6.5q-29 0 -51 7.5t-39 21.5zM606 -356l45 213h172l-45 -213h-172z" />
<glyph unicode="&#x152;" d="M-606 1909q20 90 86 143q80 66 205 66h36q100 -14 156 -64q49 -43 49 -96q0 -25 -14 -70t-35 -65q-27 -29 -110 -82q-70 -45 -74 -62l-17 -69h-110l12 69q4 27 17.5 53.5t39.5 49.5q45 43 89 88q37 45 43 72l4 8q0 29 -29 55.5t-57 26.5q-94 0 -125 -52q-16 -59 -23 -71 h-143z" />
<glyph unicode="&#x153;" d="M-586 1520q20 90 86 143q80 66 205 66h37q100 -14 156 -64q49 -43 49 -96q0 -25 -14.5 -70t-34.5 -65q-27 -29 -111 -82q-70 -45 -74 -62l-16 -69h-111l13 69q4 27 17 53.5t40 49.5q45 43 88 88q37 45 43 71l4 9q0 29 -28.5 55t-57.5 26q-94 0 -125 -51q-16 -59 -22 -71 h-144z" />
<glyph unicode="&#x178;" horiz-adv-x="1380" d="M344 1495h238l278 -725l578 725h233l-753 -909l-127 -586h-193l127 586zM541 -340l45 213h172l-45 -213h-172z" />
<glyph unicode="&#x2c6;" horiz-adv-x="1366" d="M-262 2218q0 102 68.5 170.5t170.5 68.5t171 -68.5t69 -170.5q0 -104 -67.5 -172t-172.5 -68q-102 0 -170.5 68.5t-68.5 171.5zM-182 2218q0 -68 47 -119t112 -51q66 0 113 51t47 119q0 63 -47 114.5t-113 51.5q-63 0 -111 -50.5t-48 -115.5zM37 0l860 1495h233 l209 -1495h-217l-57 446h-569l-254 -446h-205zM582 606h462l-81 656z" />
<glyph unicode="&#x2dc;" d="M-580 1401q0 102 69 170.5t171 68.5t171 -68.5t69 -170.5q0 -104 -68 -172t-172 -68q-102 0 -171 68.5t-69 171.5zM-500 1401q0 -68 47 -119t113 -51t113 51t47 119q0 63 -47 114.5t-113 51.5q-63 0 -111.5 -50.5t-48.5 -115.5z" />
<glyph unicode="&#x2000;" horiz-adv-x="1228" />
<glyph unicode="&#x2001;" horiz-adv-x="2457" />
<glyph unicode="&#x2002;" horiz-adv-x="1228" />
<glyph unicode="&#x2003;" horiz-adv-x="2457" />
<glyph unicode="&#x2004;" horiz-adv-x="819" />
<glyph unicode="&#x2005;" horiz-adv-x="614" />
<glyph unicode="&#x2006;" horiz-adv-x="409" />
<glyph unicode="&#x2007;" horiz-adv-x="409" />
<glyph unicode="&#x2008;" horiz-adv-x="307" />
<glyph unicode="&#x2009;" horiz-adv-x="491" />
<glyph unicode="&#x200a;" horiz-adv-x="136" />
<glyph unicode="&#x2010;" horiz-adv-x="704" d="M201 492l32 151h488l-33 -151h-487z" />
<glyph unicode="&#x2011;" horiz-adv-x="704" d="M201 492l32 151h488l-33 -151h-487z" />
<glyph unicode="&#x2012;" horiz-adv-x="704" d="M201 492l32 151h488l-33 -151h-487z" />
<glyph unicode="&#x2013;" horiz-adv-x="1376" d="M94 492l33 151h1159l-33 -151h-1159z" />
<glyph unicode="&#x2014;" horiz-adv-x="2293" d="M86 492l33 151h2068l-33 -151h-2068z" />
<glyph unicode="&#x2018;" horiz-adv-x="471" d="M336 942l45 217q31 156 121 227q39 31 129 64l-17 -82q-68 -27 -100.5 -81t-38.5 -132h94l-45 -213h-188z" />
<glyph unicode="&#x2019;" horiz-adv-x="471" d="M340 975l16 82q68 8 103 73q14 29 37 111h-99l41 209h193l-41 -209q-27 -111 -88 -180q-68 -78 -162 -86z" />
<glyph unicode="&#x201a;" horiz-adv-x="2048" d="M16 0l912 1470h1319l-39 -176h-799l-94 -450h729l-39 -176h-729l-105 -492h814l-37 -176h-1012l90 428h-543l-252 -428h-215zM594 604h471l145 690h-198z" />
<glyph unicode="&#x201c;" horiz-adv-x="704" d="M299 942l45 217q27 123 88 193q49 57 166 98l-16 -82q-68 -27 -103 -82t-41 -131h94l-45 -213h-188zM623 942l45 217q27 123 88 193q49 57 166 98l-17 -82q-68 -27 -102.5 -82t-40.5 -131h94l-45 -213h-188z" />
<glyph unicode="&#x201d;" horiz-adv-x="704" d="M307 975l17 82q68 8 104 73q21 37 35 111h-98l45 209h192l-45 -209q-23 -109 -88.5 -183.5t-161.5 -82.5zM635 975l16 82q68 8 103 73q14 29 37 111h-99l41 209h193l-41 -209q-27 -111 -88 -180q-68 -78 -162 -86z" />
<glyph unicode="&#x201e;" horiz-adv-x="1820" d="M125 209q0 16 3 36.5t5 33.5q23 106 90 186q109 125 307 149l306 37q43 4 67 25q39 31 53 102q4 29 5 39q0 135 -220 135q-135 0 -211 -71q-45 -43 -79 -136h-166q47 186 178 271.5t340 85.5q106 0 176 -27.5t141 -124.5q88 70 140 97q109 55 247 55q178 0 267.5 -103.5 t89.5 -293.5q0 -94 -27 -228h-782q-14 -59 -15 -119q0 -233 250 -233q115 0 215 76q87 65 107 135h180q-18 -57 -74 -131q-78 -102 -180 -162q-57 -33 -108 -49q-82 -25 -197 -25q-166 0 -260 84q-57 51 -86 140q-100 -117 -218 -170.5t-266 -53.5q-127 0 -202.5 65.5 t-75.5 174.5zM319 248q0 -129 160 -129q129 0 247 74t138 178l39 176q-27 -18 -91 -32.5t-220 -35.5q-98 -12 -156 -41q-92 -45 -110 -133q-6 -31 -7 -57zM1083 621h596q2 23 5.5 43t3.5 45q0 106 -52 163q-59 68 -186 68q-123 0 -230.5 -95t-136.5 -224z" />
<glyph unicode="&#x2022;" horiz-adv-x="704" />
<glyph unicode="&#x2026;" horiz-adv-x="1241" d="M410 0l45 213h172l-45 -213h-172zM696 0l45 213h172l-45 -213h-172zM983 0l45 213h172l-45 -213h-172z" />
<glyph unicode="&#x202f;" horiz-adv-x="491" />
<glyph unicode="&#x2039;" horiz-adv-x="630" d="M303 471l37 176l373 250l-37 -172l-254 -168l184 -168l-37 -172z" />
<glyph unicode="&#x203a;" horiz-adv-x="610" d="M250 217l33 172l262 168l-180 168l36 172l246 -250l-37 -176z" />
<glyph unicode="&#x205f;" horiz-adv-x="614" />
<glyph unicode="&#x2122;" horiz-adv-x="2048" d="M381 1348l27 122h669l-26 -122h-260l-154 -721h-150l154 721h-260zM1044 627l181 843h229l109 -620l370 620h230l-181 -843h-149l145 686l-413 -686h-103l-119 686l-149 -686h-150z" />
<glyph unicode="&#xe000;" horiz-adv-x="1075" d="M0 0v1075h1075v-1075h-1075z" />
</font>
</defs>
</svg>
