<?xml version="1.0" standalone="no"?>
<!DOCTYPE svg PUBLIC "-//W3C//DTD SVG 1.1//EN" "http://www.w3.org/Graphics/SVG/1.1/DTD/svg11.dtd" >
<svg xmlns="http://www.w3.org/2000/svg">
<metadata></metadata>
<defs>
<font id="vni-helvebold" horiz-adv-x="81" >
<font-face units-per-em="2048" ascent="1638" descent="-410" />
<missing-glyph horiz-adv-x="602" />
<glyph horiz-adv-x="2048" />
<glyph horiz-adv-x="2048" />
<glyph unicode="&#xd;" horiz-adv-x="602" />
<glyph unicode=" "  horiz-adv-x="602" />
<glyph unicode="&#x09;" horiz-adv-x="602" />
<glyph unicode="&#xa0;" horiz-adv-x="602" />
<glyph unicode="!" horiz-adv-x="716" d="M184 1098v372h316v-372l-82 -688h-152zM193 0v291h299v-291h-299z" />
<glyph unicode="&#x22;" horiz-adv-x="1015" d="M201 918v552h200v-552h-200zM569 918v552h201v-552h-201z" />
<glyph unicode="#" horiz-adv-x="1175" d="M37 410l24 184h201l33 246h-197l25 184h196l58 406h192l-57 -406h201l57 406h193l-58 -406h197l-25 -184h-196l-37 -246h200l-24 -184h-201l-57 -410h-193l58 410h-197l-57 -410h-193l58 410h-201zM455 594h196l37 246h-201z" />
<glyph unicode="$" horiz-adv-x="1175" d="M61 442h271q10 -123 41 -172q41 -66 151 -86v430q-199 53 -291 121q-139 104 -139 293q0 182 105 297q117 129 325 129v135h94v-135q176 -18 271 -82q160 -106 160 -344h-263q0 127 -53 174q-39 35 -115 35v-381q139 -45 220.5 -85t119.5 -79q55 -51 85 -122.5t30 -163.5 q0 -168 -100 -291q-125 -152 -355 -152v-201h-94v201q-248 20 -355.5 133t-107.5 346zM352 1077q0 -90 56 -139q42 -39 116 -53v352q-84 0 -128 -49t-44 -111zM618 184q68 0 115 39q66 53 66 162q0 80 -60 133q-47 42 -121 60v-394z" />
<glyph unicode="%" horiz-adv-x="1892" d="M57 1081q0 156 108.5 264.5t264.5 108.5q154 0 263.5 -109.5t109.5 -263.5t-109.5 -263t-263.5 -109t-263.5 107t-109.5 265zM270 1081q0 -66 47.5 -112.5t112.5 -46.5q68 0 116 46t48 113q0 68 -48 116t-116 48q-66 0 -113 -47t-47 -117zM422 -41l815 1495h152 l-816 -1495h-151zM1020 348q0 156 108.5 264.5t264.5 108.5q152 0 262 -108.5t110 -264.5q0 -152 -110.5 -262.5t-261.5 -110.5q-154 0 -263.5 107.5t-109.5 265.5zM1229 348q0 -68 48 -114t116 -46q66 0 112.5 45.5t46.5 114.5q0 66 -47 115t-112 49q-68 0 -116 -48 t-48 -116z" />
<glyph unicode="&#x26;" horiz-adv-x="1544" d="M111 381q0 123 49 209q66 115 233 217l33 20q-55 63 -90 131q-45 90 -45 177q0 150 109.5 242.5t283.5 92.5q137 0 240 -79q121 -94 120 -261q0 -133 -98 -237q-59 -63 -147 -111l209 -258q29 45 49 104.5t28 137.5h254q-14 -150 -52 -245t-116 -197l267 -324h-348 l-99 127q-78 -78 -160 -117q-109 -51 -262 -51q-203 0 -330.5 124t-127.5 298zM397 397q0 -63 43 -116q61 -76 174 -76q66 0 131 33q50 24 99 69l-271 336q-102 -72 -133 -111q-43 -53 -43 -135zM553 1135q0 -66 106 -185q66 41 97 80q39 50 39 105q0 59 -34 88.5t-89 29.5 q-49 0 -84 -30.5t-35 -87.5z" />
<glyph unicode="'" horiz-adv-x="507" d="M143 918v552h201v-552h-201z" />
<glyph unicode="(" horiz-adv-x="716" d="M74 537q0 276 106 536q86 207 254 430h209q-131 -225 -194 -424q-80 -254 -80 -542q0 -291 82 -545q59 -187 192 -418h-209q-164 219 -250 422q-111 262 -110 541z" />
<glyph unicode=")" horiz-adv-x="716" d="M41 -426q133 225 195 424q80 254 79 547q0 289 -82 540q-61 187 -192 418h209q164 -219 250 -422q111 -262 110 -536q0 -281 -106 -541q-84 -207 -254 -430h-209z" />
<glyph unicode="*" horiz-adv-x="831" d="M57 1147l45 151l209 -69v241h176v-241l205 69l49 -151l-213 -66l140 -196l-127 -90l-140 184l-143 -184l-127 90l139 196z" />
<glyph unicode="+" horiz-adv-x="1245" d="M82 406v229h401v401h230v-401h401v-229h-401v-406h-230v406h-401z" />
<glyph unicode="," horiz-adv-x="602" d="M131 0v299h307v-258q0 -178 -86 -272q-72 -78 -217 -113l-4 106q82 31 115 64q57 59 57 174h-172z" />
<glyph unicode="-" horiz-adv-x="716" d="M57 442v267h570v-267h-570z" />
<glyph unicode="." horiz-adv-x="602" d="M131 0v299h307v-299h-307z" />
<glyph unicode="/" horiz-adv-x="602" d="M-70 -41l467 1552h242l-467 -1552h-242z" />
<glyph unicode="0" horiz-adv-x="1175" d="M66 709q0 385 122.5 565t380.5 180t381 -180t123 -565q0 -381 -123 -565.5t-381 -184.5q-503 0 -503 750zM360 709q0 -285 44.5 -400.5t164.5 -115.5q121 0 165 113.5t44 402.5t-44 402.5t-165 113.5t-165 -113.5t-44 -402.5z" />
<glyph unicode="1" horiz-adv-x="1175" d="M143 1004v200h41q186 0 281 84q76 68 76 166h233v-1454h-287v1004h-344z" />
<glyph unicode="2" horiz-adv-x="1175" d="M53 0q0 160 51 266q76 156 289 312q178 131 230 176q135 119 135 254q0 80 -47 137q-55 68 -154 67q-133 0 -180 -94q-29 -57 -29 -176h-278q0 238 116 369q127 143 359 143q217 0 358 -122t141 -337q0 -168 -96 -293q-66 -86 -207 -178q-90 -63 -178 -125 q-119 -88 -145 -145h631v-254h-996z" />
<glyph unicode="3" horiz-adv-x="1175" d="M57 446h279q0 -94 33 -155q53 -98 180 -98q92 0 152.5 60t60.5 177q0 133 -113 180q-68 29 -211 29v205h45q100 0 152 26q90 47 90 170q0 63 -31 111q-47 74 -149 74q-127 0 -172 -99q-25 -53 -25 -139h-266q0 213 117 336q125 131 362 131q178 0 299 -86 q152 -109 152 -319q0 -100 -56 -179q-47 -66 -116 -96q106 -45 161.5 -132t55.5 -212q0 -207 -138.5 -339t-357.5 -132q-180 0 -301 72q-203 121 -203 415z" />
<glyph unicode="4" horiz-adv-x="1175" d="M57 324v245l533 885h328v-909h159v-221h-159v-324h-287v324h-574zM266 545h365l4 626z" />
<glyph unicode="5" horiz-adv-x="1175" d="M57 389h287q10 -92 59.5 -144t141.5 -52q102 0 159.5 75.5t57.5 194.5q0 109 -49 180q-57 82 -164 82q-68 0 -116 -26.5t-77 -80.5l-254 13l99 799h798v-242h-589l-54 -316q59 41 97 56q68 27 165 26q168 0 291 -108q147 -131 148 -363q0 -197 -103 -336 q-139 -188 -426 -188q-188 0 -319 104q-152 121 -152 326z" />
<glyph unicode="6" horiz-adv-x="1175" d="M66 692q0 195 26 320q41 195 150 305q135 137 364 137q68 0 142 -18q106 -27 153 -76q61 -59 90 -112.5t45 -162.5h-282q-6 63 -48 101.5t-120 38.5q-129 0 -191 -129q-51 -106 -51 -273l4 -4q39 51 90 80q76 43 185 43q211 0 333 -143q109 -127 109 -307 q0 -238 -131 -385.5t-344 -147.5q-297 0 -426 231q-98 178 -98 502zM352 463q0 -119 61.5 -194.5t164.5 -75.5q86 0 139 63q61 74 61 211q0 127 -69 192q-57 53 -140 54q-88 0 -147 -58q-70 -68 -70 -192z" />
<glyph unicode="7" horiz-adv-x="1175" d="M53 1176l4 254h1024v-222q-123 -133 -198 -239q-141 -197 -224 -410q-106 -274 -106 -559h-295q0 264 107 535q82 207 221 407q88 127 188 234h-721z" />
<glyph unicode="8" horiz-adv-x="1175" d="M66 406q0 104 26 172q51 131 195 196q-88 45 -132 112.5t-44 170.5q0 184 128 290.5t326 106.5q215 0 342 -113q117 -104 117 -264q0 -100 -40 -175t-128 -120q111 -55 160 -129q57 -84 57 -219q0 -174 -106 -305q-139 -170 -398 -170q-256 0 -391 147q-113 123 -112 300 zM360 422q0 -104 58.5 -166.5t154.5 -62.5q102 0 158 75q47 64 47 154q0 92 -45 151q-55 74 -168 74q-86 0 -141 -51q-63 -59 -64 -174zM385 1044q0 -72 50 -126t138 -54q80 0 128.5 50.5t48.5 129.5q0 82 -47.5 131.5t-120.5 49.5q-94 0 -145.5 -49.5t-51.5 -131.5z" />
<glyph unicode="9" horiz-adv-x="1175" d="M61 934q0 256 142 393q131 127 354 127q326 0 444 -295q68 -166 68 -450q0 -391 -166 -586q-139 -164 -362 -164q-184 0 -308.5 103.5t-142.5 273.5h287q12 -76 54 -109.5t114 -33.5q102 0 164 86q74 104 73 319l-4 4q-45 -68 -125 -98q-63 -25 -149 -25q-203 0 -323 131 t-120 324zM348 975q0 -152 66 -215q53 -51 151 -51q84 0 142 55q68 66 67 186q0 270 -217 271q-78 0 -131 -43q-78 -64 -78 -203z" />
<glyph unicode=":" horiz-adv-x="716" d="M188 0v299h308v-299h-308zM188 750v299h308v-299h-308z" />
<glyph unicode=";" horiz-adv-x="716" d="M188 0v299h308v-258q0 -178 -86 -272q-72 -78 -217 -113l-5 106q82 31 115 64q57 59 57 174h-172zM188 750v299h308v-299h-308z" />
<glyph unicode="&#x3c;" horiz-adv-x="1245" d="M78 426v184l1040 443v-222l-741 -311l741 -315v-221z" />
<glyph unicode="=" horiz-adv-x="1245" d="M82 180v230h1032v-230h-1032zM82 631v229h1032v-229h-1032z" />
<glyph unicode="&#x3e;" horiz-adv-x="1245" d="M78 -16v221l745 315l-745 311v222l1040 -443v-184z" />
<glyph unicode="?" horiz-adv-x="1314" d="M123 1008q0 248 162 376q133 106 329 107q244 0 390 -123q135 -115 135 -315q0 -119 -64 -209q-55 -78 -182 -168q-72 -53 -96 -94q-31 -54 -31 -156h-270q0 160 32 231q41 88 177 183q66 45 96 93t30 111q0 109 -65 162q-53 43 -131 43q-123 0 -180 -82 q-41 -59 -41 -155zM487 0v287h299v-287h-299z" />
<glyph unicode="@" horiz-adv-x="2076" d="M242 737q0 326 232.5 550t557.5 224q291 0 500 -172q221 -182 221 -462q0 -289 -207 -461q-160 -133 -313 -133q-51 0 -85 26.5t-34 79.5l-4 4q-41 -47 -98.5 -78.5t-114.5 -31.5q-135 0 -233.5 105.5t-98.5 250.5q0 199 121 346q129 158 318 158q82 0 143 -30.5 t106 -100.5l25 106h180l-119 -520l-16 -90q0 -41 33 -41q88 0 160.5 101.5t72.5 258.5q0 244 -157.5 382.5t-403.5 138.5q-260 0 -421 -175.5t-161 -439.5q0 -272 171 -439t440 -167q125 0 236.5 44t193.5 120h184q-106 -156 -270 -244t-357 -88q-336 0 -569 223.5 t-233 554.5zM786 668q0 -80 44 -130.5t116 -50.5q106 0 176 87t70 196q0 78 -45 127t-119 49q-102 0 -172 -87t-70 -191z" />
<glyph unicode="A" horiz-adv-x="1454" d="M4 0l524 1470h357l516 -1470h-332l-94 303h-545l-102 -303h-324zM512 557h377l-184 582z" />
<glyph unicode="B" horiz-adv-x="1544" d="M156 0v1470h716q242 0 361 -131q90 -100 90 -245q0 -137 -66 -217q-39 -47 -114 -82q127 -49 182 -150q47 -84 47 -207q0 -90 -32.5 -166.5t-94.5 -136.5q-76 -72 -151 -98q-106 -37 -316 -37h-622zM451 254h376q117 0 177.5 52t60.5 165q0 88 -63.5 132t-157.5 44h-393 v-393zM451 897h360q98 0 154 37q63 43 63 127q0 86 -56.5 121t-168.5 35h-352v-320z" />
<glyph unicode="C" horiz-adv-x="1544" d="M90 733q0 373 197 582q183 196 476 196h3q303 0 483 -178q152 -152 152 -342h-307q-31 106 -76 158q-84 96 -248 96q-143 0 -238 -100q-126 -132 -126 -412q0 -219 83 -352q96 -152 281 -152q127 0 212 71t112 204h307q-49 -250 -203 -391q-168 -154 -436 -154 q-301 0 -481 197q-190 207 -191 577z" />
<glyph unicode="D" horiz-adv-x="1544" d="M156 0v1470h651q332 0 485 -245q113 -180 113 -455q0 -297 -123 -502q-162 -268 -487 -268h-639zM459 254h299q174 0 260 156q72 129 72 340q0 285 -119 395q-78 72 -217 72h-295v-963z" />
<glyph unicode="E" horiz-adv-x="1429" d="M156 0v1470h1081v-258h-778v-311h717v-258h-717v-381h815v-262h-1118z" />
<glyph unicode="F" horiz-adv-x="1314" d="M156 0v1470h1048v-258h-741v-331h647v-263h-647v-618h-307z" />
<glyph unicode="G" horiz-adv-x="1658" d="M90 733q0 326 174 539q196 239 544 239h3q307 0 489 -172q154 -145 154 -323h-307q0 63 -78 141q-98 100 -242 100q-180 0 -292 -122q-129 -141 -129 -406q0 -276 133 -403q109 -104 292 -105q135 0 230.5 87t126.5 237h-340v250h614v-795h-205l-32 184 q-90 -102 -156 -145q-125 -80 -303 -80q-283 0 -469 193q-207 213 -207 581z" />
<glyph unicode="H" horiz-adv-x="1544" d="M147 0v1470h308v-557h573v557h307v-1470h-307v659h-573v-659h-308z" />
<glyph unicode="I" horiz-adv-x="602" d="M131 0v1470h307v-1470h-307z" />
<glyph unicode="J" horiz-adv-x="1175" d="M45 557h287q0 -195 28 -260q37 -84 152 -84q109 0 145 63q27 45 27 150v1044h307v-1044q0 -231 -115.5 -347t-338.5 -116q-326 0 -431 191q-61 113 -61 403z" />
<glyph unicode="K" horiz-adv-x="1544" d="M180 0v1470h307v-598l562 598h397l-602 -602l635 -868h-394l-454 647l-144 -147v-500h-307z" />
<glyph unicode="L" horiz-adv-x="1314" d="M156 0v1470h307v-1204h733v-266h-1040z" />
<glyph unicode="M" horiz-adv-x="1777" d="M143 0v1470h447l266 -1159l266 1159h447v-1470h-287v1229l-278 -1229h-304l-266 1229l-4 -1229h-287z" />
<glyph unicode="N" horiz-adv-x="1544" d="M143 0v1470h324l582 -1024l4 1024h286v-1470h-307l-598 1049l-4 -1049h-287z" />
<glyph unicode="O" horiz-adv-x="1548" d="M86 737q0 313 139 506q109 152 297 219q135 49 273 49q139 0 268 -47q188 -70 297 -219q139 -193 139 -508q0 -313 -139 -508q-109 -152 -297 -221q-133 -49 -268 -49q-141 0 -271 47q-188 70 -297 219q-141 197 -141 512zM393 737q0 -279 137 -413q104 -102 265 -103 q156 0 260 103q137 135 137 413q0 276 -137 410q-104 102 -260 102t-263 -102q-139 -136 -139 -410z" />
<glyph unicode="P" horiz-adv-x="1429" d="M156 0v1470h671q215 0 337 -125.5t122 -345.5q0 -156 -86 -282q-125 -184 -385 -185h-352v-532h-307zM463 786h287q147 0 200 91q29 49 29 139q0 106 -63.5 153.5t-206.5 47.5h-246v-431z" />
<glyph unicode="Q" horiz-adv-x="1658" d="M90 737q0 313 139 506q109 152 297 219q135 49 273 49q139 0 268 -47q188 -70 297 -219q139 -193 139 -508q0 -176 -39 -304t-112 -220l159 -152l-163 -167l-172 167q-94 -57 -209 -84q-82 -18 -168 -18q-141 0 -271 47q-188 70 -297 219q-141 197 -141 512zM397 737 q0 -279 138 -413q104 -102 264 -103q45 0 83 9.5t81 31.5l-148 139l160 164l155 -143q66 119 66 315q0 276 -137 410q-104 102 -260 102t-262 -102q-139 -135 -140 -410z" />
<glyph unicode="R" horiz-adv-x="1544" d="M156 0v1470h745q256 0 377 -157q86 -113 86 -256q0 -125 -60.5 -220.5t-168.5 -131.5q104 -45 139 -103q49 -80 49 -270q0 -152 5 -211.5t61 -79.5v-41h-340q-16 57 -24.5 120.5t-8.5 178.5q0 166 -35 215q-45 63 -207 64h-315v-578h-303zM459 823h360q123 0 180.5 47.5 t57.5 153.5q0 76 -41 125q-55 68 -176 68h-381v-394z" />
<glyph unicode="S" horiz-adv-x="1429" d="M82 455h295q0 -90 53 -150q80 -88 258 -88q133 0 207 35q100 47 100 154q0 78 -73 120q-51 31 -193 64l-160 37q-236 53 -321 112q-145 100 -146 318q0 170 105 289q144 165 457 165h4q301 0 454 -170q119 -131 119 -305h-295q-10 88 -51 135q-74 86 -248 86 q-104 0 -174 -38q-84 -47 -84 -138q0 -76 53 -114q31 -23 103 -41l360 -86q182 -45 269 -117q117 -98 116 -281q0 -223 -147 -346q-164 -137 -434 -137q-354 0 -514 178q-113 128 -113 318z" />
<glyph unicode="T" horiz-adv-x="1314" d="M29 1212v258h1196v-258h-443v-1212h-307v1212h-446z" />
<glyph unicode="U" horiz-adv-x="1478" d="M135 496v974h316v-954q0 -145 73.5 -220t188.5 -75q152 0 223.5 72t71.5 211v966h315v-954q0 -285 -162 -424q-154 -133 -444 -133q-125 0 -234 35q-145 47 -233 145q-115 133 -115 357z" />
<glyph unicode="V" horiz-adv-x="1429" d="M41 1470h328l315 -1114l324 1114h319l-500 -1470h-290z" />
<glyph unicode="W" horiz-adv-x="2007" d="M33 1470h327q137 -588 176 -764t58 -309q2 10 33 174q14 80 57 301.5t119 597.5h327q82 -383 136 -643q45 -223 82 -430q16 80 35.5 173.5t64.5 287t145 612.5h312l-414 -1470h-295q-57 276 -115 555q-31 145 -66.5 333.5t-47.5 258.5q-18 -104 -47 -254 q-35 -184 -64 -320q-59 -287 -119 -573h-286z" />
<glyph unicode="X" horiz-adv-x="1429" d="M29 0l475 754l-447 716h365l262 -475l270 475h353l-447 -704l479 -766h-376l-279 504l-295 -504h-360z" />
<glyph unicode="Y" horiz-adv-x="1429" d="M33 1470h360l307 -639l291 639h348l-491 -917v-553h-307v557z" />
<glyph unicode="Z" horiz-adv-x="1314" d="M53 0v262l758 950h-737v258h1122v-241l-770 -967h774v-262h-1147z" />
<glyph unicode="[" horiz-adv-x="716" d="M131 -401v1880h504v-197h-254v-1487h254v-196h-504z" />
<glyph unicode="\" horiz-adv-x="602" d="M-70 1511h242l467 -1552h-242z" />
<glyph unicode="]" horiz-adv-x="716" d="M49 -205h254v1487h-254v197h504v-1880h-504v196z" />
<glyph unicode="^" horiz-adv-x="1245" d="M127 664l369 766h204l369 -766h-225l-246 536l-246 -536h-225z" />
<glyph unicode="_" horiz-adv-x="1175" d="M0 -156h1139v-102h-1139v102z" />
<glyph unicode="`" horiz-adv-x="716" d="M-49 1536h319l193 -299h-209z" />
<glyph unicode="a" horiz-adv-x="1175" d="M61 291q0 152 91 244q80 82 225 104l258 37q57 10 79.5 30.5t22.5 55.5q0 80 -65 108q-43 18 -123 19q-96 0 -139 -51q-29 -33 -37 -101h-279q23 227 172 316q109 65 310 65h6q166 0 274 -55q160 -80 160 -260v-590q0 -88 16.5 -123t48.5 -45v-45h-311q-16 55 -20.5 72.5 t-4.5 58.5q-66 -70 -127 -104q-98 -55 -225 -56q-137 0 -227 74q-104 86 -105 246zM348 307q0 -68 45 -102q37 -29 86 -29q100 0 179 59.5t79 157.5v139q-23 -20 -62.5 -32.5t-134 -27.5t-134.5 -44q-57 -39 -58 -121z" />
<glyph unicode="b" horiz-adv-x="1314" d="M127 0v1470h287v-520q49 70 108 109q90 59 211 59q188 0 314 -139q137 -154 137 -422q0 -248 -107 -405q-123 -180 -352 -181q-100 0 -176 37q-90 43 -139 131l-4 -139h-279zM401 520q0 -133 58 -215q68 -96 196 -96q125 0 187 115q47 88 47 213q0 143 -53 231 q-63 104 -189 104q-135 0 -196 -108q-49 -88 -50 -244z" />
<glyph unicode="c" horiz-adv-x="1175" d="M70 516q0 279 123 432q135 170 401 170q176 0 303 -80q176 -111 176 -338h-291q-8 66 -45 113q-51 63 -131 64h-12q-123 0 -182 -107q-47 -84 -47 -209q0 -143 28 -219q51 -133 193 -133q96 0 153 76q43 57 43 112h291q-16 -145 -102 -254q-135 -172 -398 -172 q-276 0 -405 187q-98 141 -98 358z" />
<glyph unicode="d" horiz-adv-x="1314" d="M70 557q0 270 135 422q125 139 319 139q123 0 209 -57q61 -41 107 -111l4 520h286v-1470h-282v139q-51 -86 -137 -127t-183 -41q-227 0 -350 181q-109 160 -108 405zM365 537q0 -121 49 -211q63 -117 188 -117q127 0 195 94q59 84 59 217q0 154 -49 242q-60 110 -195 110 h-2q-129 0 -192 -102q-53 -86 -53 -233z" />
<glyph unicode="e" horiz-adv-x="1175" d="M49 569q0 258 146 410q135 139 374 139q205 0 336 -112q176 -152 176 -486v-53h-745q14 -143 75.5 -204.5t178.5 -61.5q66 0 118 30.5t66 87.5h295q-51 -182 -197 -272q-121 -76 -282 -76q-250 0 -385 129q-156 150 -156 469zM344 655h442q-12 121 -79 181 q-57 49 -142 49q-194 -1 -221 -230z" />
<glyph unicode="f" horiz-adv-x="716" d="M20 885v205h160v90q0 162 83 236.5t237 74.5l147 -4v-234h-82q-70 0 -84 -21.5t-14 -96.5v-45h184v-205h-184v-885h-287v885h-160z" />
<glyph unicode="g" horiz-adv-x="1314" d="M82 557q0 270 135 422q125 139 320 139q133 0 221 -67q57 -43 98 -121l4 160h275v-1033q0 -215 -74 -321q-127 -182 -479 -182q-188 0 -322 77q-154 90 -154 250h312q12 -53 43 -76q44 -34 151 -34h6q117 0 173.5 60t56.5 194v131l-4 4q-57 -100 -135 -137 q-63 -31 -156 -31q-207 0 -334 139q-137 152 -137 426zM377 541q0 -123 49 -203q61 -100 180 -100q131 0 193 100q49 80 49 215q0 139 -62 225q-68 94 -184 94q-92 0 -151 -69q-74 -88 -74 -262z" />
<glyph unicode="h" horiz-adv-x="1314" d="M135 0v1470h287v-520q31 70 120 119t199 49q168 0 269 -90q108 -98 108 -274v-754h-287v664q0 90 -24 135q-43 78 -160 78q-98 0 -161.5 -66t-63.5 -184v-627h-287z" />
<glyph unicode="i" horiz-adv-x="602" d="M143 0v1090h287v-1090h-287zM143 1221v266h287v-266h-287z" />
<glyph unicode="j" horiz-adv-x="602" d="M8 -209h49q47 0 66.5 23.5t19.5 74.5v1201h287v-1205q0 -199 -92 -268q-74 -55 -260 -55h-70v229zM143 1221v266h287v-266h-287z" />
<glyph unicode="k" horiz-adv-x="1175" d="M143 0v1470h287v-794l361 414h352l-385 -422l393 -668h-344l-258 467l-119 -123v-344h-287z" />
<glyph unicode="l" horiz-adv-x="602" d="M143 0v1470h287v-1470h-287z" />
<glyph unicode="m" horiz-adv-x="1892" d="M131 0v1090h275v-160q43 76 100 121q87 67 211 67h4q111 0 182 -43q61 -37 121 -129q66 94 133.5 133t157.5 39q168 0 268 -90q109 -98 109 -274v-754h-287v664q0 113 -42 163t-114 50q-102 0 -147 -58.5t-45 -163.5v-655h-287v655q0 104 -20 146q-37 76 -152 76 q-96 0 -138 -57.5t-42 -155.5v-664h-287z" />
<glyph unicode="n" horiz-adv-x="1314" d="M135 0v1090h275v-160q49 78 102 119q91 69 225 69h4q168 0 269 -90q108 -98 108 -274v-754h-287v664q0 90 -24 135q-43 78 -160 78q-98 0 -161.5 -66t-63.5 -184v-627h-287z" />
<glyph unicode="o" horiz-adv-x="1245" d="M78 545q0 281 168 434q152 139 389 139q238 0 389 -139q168 -153 168 -434t-168 -434q-152 -139 -389 -140q-236 0 -387 140q-170 156 -170 434zM373 545q0 -135 47 -217q66 -115 215 -115q147 0 213 113q49 86 49 219q0 135 -47 217q-66 115 -215 115q-147 0 -213 -113 q-49 -86 -49 -219z" />
<glyph unicode="p" horiz-adv-x="1314" d="M127 -426v1516h274v-156q57 84 115 125q86 59 217 59q188 0 314 -139q137 -154 137 -422q0 -248 -107 -405q-123 -180 -352 -181q-131 0 -215 62q-45 33 -92 106l-4 -565h-287zM401 520q0 -133 58 -215q68 -96 196 -96q125 0 187 115q47 88 47 213q0 143 -53 231 q-63 104 -189 104q-135 0 -196 -108q-50 -88 -50 -244z" />
<glyph unicode="q" horiz-adv-x="1314" d="M70 524q0 252 110 410q129 184 369 184q121 0 205 -67q51 -41 98 -121l4 160h274v-1516h-286v561q-90 -164 -312 -164q-236 0 -360 189q-102 154 -102 364zM365 524q0 -147 61 -229t184 -82q109 0 175.5 82t66.5 246q0 195 -100 278q-63 53 -146 53q-100 0 -162 -69 q-79 -91 -79 -279z" />
<glyph unicode="r" horiz-adv-x="831" d="M131 0v1090h275v-189q66 109 110 150q75 67 190 67h3q37 0 57 -4v-291q-18 2 -44 3t-38 1q-152 0 -217 -84q-49 -63 -49 -174v-569h-287z" />
<glyph unicode="s" horiz-adv-x="1175" d="M61 348h295q0 -74 52 -112q61 -47 186 -48q100 0 147 41q37 31 37 74q0 68 -174 107q-266 57 -325 86q-176 82 -177 258q0 145 91 241q115 123 348 123q207 0 325 -63q166 -88 166 -297h-282q-12 70 -41 98q-45 45 -152 45q-104 0 -145 -35q-31 -27 -31 -71 q0 -66 176 -103q260 -55 330 -88q178 -82 178 -256q0 -211 -174 -307q-127 -70 -305 -70q-219 0 -355 78q-170 98 -170 299z" />
<glyph unicode="t" horiz-adv-x="716" d="M20 885v205h148v294h287v-294h180v-205h-180v-590q0 -55 19.5 -72.5t98.5 -17.5l62 4v-217q-33 -4 -73 -4h-62h-37q-176 0 -242 63q-53 51 -53 174v660h-148z" />
<glyph unicode="u" horiz-adv-x="1245" d="M143 373v717h287v-676q0 -115 59 -164q45 -37 129 -37q86 0 146 51q76 66 76 199v627h286v-1090h-274v156q-109 -184 -336 -185q-172 0 -268 97q-104 102 -105 305z" />
<glyph unicode="v" horiz-adv-x="1175" d="M29 1090h319l225 -803l234 803h307l-393 -1090h-303z" />
<glyph unicode="w" horiz-adv-x="1658" d="M20 1090h308l168 -783l159 783h287l164 -783l176 783h295l-315 -1090h-295l-168 795l-176 -795h-295z" />
<glyph unicode="x" horiz-adv-x="1175" d="M33 0l368 557l-356 533h348l185 -316l180 316h340l-361 -533l373 -557h-356l-189 328l-188 -328h-344z" />
<glyph unicode="y" horiz-adv-x="1175" d="M20 1090h320l233 -803l230 803h303l-377 -1070q-102 -307 -169.5 -382.5t-252.5 -75.5h-45h-51q-23 4 -31 4v229q12 -4 53 -4q90 0 125 25q47 33 64 139z" />
<glyph unicode="z" horiz-adv-x="1060" d="M41 0v225l561 635h-520v230h881v-234l-549 -618h569v-238h-942z" />
<glyph unicode="{" horiz-adv-x="831" d="M98 446v189q66 0 117 29q76 43 76 127v409q0 133 94 211q82 68 193 68h172v-181h-95q-70 0 -96 -43q-18 -31 -18 -92v-401q-14 -113 -99 -172q-57 -39 -135 -49q74 -4 133 -47q86 -61 101 -179v-401q0 -59 18 -90q27 -45 96 -45h95v-180h-172q-111 0 -191 65 q-96 78 -96 213v414q0 84 -74 125q-53 31 -119 30z" />
<glyph unicode="|" horiz-adv-x="602" d="M172 -41v1552h229v-1552h-229z" />
<glyph unicode="}" horiz-adv-x="831" d="M49 -221h94q70 0 97 43q18 31 18 92v401q14 117 98 177q63 45 136 45q-82 14 -134 51q-86 61 -100 174v401q0 59 -18 90q-27 45 -97 45h-94v181h172q111 0 191 -66q96 -78 96 -213v-409q0 -84 74 -125q52 -31 118 -31v-189q-66 0 -116 -28q-76 -43 -76 -127v-414 q0 -133 -94 -211q-82 -68 -193 -67h-172v180z" />
<glyph unicode="~" horiz-adv-x="1245" d="M127 520q41 80 92 121q68 55 162 55q45 0 111 -20q47 -14 118 -45q55 -27 113.5 -52.5t95.5 -25.5q55 0 103 47q24 25 77 105l74 -185q-61 -86 -104 -121q-68 -55 -154 -55q-51 0 -97 15.5t-111.5 51t-104.5 50.5q-61 23 -129 22q-47 0 -84 -26q-47 -35 -88 -121z" />
<glyph horiz-adv-x="602" />
<glyph horiz-adv-x="602" />
<glyph horiz-adv-x="602" />
<glyph horiz-adv-x="602" />
<glyph horiz-adv-x="602" />
<glyph horiz-adv-x="602" />
<glyph horiz-adv-x="1933" d="M70 545q0 281 168 434q152 139 389 139q113 0 212 -44t162 -120q76 78 134 111q94 53 221 53q205 0 336 -112q176 -152 176 -488v-51h-748q14 -143 75.5 -204.5t180.5 -61.5q63 0 116 30.5t69 87.5h294q-53 -182 -196 -272q-121 -76 -283 -76t-264 52q-61 31 -129 100 q-49 -61 -119 -98q-100 -53 -237 -54q-238 0 -389 140q-168 154 -168 434zM365 545q0 -135 47 -217q66 -115 215 -115q147 0 213 113q49 86 49 219q0 135 -47 217q-66 115 -215 115q-147 0 -213 -113q-49 -86 -49 -219zM1128 653h445q-10 121 -82 181q-57 49 -139 49 q-100 0 -156 -59.5t-68 -170.5z" />
<glyph horiz-adv-x="602" />
<glyph unicode="&#xa1;" horiz-adv-x="681" d="M184 -6l82 688h152l82 -688v-375h-316v375zM193 801v289h299v-289h-299z" />
<glyph unicode="&#xa2;" horiz-adv-x="1175" d="M70 516q0 279 123 432q135 170 401 170h40.5t49.5 -4l49 172h107l-58 -201q123 -39 197 -122q94 -105 94 -263h-291q-8 41 -20 72q-18 43 -49 68l-176 -623q12 -8 49 -8q96 0 153 76q43 57 43 112h291q-16 -145 -102 -254q-135 -172 -398 -172h-26h-39q-25 6 -37 9 l-65 -222h-107l70 246q-162 61 -238 219q-61 127 -61 293zM365 561q0 -94 10 -149q18 -97 67 -146l176 611h-24q-123 0 -182 -107q-47 -84 -47 -209z" />
<glyph unicode="&#xa3;" horiz-adv-x="1175" d="M57 659v123h119q-51 106 -66.5 161.5t-15.5 129.5q0 141 107 254q135 143 381 143q199 0 327 -94q168 -123 168 -377h-270q-18 125 -53 172q-51 70 -172 70q-104 0 -160 -70q-41 -53 -41 -118q0 -33 13.5 -72t84.5 -199h291v-123h-242q4 -29 6.5 -53t2.5 -57 q0 -59 -21.5 -116.5t-64.5 -108.5q-33 -41 -123 -111l4 -4q76 27 129 40t104 13q76 0 144 -24q25 -8 59.5 -18.5t50.5 -10.5q47 0 105.5 23.5t99.5 50.5l86 -222q-66 -41 -133 -63q-88 -31 -178 -31q-43 0 -100.5 10.5t-100.5 26.5q-119 45 -197 45q-33 0 -66.5 -8 t-158.5 -66l-110 201q49 18 127 98q102 104 102 201q0 41 -15.5 94.5t-33.5 89.5h-189z" />
<glyph unicode="&#xa4;" horiz-adv-x="1175" d="M-8 291l205 201q-31 49 -48.5 111.5t-17.5 129.5q0 66 17.5 128.5t48.5 105.5l-205 200l139 136l201 -201q47 31 110.5 50t126.5 19q72 0 131.5 -17t110.5 -52l201 201l135 -136l-201 -200q29 -47 47.5 -106.5t18.5 -127.5t-17.5 -129t-48.5 -112l201 -201l-135 -135 l-201 200q-49 -31 -110.5 -48t-131.5 -17q-63 0 -124.5 17.5t-112.5 47.5l-201 -200zM360 733q0 -102 56.5 -167.5t152.5 -65.5q92 0 152.5 66.5t60.5 166.5q0 96 -58 160.5t-155 64.5q-94 0 -151.5 -63.5t-57.5 -161.5z" />
<glyph unicode="&#xa5;" horiz-adv-x="1175" d="M-20 1430h311l295 -603l282 603h291l-307 -599h274v-122h-340l-77 -156h417v-123h-417v-430h-263v430h-413v123h413l-81 156h-332v122h266z" />
<glyph unicode="&#xa6;" horiz-adv-x="602" d="M172 -41v598h229v-598h-229zM172 918v593h229v-593h-229z" />
<glyph unicode="&#xa7;" horiz-adv-x="1175" d="M70 614q0 90 55 162q47 59 137 109q-45 41 -72 92q-35 68 -34 145q0 150 106 254q117 115 307 115q170 0 279 -78q135 -98 135 -299h-262q0 74 -41 117t-119 43q-66 0 -106.5 -35t-40.5 -80q0 -71 78 -110l331 -164q121 -61 174 -125q72 -84 72 -211q0 -57 -41 -131 q-55 -98 -151 -144q66 -53 96.5 -120.5t30.5 -141.5q0 -186 -136 -293q-123 -96 -307 -96q-238 0 -352 154q-78 104 -78 231h270q8 -76 41 -114q45 -53 140 -54q80 0 118 56q29 41 29 88q0 51 -31 84q-20 23 -92 59l-311 160q-119 59 -168 125q-57 76 -57 202zM311 668 q0 -45 27 -78q18 -23 68 -49l323 -172q86 47 86 135q0 33 -21.5 61.5t-93.5 69.5l-299 151q-43 -16 -66.5 -54t-23.5 -64z" />
<glyph unicode="&#xa8;" d="M-1004 1794q0 96 68 163.5t166 67.5q96 0 165.5 -67.5t69.5 -163.5q0 -98 -68.5 -166.5t-166.5 -68.5q-96 0 -165 68.5t-69 166.5zM-911 1794q0 -59 41 -102t100 -43q57 0 100 43t43 102t-41 100t-102 41q-59 0 -100 -41t-41 -100z" />
<glyph unicode="&#xa9;" horiz-adv-x="1568" d="M-25 737q0 354 238 572q221 203 545 202q324 0 542 -202q236 -218 236 -572q0 -352 -236 -571q-221 -207 -542 -207q-324 0 -545 205q-238 219 -238 573zM201 737q0 -260 158.5 -429t390.5 -169l8 4q229 -4 391 164t162 430q0 260 -161 427t-392 167q-236 0 -396.5 -165 t-160.5 -429zM360 745q0 193 115 318t307 125q145 0 242.5 -80t122.5 -236h-176q-14 68 -65.5 102t-123.5 34q-98 0 -153.5 -70t-55.5 -188q0 -117 58.5 -194t154.5 -77q82 0 133.5 36t51.5 108h184q-25 -152 -127 -238t-242 -86q-190 0 -308 127t-118 319z" />
<glyph unicode="&#xaa;" horiz-adv-x="1277" d="M203 295v926h901v-926h-901z" />
<glyph unicode="&#xab;" horiz-adv-x="1175" d="M180 451v245l344 295v-237l-205 -181l205 -180v-237zM618 451v245l340 295v-237l-204 -181l204 -180v-237z" />
<glyph unicode="&#xac;" horiz-adv-x="2048" d="M76 735q0 315 133 522q162 252 479 252q125 0 211 -43q49 -25 107 -82v86h962v-260h-682v-309h635v-260h-635v-381h682v-260h-962v102q-70 -78 -135.5 -109.5t-190.5 -31.5q-231 0 -393 156q-211 205 -211 618zM377 719q0 -197 76 -334q94 -170 266 -170q121 0 193.5 58 t72.5 128v666q0 100 -90 150q-70 39 -164 38q-180 0 -272 -155q-82 -139 -82 -381z" />
<glyph unicode="&#xad;" horiz-adv-x="716" d="M57 442v267h570v-267h-570z" />
<glyph unicode="&#xae;" horiz-adv-x="1568" d="M-25 737q0 352 236 570q221 205 547 204q324 0 540 -202q234 -218 234 -572t-234 -573q-219 -205 -540 -205q-326 0 -547 205q-236 217 -236 573zM201 737q0 -260 158.5 -429t390.5 -169l8 4q229 -4 391 164t162 430q0 260 -161 427t-392 167q-236 0 -396.5 -165 t-160.5 -429zM451 319v836h311q170 0 250 -53q90 -61 90 -201q0 -111 -54.5 -164t-146.5 -53l213 -365h-209l-192 353h-86v-353h-176zM627 811h159q66 0 93 18q35 25 34 93q0 43 -34.5 66.5t-124.5 23.5h-127v-201z" />
<glyph unicode="&#xaf;" horiz-adv-x="716" d="M-12 1237v152h708v-152h-708z" />
<glyph unicode="&#xb0;" horiz-adv-x="1806" d="M444 780q0 201 132.5 341.5t343.5 140.5q215 0 348 -139.5t133 -342.5t-133 -340t-348 -137q-211 0 -343.5 138.5t-132.5 338.5z" />
<glyph unicode="&#xb1;" horiz-adv-x="1245" d="M82 0v229h1032v-229h-1032zM82 553v229h401v254h230v-254h401v-229h-401v-258h-230v258h-401z" />
<glyph unicode="&#xb2;" horiz-adv-x="716" d="M20 582q0 92 35 161q49 96 174 183q117 78 150 104q88 72 88 154v8q0 35 -29 65q-35 37 -90 37q-86 0 -119 -57q-20 -35 -20 -94h-180q0 143 75 223q84 88 236 88q141 0 232.5 -72.5t91.5 -201.5q0 -102 -60 -183q-43 -57 -126 -107t-134 -87q-43 -31 -61 -53h381v-168 h-644z" />
<glyph unicode="&#xb3;" horiz-adv-x="716" d="M16 848h185q0 -55 20 -88q33 -51 115 -51q63 0 97 28.5t34 98.5q0 92 -98 114q-37 8 -103 8v132h29q68 0 96 12q55 25 55 94q0 41 -16 66q-27 41 -94 41q-63 0 -95 -34t-32 -93h-176q0 127 80 202.5t235 75.5q115 0 193 -51q98 -63 98 -191q0 -63 -33 -106t-78 -62 q68 -25 104 -79t36 -129q0 -123 -89.5 -201t-230.5 -78q-121 0 -198 41q-134 72 -134 250z" />
<glyph unicode="&#xb4;" d="M-1130 1890h229l131 -168l131 168h229l-233 -299h-254z" />
<glyph unicode="&#xb5;" horiz-adv-x="1314" d="M135 -426v1516h287v-676q0 -115 59 -164q45 -37 129 -37q86 0 146 51q76 66 75 199v627h287v-1090h-274v156q-49 -88 -121 -136.5t-137 -48.5q-111 0 -164 54v-451h-287z" />
<glyph unicode="&#xb6;" horiz-adv-x="1175" d="M-16 1065q0 203 143 293q121 76 356 76h623v-1827h-229v1655h-209v-1655h-230v1106q-215 0 -334.5 93t-119.5 259z" />
<glyph unicode="&#xb7;" horiz-adv-x="512" d="M145 678q0 43 32 76.5t79 33.5t79 -31.5t32 -78.5q0 -45 -32 -78t-79 -33q-43 0 -80 31q-31 35 -31 80z" />
<glyph unicode="&#xb8;" d="M-963 1454h234l131 -168l127 168h233l-233 -299h-258z" />
<glyph unicode="&#xb9;" horiz-adv-x="716" d="M53 1176v127h29q123 0 182 51q47 41 47 100h176v-872h-208v594h-226z" />
<glyph unicode="&#xba;" horiz-adv-x="1359" d="M231 264v1002h967v-1002h-967zM322 342h790v838h-790v-838z" />
<glyph unicode="&#xbb;" horiz-adv-x="1175" d="M180 156v237l205 180l-205 181v237l344 -295v-245zM618 156v237l205 180l-205 181v237l340 -295v-245z" />
<glyph unicode="&#xbc;" horiz-adv-x="1777" d="M53 1176v127h29q123 0 182 51q47 41 47 100h176v-872h-208v594h-226zM279 -41l876 1495h160l-873 -1495h-163zM897 184v152l348 532h221v-540h103v-144h-103v-184h-192v184h-377zM1044 324h238l4 372z" />
<glyph unicode="&#xbd;" horiz-adv-x="1777" d="M53 1176v127h29q123 0 182 51q47 41 47 100h176v-872h-208v594h-226zM279 -41l876 1495h160l-873 -1495h-163zM983 0q0 94 35 164q49 98 174 184q117 78 149 105q88 72 89 153v8q0 33 -29 62q-37 37 -90 37q-86 0 -119 -56q-21 -35 -21 -92h-180q0 184 123 262 q78 49 189 50q141 0 232 -74t91 -205q0 -102 -59 -180q-41 -55 -123 -104.5t-137 -90.5q-41 -31 -62 -55h381v-168h-643z" />
<glyph unicode="&#xbe;" horiz-adv-x="1777" d="M33 848h184q0 -55 21 -88q33 -51 114 -51q63 0 97 28.5t34 98.5q0 92 -98 114q-37 8 -102 8v132h28q68 0 97 12q55 25 55 94q0 41 -17 66q-27 41 -94 41q-63 0 -95 -34t-32 -93h-176q0 127 80 202.5t236 75.5q115 0 192 -51q98 -63 98 -191q0 -63 -32.5 -106t-77.5 -62 q68 -25 103.5 -79t35.5 -129q0 -123 -89 -201t-230 -78q-121 0 -199 41q-133 72 -133 250zM369 -41l876 1495h160l-873 -1495h-163zM967 184v152l348 532h221v-540h102v-144h-102v-184h-197v184h-372zM1110 328h229l4 360z" />
<glyph unicode="&#xbf;" horiz-adv-x="1251" d="M113 37q0 119 63 209q53 74 184 168q72 51 95 92q30 56 30 158h271q0 -160 -33 -232q-41 -88 -176 -184q-127 -88 -127 -203q0 -111 65 -162q51 -41 133 -41q94 0 150.5 52.5t71.5 183.5l288 2q0 -244 -161 -373q-133 -106 -330 -106q-246 0 -389 120q-135 113 -135 316z M465 801v289h299v-289h-299z" />
<glyph unicode="&#xc0;" d="M-1130 1618l233 299h254l233 -299h-229l-131 168l-131 -168h-229zM-754 2167h316l192 -299h-205z" />
<glyph unicode="&#xc1;" d="M-1130 1618l233 299h254l233 -299h-229l-131 168l-131 -168h-229zM-496 1860l193 299h315l-303 -299h-205z" />
<glyph unicode="&#xc2;" d="M-1130 1618l233 299h254l233 -299h-229l-131 168l-131 -168h-229z" />
<glyph unicode="&#xc3;" d="M-1147 1999q8 45 21.5 81t43 79t68.5 65q49 29 117 29q47 0 147 -41q92 -33 127 -33q43 0 65 23.5t30 58.5h135q-12 -61 -31 -104q-61 -141 -194 -142q-35 0 -70 8.5t-85 24.5t-101 33q-27 8 -44 8q-49 0 -75 -35q-16 -23 -23 -55h-131zM-1130 1618l233 299h254l233 -299 h-229l-131 168l-131 -168h-229z" />
<glyph unicode="&#xc4;" d="M-1130 1618l233 299h254l233 -299h-229l-131 168l-131 -168h-229zM-905 -123h258v-237h-258v237z" />
<glyph unicode="&#xc5;" d="M-1130 1618l233 299h254l233 -299h-229l-131 168l-131 -168h-229zM-692 2154v13q0 80 66.5 134t179.5 54q109 0 169 -53t60 -131q0 -57 -8 -82q-14 -41 -58 -74q-2 -4 -34 -33q-12 -10 -24.5 -26.5t-18 -45t-5.5 -50.5v-13h-118v99q0 18 15 46.5t34 51.5q27 16 40 46 t13 60q0 35 -25.5 63t-56.5 28q-35 0 -77 -27t-42 -60h-110z" />
<glyph unicode="&#xc6;" horiz-adv-x="602" d="M12 1860q0 80 69 134t181 54q109 0 169.5 -53t60.5 -131q0 -57 -9 -82q-14 -41 -57 -74q-2 -4 -35 -33q-12 -10 -24.5 -26.5t-19.5 -47t-7 -49.5l4 -12h-119v98q0 18 15.5 47t33.5 52q27 16 40.5 45.5t13.5 60.5q0 35 -26 62.5t-56 27.5q-35 0 -77 -26.5t-42 -59.5h-111z M131 0v1470h307v-1470h-307z" />
<glyph unicode="&#xc7;" horiz-adv-x="1544" d="M90 733q0 373 197 582q184 197 479 196q303 0 483 -178q152 -152 152 -342h-307q-31 106 -76 158q-84 96 -248 96q-143 0 -238 -100q-127 -133 -126 -416q0 -215 83 -348q96 -152 281 -152q127 0 212 71t112 204h307q-49 -250 -203 -391q-168 -154 -436 -154 q-301 0 -481 197q-190 207 -191 577zM455 -418l45 99q49 -14 88 -23.5t67 -9.5q37 0 68 21.5t31 60.5q0 33 -24.5 53t-57.5 20q-25 0 -82 -16l-41 41l110 172h123l-77 -115q25 8 61 9q82 0 133 -52q43 -43 43 -108q0 -90 -69.5 -145.5t-184.5 -55.5q-66 0 -105.5 8 t-127.5 41z" />
<glyph unicode="&#xc8;" d="M-1143 2228h316l192 -299h-205zM-1098 1913h135q14 -63 41 -90q51 -53 164 -54q88 0 135 23q68 33 82 121h135q-14 -147 -116 -227q-94 -72 -248 -72q-178 0 -264 119q-53 74 -64 180z" />
<glyph unicode="&#xc9;" d="M-1098 1913h135q14 -63 41 -90q51 -53 164 -54q88 0 135 23q68 33 82 121h135q-14 -147 -116 -227q-94 -72 -248 -72q-178 0 -264 119q-53 74 -64 180zM-856 1950l192 299h316l-303 -299h-205z" />
<glyph unicode="&#xca;" d="M-1098 1913h135q14 -63 41 -90q51 -53 164 -54q88 0 135 23q68 33 82 121h135q-14 -147 -116 -227q-94 -72 -248 -72q-178 0 -264 119q-53 74 -64 180z" />
<glyph unicode="&#xcb;" d="M-1098 1913h135q14 -63 41 -90q51 -53 164 -54q88 0 135 23q68 33 82 121h135q-14 -147 -116 -227q-94 -72 -248 -72q-178 0 -264 119q-53 74 -64 180zM-918 -106h259v-238h-259v238z" />
<glyph unicode="&#xcc;" horiz-adv-x="602" d="M-41 1892h315l193 -299h-205zM131 0v1470h307v-1470h-307z" />
<glyph unicode="&#xcd;" horiz-adv-x="602" d="M131 0v1470h307v-1470h-307zM135 1602l193 299h315l-303 -299h-205z" />
<glyph unicode="&#xce;" horiz-adv-x="1429" d="M33 1470h360l307 -639l291 639h348l-491 -917v-553h-307v557zM573 -106h258v-238h-258v238z" />
<glyph unicode="&#xcf;" d="M-905 -94h258v-238h-258v238z" />
<glyph unicode="&#xd0;" horiz-adv-x="569" d="M-43 1686v237h258v-237h-258zM131 0v1470h307v-1470h-307zM354 1686v237h258v-237h-258z" />
<glyph unicode="&#xd1;" horiz-adv-x="1544" d="M61 647v254h95v569h651q332 0 485 -245q113 -180 113 -455q0 -297 -123 -502q-162 -268 -487 -268h-639v647h-95zM459 254h299q174 0 260 156q72 129 72 340q0 285 -119 395q-78 72 -217 72h-295v-316h340v-254h-340v-393z" />
<glyph unicode="&#xd2;" horiz-adv-x="602" d="M131 0v1470h307v-1470h-307zM152 -106h258v-238h-258v238z" />
<glyph unicode="&#xd3;" horiz-adv-x="602" d="M-66 1630q8 45 21.5 81t43.5 79t69 65q49 29 116 29q47 0 148 -41q92 -33 127 -33q43 0 64.5 23.5t29.5 58.5h135q-12 -61 -31 -104q-61 -141 -194 -141q-35 0 -70 8t-77 21.5t-74 23.5q-59 20 -78 20q-49 0 -76 -34q-16 -23 -22 -56h-132zM131 0v1470h307v-1470h-307z " />
<glyph unicode="&#xd4;" horiz-adv-x="1548" d="M86 737q0 313 139 506q109 152 297 219q135 49 273 49q109 0 204 -24q141 -37 250 -123q43 23 66.5 73t23.5 99h-106v168h242v-172q0 -84 -25 -135q-33 -68 -119 -111q82 -90 125 -224t43 -325q0 -313 -139 -508q-109 -152 -297 -221q-133 -49 -268 -49q-141 0 -271 47 q-188 70 -297 219q-141 197 -141 512zM393 737q0 -279 137 -413q104 -102 265 -103q156 0 260 103q137 135 137 413q0 276 -137 410q-104 102 -260 102t-263 -102q-139 -136 -139 -410z" />
<glyph unicode="&#xd5;" d="M-1147 1630q8 45 21.5 81t43 79t68.5 65q49 29 117 29q47 0 147 -41q92 -33 127 -33q43 0 65 23.5t30 58.5h135q-12 -61 -31 -104q-61 -141 -194 -141q-35 0 -70 8t-85 24.5t-101 32.5q-27 8 -44 8q-49 0 -75 -34q-16 -23 -23 -56h-131z" />
<glyph unicode="&#xd6;" horiz-adv-x="1478" d="M135 496v974h316v-954q0 -145 73.5 -220t188.5 -75q152 0 223.5 72t71.5 211v966h315v-61q41 23 51 50.5t10 80.5h-106v168h242v-172q0 -152 -197 -250v-770q0 -285 -162 -424q-154 -133 -444 -133q-125 0 -234 35q-145 47 -233 145q-115 133 -115 357z" />
<glyph unicode="&#xd7;" horiz-adv-x="1245" d="M82 164l356 356l-356 352l164 164l352 -356l356 356l160 -164l-352 -352l356 -356l-164 -160l-356 352l-352 -352z" />
<glyph unicode="&#xd8;" d="M-1118 1917h315l193 -299h-205z" />
<glyph unicode="&#xd9;" d="M-889 1618l193 299h315l-303 -299h-205z" />
<glyph unicode="&#xda;" d="M-1098 1913h135q14 -63 41 -90q51 -53 164 -54q88 0 135 23q68 33 82 121h135q-14 -147 -116 -227q-94 -72 -248 -72q-178 0 -264 119q-53 74 -64 180zM-1004 2204v12q0 80 67 134t179 54q109 0 169.5 -53t60.5 -131q0 -57 -9 -82q-14 -41 -57 -74q-2 -4 -35 -32 q-12 -10 -24.5 -26.5t-17.5 -45.5t-5 -51v-13h-119v99q0 18 15.5 47t34.5 51q27 16 40 46t13 61q0 35 -25.5 62.5t-56.5 27.5q-35 0 -77 -27t-42 -59h-111z" />
<glyph unicode="&#xdb;" d="M-1028 1909v12q0 80 66.5 134t179.5 54q109 0 169 -53t60 -131q0 -57 -8 -82q-14 -41 -57 -74q-2 -4 -35 -32q-12 -10 -24.5 -26.5t-17.5 -45.5t-5 -51v-12h-119v98q0 18 15.5 47t33.5 51q27 16 40 46t13 61q0 35 -25.5 62.5t-56.5 27.5q-35 0 -77 -26.5t-42 -59.5h-110z " />
<glyph unicode="&#xdc;" d="M-1098 1913h135q14 -63 41 -90q51 -53 164 -54q88 0 135 23q68 33 82 121h135q-14 -147 -116 -227q-94 -72 -248 -72q-178 0 -264 119q-53 74 -64 180zM-934 1999q8 45 21.5 81t43 79t68.5 65q49 29 117 29q47 0 147 -41q92 -33 127 -33q43 0 65 23.5t30 58.5h135 q-12 -61 -31 -104q-61 -141 -195 -142q-35 0 -69.5 8.5t-84.5 24.5t-102 33q-27 8 -43 8q-49 0 -75 -35q-16 -23 -23 -55h-131z" />
<glyph unicode="&#xdd;" horiz-adv-x="602" d="M-78 1606l234 299h258l233 -299h-233l-131 168l-127 -168h-234zM131 0v1470h307v-1470h-307z" />
<glyph unicode="&#xde;" horiz-adv-x="1593" d="M68 23l174 190q-72 90 -109 211q-43 137 -43 311q0 315 139 508q109 152 297 219q129 47 271 47q109 0 217 -30q147 -41 258 -136l166 183l86 -78l-172 -188q70 -90 110.5 -222.5t40.5 -302.5q0 -315 -139 -508q-109 -152 -297 -219q-129 -47 -270 -47q-115 0 -217 29 q-147 41 -258 139l-168 -184zM397 735q0 -92 14.5 -163t41.5 -126l622 682q-57 63 -131 92t-147 29q-156 0 -262 -102q-137 -133 -138 -412zM516 344q57 -66 131 -94.5t150 -28.5q156 0 262 103q137 133 137 411q0 92 -14 164t-43 127z" />
<glyph unicode="&#xdf;" horiz-adv-x="1251" d="M141 0v1104q0 166 115 272q129 121 362 121q178 0 293 -59q190 -98 191 -342q0 -86 -43 -155t-107 -99q145 -63 199 -180q35 -76 35 -193q0 -203 -109 -336q-133 -162 -393 -162q-39 1 -113 13v225l60 -2q268 0 268 254q0 152 -108 211q-72 39 -205 39v198q109 0 155 25 q74 39 74 153q0 88 -54 134.5t-153 46.5q-72 0 -119 -37q-61 -47 -61 -146v-1085h-287z" />
<glyph unicode="&#xe0;" d="M-963 1217l234 299h258l233 -299h-233l-131 167l-127 -167h-234zM-573 1774h315l192 -299h-208z" />
<glyph unicode="&#xe1;" d="M-963 1217l234 299h258l233 -299h-233l-131 167l-127 -167h-234zM-336 1458l193 299h315l-299 -299h-209z" />
<glyph unicode="&#xe2;" d="M-963 1217l234 299h258l233 -299h-233l-131 167l-127 -167h-234z" />
<glyph unicode="&#xe3;" d="M-975 1618q10 53 17 72q14 45 40 84q35 45 80 71.5t109 26.5q45 0 82 -12q41 -18 65 -29q92 -33 127 -33q47 0 69 23.5t30 58.5h131q-16 -117 -75.5 -181.5t-145.5 -64.5q-35 0 -70 8.5t-77 21.5t-75 24q-59 20 -82 20q-45 0 -71 -35q-16 -23 -23 -55h-131zM-963 1217 l234 299h258l233 -299h-233l-131 167l-127 -167h-234z" />
<glyph unicode="&#xe4;" d="M-963 1217l234 299h258l233 -299h-233l-131 167l-127 -167h-234zM-729 -109h258v-237h-258v237z" />
<glyph unicode="&#xe5;" d="M-963 1217l234 299h258l233 -299h-233l-131 167l-127 -167h-234zM-477 1700v12q0 80 66.5 134.5t179.5 54.5q109 0 169 -53.5t60 -131.5q0 -57 -8 -82q-14 -41 -58 -73q-2 -4 -34 -33q-12 -10 -24.5 -26.5t-18 -45.5t-5.5 -51v-12h-118v98q0 18 15 47t34 51q27 16 40 46 t13 61q0 35 -25.5 62.5t-56.5 27.5q-35 0 -77 -26.5t-42 -59.5h-110z" />
<glyph unicode="&#xe6;" horiz-adv-x="602" d="M16 1491q0 80 69 134t181 54q109 0 169.5 -53t60.5 -131q0 -57 -9 -82q-14 -41 -57 -74q-2 -4 -35 -32q-12 -10 -24.5 -26.5t-19.5 -47.5t-7 -49l4 -13h-119v99q0 18 15.5 47t34.5 51q27 16 40 46t13 61q0 35 -25.5 62.5t-56.5 27.5q-35 0 -77 -27t-42 -59h-111zM143 0 v1090h287v-1090h-287z" />
<glyph unicode="&#xe7;" horiz-adv-x="1175" d="M70 516q0 279 123 432q135 170 401 170q176 0 303 -80q176 -111 176 -338h-291q-8 66 -45 113q-51 63 -131 64h-12q-123 0 -182 -107q-47 -84 -47 -209q0 -143 28 -219q51 -133 193 -133q96 0 153 76q43 57 43 112h291q-16 -145 -102 -254q-135 -172 -398 -172 q-276 0 -405 187q-98 141 -98 358zM283 -418l45 99q51 -16 90 -24.5t69 -8.5q33 0 64 22.5t31 59.5q0 33 -22.5 53t-55.5 20t-82 -16l-45 41l115 172h118l-78 -115q25 8 62 9q61 0 111 -31q70 -43 69 -129q0 -88 -70.5 -144.5t-183.5 -56.5q-63 0 -105 8t-132 41z" />
<glyph unicode="&#xe8;" d="M-979 1851h315l193 -299h-209zM-930 1511h135q14 -63 41 -90q51 -53 164 -53q88 0 135 23q68 32 82 120h135q-14 -147 -116 -227q-94 -72 -248 -72q-178 0 -264 119q-53 74 -64 180z" />
<glyph unicode="&#xe9;" d="M-930 1511h135q14 -63 41 -90q51 -53 164 -53q88 0 135 23q68 32 82 120h135q-14 -147 -116 -227q-94 -72 -248 -72q-178 0 -264 119q-53 74 -64 180zM-700 1585l192 299h315l-299 -299h-208z" />
<glyph unicode="&#xea;" d="M-930 1511h135q14 -63 41 -90q51 -53 164 -53q88 0 135 23q68 32 82 120h135q-14 -147 -116 -227q-94 -72 -248 -72q-178 0 -264 119q-53 74 -64 180z" />
<glyph unicode="&#xeb;" d="M-930 1511h135q14 -63 41 -90q51 -53 164 -53q88 0 135 23q68 32 82 120h135q-14 -147 -116 -227q-94 -72 -248 -72q-178 0 -264 119q-53 74 -64 180zM-733 -111h258v-237h-258v237z" />
<glyph unicode="&#xec;" horiz-adv-x="602" d="M-61 1511h315l192 -299h-204zM143 0v1090h287v-1090h-287z" />
<glyph unicode="&#xed;" horiz-adv-x="602" d="M143 0v1090h287v-1090h-287zM156 1212l192 299h316l-304 -299h-204z" />
<glyph unicode="&#xee;" horiz-adv-x="1175" d="M20 1090h320l233 -803l230 803h303l-377 -1070q-102 -307 -169.5 -382.5t-252.5 -75.5h-45h-51q-23 4 -31 4v229q12 -4 53 -4q90 0 125 25q47 33 64 139zM762 -111h258v-237h-258v237z" />
<glyph unicode="&#xef;" d="M-733 -111h258v-237h-258v237z" />
<glyph unicode="&#xf0;" horiz-adv-x="569" d="M-29 1327v238h258v-238h-258zM143 0v1090h287v-1090h-287zM369 1327v238h258v-238h-258z" />
<glyph unicode="&#xf1;" horiz-adv-x="1314" d="M70 557q0 270 135 422q125 139 319 139q123 0 209 -57q61 -41 107 -111l4 238h-303v201h303v81h286v-81h70v-201h-70v-1188h-282v139q-51 -86 -137 -127t-183 -41q-227 0 -350 181q-109 160 -108 405zM365 537q0 -121 49 -211q63 -117 188 -117q127 0 195 94 q59 84 59 217q0 154 -49 242q-61 111 -197 110q-129 0 -192 -102q-53 -86 -53 -233z" />
<glyph unicode="&#xf2;" horiz-adv-x="602" d="M143 0v1090h287v-1090h-287zM143 1221v266h287v-266h-287zM168 -111h258v-237h-258v237z" />
<glyph unicode="&#xf3;" horiz-adv-x="602" d="M-74 1249q10 53 17 72q14 45 41 84q35 45 80 71.5t108 26.5q45 0 82 -12q41 -18 65 -29q92 -33 127 -32q47 0 69 23t30 58h131q-16 -117 -75.5 -181t-145.5 -64q-35 0 -70 8t-77 21.5t-75 23.5q-59 20 -81 20q-45 0 -72 -34q-16 -23 -23 -56h-131zM143 0v1090h287v-1090 h-287z" />
<glyph unicode="&#xf4;" horiz-adv-x="1245" d="M78 545q0 281 168 434q152 139 389 139q98 0 189 -34t171 -97q43 23 64.5 68t21.5 92h-106v168h242v-172q0 -76 -31 -124t-121 -93q127 -145 127 -381q0 -281 -168 -434q-152 -139 -389 -140q-236 0 -387 140q-170 156 -170 434zM373 545q0 -135 47 -217 q66 -115 215 -115q147 0 213 113q49 86 49 219q0 135 -47 217q-66 115 -215 115q-147 0 -213 -113q-49 -86 -49 -219z" />
<glyph unicode="&#xf5;" d="M-975 1241q10 53 17 72q14 45 40 84q35 45 80 71.5t109 26.5q45 0 82 -12q41 -18 65 -29q92 -33 127 -33q47 0 69 23.5t30 58.5h131q-16 -117 -75.5 -181.5t-145.5 -64.5q-35 0 -70 8.5t-77 21.5t-75 24q-59 20 -82 20q-45 0 -71 -35q-16 -23 -23 -55h-131z" />
<glyph unicode="&#xf6;" horiz-adv-x="1245" d="M143 373v717h287v-676q0 -115 59 -164q45 -37 129 -37q86 0 146 51q76 66 76 199v627h286v-33q41 23 51.5 52.5t10.5 82.5h-107v168h242v-172q0 -70 -49 -125t-148 -105v-958h-274v156q-109 -184 -336 -185q-172 0 -268 97q-104 102 -105 305z" />
<glyph unicode="&#xf7;" horiz-adv-x="1245" d="M82 406v229h1032v-229h-1032zM418 94q0 76 54 130.5t130 54.5q70 0 125 -55.5t55 -129.5q0 -68 -54 -124t-126 -56q-74 0 -129 53t-55 127zM418 942q0 74 55 127t129 53q70 0 125 -53t55 -127q0 -68 -54 -124t-126 -56q-74 0 -129 53t-55 127z" />
<glyph unicode="&#xf8;" d="M-987 1536h315l193 -299h-209z" />
<glyph unicode="&#xf9;" d="M-721 1237l193 299h315l-299 -299h-209z" />
<glyph unicode="&#xfa;" d="M-930 1511h135q14 -63 41 -90q51 -53 164 -53q88 0 135 23q68 32 82 120h135q-14 -147 -116 -227q-94 -72 -248 -72q-178 0 -264 119q-53 74 -64 180zM-840 1769v13q0 80 66.5 134t179.5 54q109 0 169 -53t60 -131q0 -57 -8 -82q-14 -41 -57 -74q-2 -4 -35 -33 q-12 -10 -24.5 -26.5t-17.5 -45t-5 -50.5v-13h-119v99q0 18 15.5 46.5t33.5 51.5q27 16 40.5 46t13.5 60q0 35 -26 62.5t-56 27.5q-35 0 -77 -26.5t-42 -59.5h-111z" />
<glyph unicode="&#xfb;" d="M-872 1479v12q0 80 66.5 134t178.5 54q109 0 169.5 -53t60.5 -131q0 -57 -9 -82q-14 -41 -57 -74q-2 -4 -35 -32q-12 -10 -24.5 -26.5t-17.5 -45.5t-5 -51v-13h-119v99q0 18 15.5 47t34.5 51q27 16 40 46t13 61q0 35 -25.5 62.5t-56.5 27.5q-35 0 -77 -27t-42 -59h-110z " />
<glyph unicode="&#xfc;" d="M-930 1511h135q14 -63 41 -90q51 -53 164 -53q88 0 135 23q68 32 82 120h135q-14 -147 -116 -227q-94 -72 -248 -72q-178 0 -264 119q-53 74 -64 180zM-766 1597q10 53 16 72q14 45 41 84q35 45 80 71.5t109 26.5q45 0 82 -12q41 -18 65 -29q92 -33 127 -32q47 0 69 23.5 t30 58.5h131q-16 -117 -76 -181.5t-146 -64.5q-35 0 -69.5 8t-76.5 21.5t-75 23.5q-59 20 -82 21q-45 0 -71 -35q-16 -23 -23 -56h-131z" />
<glyph unicode="&#xfd;" horiz-adv-x="602" d="M-66 1225l234 299h258l233 -299h-233l-131 168l-127 -168h-234zM143 0v1090h287v-1090h-287z" />
<glyph unicode="&#xfe;" horiz-adv-x="1251" d="M45 0l150 158q-61 74 -93 169t-32 218q0 281 168 434q152 139 389 139q215 0 366 -121l142 150l71 -66l-145 -151q59 -72 91 -166t32 -219q0 -281 -168 -434q-152 -139 -389 -140q-217 0 -363 119l-141 -149zM365 545q0 -45 7 -91t23 -87l416 438q-35 37 -78 54.5 t-106 17.5q-147 0 -213 -113q-49 -86 -49 -219zM446 283q63 -70 181 -70q147 0 213 113q49 86 49 219q0 57 -5.5 93t-23.5 81z" />
<glyph unicode="&#xff;" horiz-adv-x="1175" d="M20 1090h320l233 -803l230 803h303l-377 -1070q-102 -307 -169.5 -382.5t-252.5 -75.5h-45h-51q-23 4 -31 4v229q12 -4 53 -4q90 0 125 25q47 33 64 139zM762 -111h258v-237h-258v237z" />
<glyph unicode="&#x152;" d="M-1028 1909v12q0 80 66.5 134t179.5 54q109 0 169 -53t60 -131q0 -57 -8 -82q-14 -41 -57 -74q-2 -4 -35 -32q-12 -10 -24.5 -26.5t-17.5 -45.5t-5 -51v-12h-119v98q0 18 15.5 47t33.5 51q27 16 40 46t13 61q0 35 -25.5 62.5t-56.5 27.5q-35 0 -77 -26.5t-42 -59.5h-110z " />
<glyph unicode="&#x153;" d="M-872 1479v12q0 80 66.5 134t178.5 54q109 0 169.5 -53t60.5 -131q0 -57 -9 -82q-14 -41 -57 -74q-2 -4 -35 -32q-12 -10 -24.5 -26.5t-17.5 -45.5t-5 -51v-13h-119v99q0 18 15.5 47t34.5 51q27 16 40 46t13 61q0 35 -25.5 62.5t-56.5 27.5q-35 0 -77 -27t-42 -59h-110z " />
<glyph unicode="&#x178;" horiz-adv-x="1429" d="M33 1470h360l307 -639l291 639h348l-491 -917v-553h-307v557zM573 -106h258v-238h-258v238z" />
<glyph unicode="&#x2c6;" horiz-adv-x="602" />
<glyph unicode="&#x2dc;" d="M-819 1413q0 96 67.5 164t165.5 68q96 0 166 -68t70 -164q0 -98 -68.5 -166.5t-167.5 -68.5q-96 0 -164.5 68.5t-68.5 166.5zM-727 1413q0 -59 41 -102t100 -43q57 0 100.5 43t43.5 102t-41 100t-103 41q-59 0 -100 -41t-41 -100z" />
<glyph unicode="&#x2000;" horiz-adv-x="1202" />
<glyph unicode="&#x2001;" horiz-adv-x="2404" />
<glyph unicode="&#x2002;" horiz-adv-x="1202" />
<glyph unicode="&#x2003;" horiz-adv-x="2404" />
<glyph unicode="&#x2004;" horiz-adv-x="801" />
<glyph unicode="&#x2005;" horiz-adv-x="601" />
<glyph unicode="&#x2006;" horiz-adv-x="400" />
<glyph unicode="&#x2007;" horiz-adv-x="400" />
<glyph unicode="&#x2008;" horiz-adv-x="300" />
<glyph unicode="&#x2009;" horiz-adv-x="480" />
<glyph unicode="&#x200a;" horiz-adv-x="133" />
<glyph unicode="&#x2010;" horiz-adv-x="716" d="M57 442v267h570v-267h-570z" />
<glyph unicode="&#x2011;" horiz-adv-x="716" d="M57 442v267h570v-267h-570z" />
<glyph unicode="&#x2012;" horiz-adv-x="716" d="M57 442v267h570v-267h-570z" />
<glyph unicode="&#x2013;" horiz-adv-x="1175" d="M0 467v217h1139v-217h-1139z" />
<glyph unicode="&#x2014;" horiz-adv-x="2121" d="M0 467v217h2048v-217h-2048z" />
<glyph unicode="&#x2018;" horiz-adv-x="602" d="M143 930v209q0 172 97 264q66 63 182 88v-107q-92 -29 -127 -81q-25 -39 -25 -111h160v-262h-287z" />
<glyph unicode="&#x2019;" horiz-adv-x="602" d="M143 1212v258h287v-208q0 -172 -96 -263q-66 -61 -187 -86v103q92 31 127 86q25 39 25 110h-156z" />
<glyph unicode="&#x201a;" horiz-adv-x="2048" d="M10 0l537 1470h1392v-260h-759v-309h684v-260h-684v-381h774v-260h-1075v313h-441l-106 -313h-322zM518 555h361v655h-134z" />
<glyph unicode="&#x201c;" horiz-adv-x="1060" d="M131 930v209q0 172 96 264q66 63 187 88v-107q-92 -29 -127 -81q-25 -39 -25 -111h156v-262h-287zM606 930v209q0 172 96 264q66 63 187 88v-107q-92 -29 -127 -81q-25 -39 -25 -111h156v-262h-287z" />
<glyph unicode="&#x201d;" horiz-adv-x="1060" d="M131 1212v258h287v-208q0 -172 -96 -263q-66 -61 -183 -86v103q92 31 127 86q25 39 25 110h-160zM606 1212v258h287v-208q0 -172 -96 -263q-66 -61 -183 -86v103q92 31 127 86q25 39 25 110h-160z" />
<glyph unicode="&#x201e;" horiz-adv-x="1820" d="M59 305q0 115 58 191q72 94 219 120l268 46q98 16 123 34.5t25 71.5q0 66 -49.5 93.5t-151.5 27.5q-80 0 -126 -37t-46 -117h-281q0 217 162 312q123 72 330 71q115 0 213 -43q70 -31 123 -78q72 55 118 78q90 43 201 43q205 0 336 -112q176 -152 176 -488v-51h-747 q14 -143 75.5 -204.5t180.5 -61.5q63 0 115.5 30.5t68.5 87.5h295q-53 -182 -197 -272q-121 -76 -282 -76q-178 0 -281 58q-59 33 -127 118q-51 -82 -162.5 -129t-249.5 -47q-207 0 -305 101q-82 84 -82 233zM346 303q0 -61 43 -94t119 -33q88 0 162.5 61.5t74.5 147.5v137 q-23 -20 -62.5 -32.5t-144 -28t-141.5 -39.5q-51 -35 -51 -119zM1018 653h444q-10 121 -82 181q-57 49 -139 49q-100 0 -155.5 -59.5t-67.5 -170.5z" />
<glyph unicode="&#x2022;" horiz-adv-x="602" />
<glyph unicode="&#x2026;" horiz-adv-x="1130" d="M12 0v238h258v-238h-258zM414 0v238h258v-238h-258zM815 0v238h258v-238h-258zM815 0v238h258v-238h-258z" />
<glyph unicode="&#x202f;" horiz-adv-x="480" />
<glyph unicode="&#x2039;" horiz-adv-x="737" d="M180 451v245l344 295v-237l-205 -181l205 -180v-237z" />
<glyph unicode="&#x203a;" horiz-adv-x="737" d="M180 156v237l205 180l-205 181v237l344 -295v-245z" />
<glyph unicode="&#x205f;" horiz-adv-x="601" />
<glyph unicode="&#x2122;" horiz-adv-x="2048" d="M90 1296v174h698v-174h-235v-669h-229v669h-234zM948 627v843h314l192 -512l191 512h313v-843h-217v575l-205 -575h-166l-201 575l-4 -575h-217z" />
<glyph unicode="&#xe000;" horiz-adv-x="1085" d="M0 0v1085h1085v-1085h-1085z" />
</font>
</defs>
</svg>
