<?xml version="1.0" standalone="no"?>
<!DOCTYPE svg PUBLIC "-//W3C//DTD SVG 1.1//EN" "http://www.w3.org/Graphics/SVG/1.1/DTD/svg11.dtd" >
<svg xmlns="http://www.w3.org/2000/svg">
<metadata>
This is a custom SVG webfont generated by Font Squirrel.
Copyright   : This typeface is for exclusive use by Mazda only The typeface may only be used in projects relating to Mazda Copyright Mazda Motor Corporation All rights reserved
Designer    : DaltonMaag Ltd
Foundry     : DaltonMaag Ltd
Foundry URL : httpwwwdaltonmaagcom
</metadata>
<defs>
<font id="MazdaBold" horiz-adv-x="998" >
<font-face units-per-em="1000" ascent="750" descent="-250" />
<missing-glyph horiz-adv-x="400" />
<glyph unicode=" "  horiz-adv-x="400" />
<glyph unicode="&#x09;" horiz-adv-x="400" />
<glyph unicode="&#xa0;" horiz-adv-x="400" />
<glyph unicode="!" horiz-adv-x="404" d="M297 701h221l-291 -466h-190zM-9 180h226l-104 -180h-225z" />
<glyph unicode="&#x22;" horiz-adv-x="566" d="M261 701h177l-173 -276h-162zM536 701h177l-173 -276h-162z" />
<glyph unicode="#" horiz-adv-x="944" d="M81 139h-149l85 142h146l81 141h-163l85 142h160l79 137h191l-79 -137h152l79 137h191l-79 -137h149l-84 -142h-147l-81 -141h172l-83 -142h-171l-80 -139h-191l80 139h-152l-80 -139h-191zM506 281l81 141h-152l-81 -141h152z" />
<glyph unicode="$" horiz-adv-x="927" d="M-36 147h497q34 0 56 10t39 39q14 22 14 35q0 24 -49 31l-247 34q-78 11 -121.5 42.5t-43.5 82.5q0 44 35 98l26 42q24 38 54.5 64.5t70 43.5t90 24.5t115.5 7.5h70l77 120h173l-76 -120h273l-92 -147h-438q-29 0 -49.5 -2.5t-35 -8.5t-24.5 -14.5t-17 -20.5 q-12 -18 -12 -31q0 -27 55 -34l272 -39q62 -9 98 -37t36 -76q0 -23 -8.5 -48.5t-27.5 -56.5l-31 -50q-23 -37 -53.5 -63t-73 -42t-101 -23.5t-137.5 -7.5h-36l-74 -118h-174l75 118h-297z" />
<glyph unicode="%" horiz-adv-x="1117" d="M352 504q10 0 17.5 1t13.5 5t11 10.5t12 17.5l21 32q13 21 13 32q0 16 -27 16h-60q-20 0 -30 -6.5t-23 -27.5l-21 -32q-13 -21 -13 -32q0 -16 27 -16h59zM187 614q19 31 36.5 51t38.5 31.5t48 15.5t66 4h110q51 0 78.5 -18t27.5 -51q0 -31 -27 -76l-33 -55 q-20 -34 -38.5 -55.5t-39.5 -33.5t-48.5 -16.5t-65.5 -4.5h-110q-54 0 -80 18t-26 50q0 35 30 85zM760 98q10 0 17.5 1t13.5 5t11 10.5t12 17.5l21 32q13 21 13 32q0 16 -27 16h-60q-20 0 -30 -6.5t-23 -27.5l-21 -32q-13 -21 -13 -32q0 -16 27 -16h59zM595 208 q19 31 36.5 51t38.5 31.5t48 15.5t66 4h110q51 0 78.5 -18t27.5 -51q0 -31 -27 -76l-33 -55q-20 -34 -38.5 -55.5t-39.5 -33.5t-48.5 -16.5t-65.5 -4.5h-110q-54 0 -80 18t-26 50q0 35 30 85zM824 701h207l-766 -701h-207z" />
<glyph unicode="&#x26;" horiz-adv-x="838" d="M6 306q28 47 61.5 74t86.5 40q-10 26 -10 57q0 20 4.5 39t15.5 37l17 30q31 54 97.5 86t175.5 32h135q100 0 144.5 -38.5t44.5 -99.5q0 -35 -12 -72l-190 1q3 7 3 16q0 18 -15.5 32t-47.5 14h-86q-24 0 -39.5 -9t-26.5 -26l-7 -12q-10 -16 -10 -31q0 -29 48 -67l135 -109 l37 57h200l-90 -154l-9 -14l63 -50l-86 -139l-86 65q-46 -32 -112.5 -48.5t-167.5 -16.5h-141q-45 0 -83 9t-65 26t-42.5 42t-15.5 57q0 21 7 45t23 51zM316 147q38 0 65 5t47 15l-166 128q-32 -5 -47 -15t-26 -29l-22 -39q-10 -19 -10 -31q0 -20 18.5 -27t42.5 -7h98z" />
<glyph unicode="'" horiz-adv-x="291" d="M261 701h177l-173 -276h-162z" />
<glyph unicode="(" horiz-adv-x="636" d="M218 -151q-106 0 -160.5 40.5t-54.5 112.5q0 38 16 84.5t49 100.5l267 435q38 61 71 102.5t70 67t82.5 36t109.5 10.5h137l-90 -147h-28q-29 0 -50 -5.5t-40 -20.5t-38.5 -42t-46.5 -70l-255 -417q-17 -26 -24 -47t-7 -38q0 -29 21.5 -43.5t58.5 -14.5h66l-86 -144h-68z " />
<glyph unicode=")" horiz-adv-x="636" d="M-90 -4h28q29 0 50 5t39.5 20t38.5 42t47 71l255 417q17 26 24 47t7 38q0 29 -21.5 43.5t-58.5 14.5h-66l86 144h68q106 0 160.5 -40.5t54.5 -112.5q0 -38 -16 -84.5t-49 -100.5l-267 -435q-38 -62 -71 -103t-70 -66.5t-82.5 -36t-109.5 -10.5h-137z" />
<glyph unicode="*" horiz-adv-x="504" d="M262 513h-100l45 84h90l-36 77l93 30l27 -80l91 90l65 -54l-74 -63h103l-46 -84h-94l37 -81l-93 -29l-29 82l-84 -83l-63 55z" />
<glyph unicode="+" horiz-adv-x="655" d="M187 283h-170l91 146h157l78 144h188l-78 -144h184l-90 -146h-174l-79 -147h-186z" />
<glyph unicode="," horiz-adv-x="380" d="M-25 0h-98l110 190h226l-97 -167q-29 -51 -65 -101.5t-68 -88.5h-108z" />
<glyph unicode="-" horiz-adv-x="589" d="M131 434h429l-95 -156h-430z" />
<glyph unicode="." horiz-adv-x="380" d="M-13 190h226l-111 -190h-225z" />
<glyph unicode="/" horiz-adv-x="645" d="M581 697h238l-763 -697h-241z" />
<glyph unicode="0" horiz-adv-x="970" d="M443 147q46 0 76.5 5t54 18t42.5 36t41 59l79 128q21 35 32.5 61.5t11.5 46.5q0 27 -22.5 40t-70.5 13h-162q-44 0 -74 -4t-53.5 -17t-43.5 -36t-43 -61l-79 -128q-43 -70 -43 -108q0 -53 89 -53h165zM105 472q42 69 81.5 113.5t84.5 70t100.5 35.5t131.5 10h291 q49 0 89.5 -9t69.5 -27.5t45 -47t16 -66.5q0 -35 -15 -79.5t-48 -98.5l-88 -144q-42 -69 -80.5 -113.5t-83 -70t-101 -35.5t-134.5 -10h-290q-102 0 -160.5 38.5t-58.5 113.5q0 74 62 176z" />
<glyph unicode="1" horiz-adv-x="598" d="M415 528l-353 -99l102 176l350 96h226l-405 -701h-224z" />
<glyph unicode="2" horiz-adv-x="913" d="M-58 147q24 44 51.5 76.5t63 57t81.5 42t108 31.5l321 68q25 5 42.5 11.5t29.5 14.5t20.5 17.5t15.5 20.5l8 14q12 20 2.5 37t-49.5 17h-169q-27 0 -45 -2t-31 -7.5t-23 -15.5t-21 -26l-25 -40h-224l25 42q31 52 66 89.5t77 61t93 34.5t116 11h247q103 0 152.5 -35.5 t49.5 -95.5q0 -26 -9 -55t-28 -61l-18 -31q-18 -31 -38.5 -54t-45.5 -40t-56 -28.5t-69 -19.5l-346 -74q-30 -6 -50.5 -10.5t-34.5 -9t-22.5 -11t-13.5 -16.5l-7 -13h578l-90 -147h-812z" />
<glyph unicode="3" horiz-adv-x="841" d="M-76 147h399q36 0 61 2t42.5 8t29 17.5t22.5 30.5l12 21q11 19 11 30q0 27 -56 27h-316l85 147h280q28 0 48.5 2t35.5 8t26 16.5t20 27.5l12 22q14 24 5.5 36t-34.5 12h-452l85 147h475q91 0 134 -28t43 -76q0 -42 -30 -91l-29 -48q-12 -20 -26 -39.5t-32.5 -36 t-41.5 -28t-53 -15.5q46 -20 46 -67q0 -32 -20 -68l-36 -67q-23 -42 -52 -69t-69.5 -42t-95 -20.5t-127.5 -5.5h-488z" />
<glyph unicode="4" horiz-adv-x="967" d="M-22 222l580 479h255l-513 -428h240l106 183h225l-106 -183h111l-82 -141h-111l-76 -132h-224l76 132h-534z" />
<glyph unicode="5" horiz-adv-x="877" d="M-58 147h445q31 0 53.5 3.5t38.5 11t27.5 19t20.5 27.5l25 43q10 18 10 30q0 28 -48 28h-165q-39 0 -67 -8t-51 -27h-212l246 427h729l-91 -147h-498l-71 -123q9 6 21 11t28.5 8t40 5t55.5 2h156q88 0 130 -31t42 -83q0 -49 -36 -110l-34 -58q-31 -53 -60 -87 t-67.5 -53.5t-92 -27t-134.5 -7.5h-525z" />
<glyph unicode="6" horiz-adv-x="888" d="M113 471q41 72 79.5 116.5t84 70t103 34.5t136.5 9h460l-94 -147h-317q-55 0 -89.5 -3t-58.5 -13.5t-42 -30.5t-39 -53l-17 -28q9 6 21 11t29 8t40.5 5t55.5 2h163q58 0 96.5 -10.5t61 -28.5t32 -41t9.5 -48q0 -30 -10 -59t-23 -52l-37 -64q-26 -44 -54.5 -72.5 t-67 -45.5t-91 -24t-125.5 -7h-259q-105 0 -154.5 35.5t-49.5 98.5q0 66 53 155zM423 147q32 0 53.5 2t36.5 8t25.5 16.5t20.5 27.5l19 32q8 14 12.5 25t4.5 20q0 13 -10.5 20t-36.5 7h-197q-29 0 -48.5 -2.5t-34 -9t-25 -18t-20.5 -28.5l-18 -31q-11 -20 -11 -32 q0 -37 78 -37h151z" />
<glyph unicode="7" horiz-adv-x="758" d="M560 554h-433l85 147h725l-51 -87l-716 -614h-255z" />
<glyph unicode="8" horiz-adv-x="902" d="M566 430q57 0 86 11.5t47 44.5l11 20q5 10 6.5 18.5t-4.5 15t-21 10.5t-42 4h-180q-45 0 -67.5 -9.5t-35.5 -31.5l-13 -22q-10 -18 -10 -28q0 -33 71 -33h152zM406 147q34 0 57.5 3t39.5 9.5t26.5 17t19.5 26.5l12 21q11 19 11 32q0 27 -53 27h-235q-40 0 -59 -14.5 t-32 -36.5l-11 -19q-13 -23 -13 -35q0 -16 18 -23.5t60 -7.5h159zM-12 268q23 42 63.5 72.5t111.5 38.5q-22 11 -31.5 31.5t-9.5 45.5q0 43 25 84l30 49q34 56 104.5 84t182.5 28h292q53 0 90.5 -8.5t61 -24t34.5 -36.5t11 -46q0 -35 -22 -79l-29 -57q-20 -40 -54.5 -65.5 t-89.5 -34.5q41 -24 41 -72q0 -18 -6.5 -39t-20.5 -44l-31 -59q-22 -37 -47.5 -63t-64.5 -42t-96.5 -23.5t-143.5 -7.5h-246q-57 0 -96.5 10.5t-63.5 28t-35 41t-11 50.5q0 24 8 49.5t22 50.5z" />
<glyph unicode="9" horiz-adv-x="888" d="M6 146h317q55 0 89.5 3t58.5 13.5t42 30.5t39 53l17 28q-9 -6 -21 -11t-29 -8t-40.5 -5t-55.5 -2h-163q-58 0 -96.5 10.5t-61 28.5t-32 41t-9.5 48q0 30 10 59t23 52l37 64q25 44 54 72.5t67.5 45.5t91 24t125.5 7h259q105 0 154.5 -35.5t49.5 -98.5q0 -66 -53 -155 l-104 -182q-41 -72 -79.5 -116.5t-84 -70t-103 -34.5t-136.5 -9h-460zM537 395q28 0 48 2.5t34.5 9t25 18t20.5 28.5l18 31q11 20 11 32q0 37 -78 37h-151q-32 0 -53.5 -2.5t-36.5 -8.5t-25.5 -16.5t-20.5 -26.5l-19 -32q-8 -14 -12.5 -25t-4.5 -20q0 -13 10.5 -20t36.5 -7 h197z" />
<glyph unicode=":" horiz-adv-x="380" d="M-13 190h226l-111 -190h-225zM198 570h226l-111 -190h-225z" />
<glyph unicode=";" horiz-adv-x="380" d="M-25 0h-98l110 190h226l-97 -167q-29 -51 -65 -101.5t-68 -88.5h-108zM198 570h226l-111 -190h-225z" />
<glyph unicode="&#x3c;" horiz-adv-x="702" d="M133 446l589 183l-104 -179l-385 -111l293 -120l-84 -139l-414 190z" />
<glyph unicode="=" horiz-adv-x="689" d="M47 301h549l-82 -126h-550zM177 529h549l-82 -126h-550z" />
<glyph unicode="&#x3e;" horiz-adv-x="702" d="M84 259l385 111l-293 120l84 139l414 -190l-105 -176l-589 -183z" />
<glyph unicode="?" horiz-adv-x="866" d="M258 289q18 30 37.5 52t42 37t49.5 24t60 15l129 22q25 4 43 7.5t31 8.5t22 12.5t16 18.5l8 14q12 20 2.5 37t-49.5 17h-180q-27 0 -45 -1.5t-31.5 -7t-23.5 -15.5t-20 -27l-15 -26h-224l29 54q24 44 53.5 76t68 53t86.5 31t109 10h268q109 0 158.5 -35.5t49.5 -91.5 q0 -46 -31 -100l-18 -31q-15 -25 -30 -44t-36 -33t-50.5 -24t-73.5 -17l-145 -22q-32 -5 -48.5 -13t-28.5 -25l-21 -30h-224zM208 180h226l-104 -180h-225z" />
<glyph unicode="@" horiz-adv-x="973" d="M123 478q40 68 76.5 111.5t81 68t102 34t140.5 9.5h331q183 0 183 -105q0 -55 -48 -134l-160 -269h-374q-58 0 -93.5 26t-35.5 71q0 32 21 73l19 36q28 52 72.5 73.5t122.5 21.5h193q32 0 50.5 9.5t27.5 26.5q12 23 2 33t-42 10h-280q-44 0 -76 -6t-57.5 -20t-46 -36.5 t-41.5 -56.5l-91 -150q-40 -65 -40 -105q0 -35 30 -53t97 -18h519l-77 -128h-546q-60 0 -101 10t-67 28.5t-37.5 44t-11.5 55.5q0 40 17 86.5t46 94.5zM700 302l69 112q-16 -11 -37 -16t-58 -5h-89q-43 0 -60 -32l-8 -15q-14 -26 -0.5 -35t50.5 -9h133z" />
<glyph unicode="A" horiz-adv-x="1036" d="M650 701h137l52 -701h-215l-7 134h-306q-46 0 -78.5 -8.5t-60.5 -31.5l-113 -94h-256zM609 261l-10 192l-256 -219q23 17 63.5 22t82.5 5h120z" />
<glyph unicode="B" horiz-adv-x="971" d="M262 701h583q84 0 131 -26.5t47 -77.5q0 -39 -31 -91l-29 -48q-21 -37 -57 -63t-94 -32q36 -9 56.5 -31.5t20.5 -57.5q0 -20 -7 -43t-23 -49l-30 -50q-20 -34 -47.5 -58.5t-66.5 -41t-92.5 -24.5t-125.5 -8h-639zM525 147q43 0 71.5 10t46.5 40l9 15q21 36 21 54 q0 27 -51 27h-267q-33 0 -55.5 -4t-39 -13.5t-29.5 -24.5t-25 -36l-39 -68h358zM655 440q41 0 63 10.5t36 33.5l12 22q14 23 5.5 35.5t-34.5 12.5h-335l-81 -140q9 6 21 11t28.5 8t40 5t55.5 2h189z" />
<glyph unicode="C" horiz-adv-x="849" d="M106 472q41 67 79 111.5t83 70.5t101.5 36.5t134.5 10.5h492l-85 -147h-385q-45 0 -76 -5t-54.5 -18t-42.5 -36t-41 -59l-79 -128q-20 -34 -32 -61t-12 -47q0 -26 21.5 -39.5t71.5 -13.5h423l-85 -147h-445q-99 0 -159.5 37.5t-60.5 113.5q0 74 63 177z" />
<glyph unicode="D" horiz-adv-x="1010" d="M262 701h440q88 0 149 -14.5t99 -40t55.5 -60.5t17.5 -76q0 -45 -17.5 -94t-49.5 -100l-35 -57q-47 -77 -95 -127t-113.5 -79.5t-155.5 -41t-222 -11.5h-477zM403 147q105 0 182.5 33t130.5 119l17 27q29 47 42 82t13 61q0 47 -39 66t-108 19h-239l-235 -407h236z" />
<glyph unicode="E" horiz-adv-x="867" d="M262 701h747l-85 -147h-522l-80 -138q10 6 21.5 11t28.5 8t40 5t55 2h327l-85 -147h-353q-33 0 -55.5 -4t-39 -13.5t-29.5 -24.5t-25 -36l-40 -70h566l-85 -147h-790z" />
<glyph unicode="F" horiz-adv-x="819" d="M262 701h717l-85 -147h-492l-96 -166q9 6 21 11t28.5 8t40 5t55.5 2h297l-85 -147h-323q-33 0 -55.5 -4t-39 -13.5t-29.5 -24.5t-25 -36l-109 -189h-224z" />
<glyph unicode="G" horiz-adv-x="994" d="M106 472q41 67 79 111.5t83 70.5t101.5 36.5t134.5 10.5h559l-85 -147h-452q-45 0 -76 -5t-54.5 -18t-42.5 -36t-41 -59l-79 -128q-20 -34 -32 -61t-12 -47q0 -26 21.5 -39.5t71.5 -13.5h178q46 0 76.5 4.5t53.5 17.5t42 36t41 59l11 18h-266l80 137h488l-111 -190 q-39 -66 -76.5 -110.5t-83 -70.5t-103 -37t-135.5 -11h-302q-99 0 -159.5 37.5t-60.5 113.5q0 74 63 177z" />
<glyph unicode="H" horiz-adv-x="964" d="M262 701h225l-157 -271h394l157 271h225l-405 -701h-224l163 283h-394l-164 -283h-224z" />
<glyph unicode="I" horiz-adv-x="345" d="M262 701h225l-405 -701h-224z" />
<glyph unicode="J" horiz-adv-x="810" d="M47 337h212l-59 -95q-31 -50 -31 -70q0 -25 51 -25h91q50 0 81 22t63 75l272 457h225l-275 -462q-36 -61 -67.5 -106t-71 -74.5t-93 -44t-133.5 -14.5h-223q-66 0 -106.5 29t-40.5 85q0 28 11.5 61.5t37.5 73.5z" />
<glyph unicode="K" horiz-adv-x="969" d="M262 701h225l-165 -286l486 286h302l-550 -319l262 -382h-243l-189 283l-217 -125l-91 -158h-224z" />
<glyph unicode="L" horiz-adv-x="826" d="M262 701h225l-320 -554h512l-85 -147h-736z" />
<glyph unicode="M" horiz-adv-x="1235" d="M262 701h205l62 -486l594 486h254l-405 -701h-225l228 394l-469 -394h-148l-54 394l-229 -394h-217z" />
<glyph unicode="N" horiz-adv-x="993" d="M262 701h167l231 -449l260 449h215l-405 -701h-164l-232 449l-261 -449h-215z" />
<glyph unicode="O" d="M106 472q41 67 79 111.5t83 70.5t101.5 36.5t134.5 10.5h318q49 0 89.5 -9.5t69.5 -28.5t45 -47.5t16 -66.5q0 -36 -15 -79.5t-48 -96.5l-88 -144q-41 -68 -79 -112t-82.5 -70t-101.5 -36.5t-135 -10.5h-318q-99 0 -159.5 37.5t-60.5 113.5q0 74 63 177zM471 147 q46 0 76.5 5t54 18t42.5 36t41 59l79 128q20 33 32 60.5t12 47.5q0 26 -21.5 39.5t-71.5 13.5h-189q-45 0 -76 -5t-54.5 -18t-42.5 -36t-41 -59l-79 -128q-20 -34 -32 -61t-12 -47q0 -26 21.5 -39.5t71.5 -13.5h189z" />
<glyph unicode="P" horiz-adv-x="920" d="M508 336q34 0 58.5 1.5t43 8.5t33 20.5t28.5 36.5l37 61q20 35 20 56q0 34 -44 34h-282l-141 -244q9 6 21 11t28.5 8t40 5t55.5 2h102zM262 701h486q113 0 165 -35.5t52 -95.5q0 -57 -44 -130l-55 -92q-24 -41 -53.5 -71t-71 -49.5t-97 -29t-130.5 -9.5h-219 q-33 0 -55.5 -4t-39 -13.5t-29.5 -24.5t-25 -36l-64 -111h-224z" />
<glyph unicode="Q" d="M18 -49h53q52 0 79 11.5t46 37.5h-21q-99 0 -159.5 37.5t-60.5 113.5q0 74 63 177l88 144q41 67 79 111.5t83 70.5t101.5 36.5t134.5 10.5h318q49 0 89.5 -9.5t69.5 -28.5t45 -47.5t16 -66.5q0 -36 -15 -79.5t-48 -96.5l-88 -144q-41 -68 -79 -112t-82.5 -70 t-101.5 -36.5t-135 -10.5h-86l-3 -6q-33 -57 -66 -92.5t-74.5 -55.5t-97.5 -27.5t-135 -7.5h-98zM286 147l35 56h206l-33 -56q39 1 65.5 7t47.5 19.5t39 35.5t39 56l79 128q20 33 32 60.5t12 47.5q0 26 -21.5 39.5t-71.5 13.5h-189q-45 0 -76 -5t-54.5 -18t-42.5 -36 t-41 -59l-79 -128q-20 -34 -32 -61t-12 -47q0 -26 21.5 -39.5t71.5 -13.5h4z" />
<glyph unicode="R" horiz-adv-x="920" d="M262 701h475q109 0 168.5 -34t59.5 -101q0 -56 -44 -131l-37 -64q-20 -33 -42.5 -58.5t-52 -44t-66.5 -31.5t-86 -20l109 -217h-228l-104 209h-107q-33 0 -55.5 -4t-39 -13.5t-29.5 -24.5t-25 -36l-76 -131h-224zM522 356q34 0 58.5 1.5t43 8.5t33 20.5t28.5 36.5l23 39 q11 18 17 33t6 27q0 15 -12 23.5t-41 8.5h-276l-129 -224q9 6 21 11t28.5 8t40 5t55.5 2h104z" />
<glyph unicode="S" horiz-adv-x="865" d="M-62 147h497q34 0 56 10t39 39q14 22 14 35q0 24 -49 31l-247 34q-78 11 -121.5 42.5t-43.5 82.5q0 44 35 98l26 42q24 38 54.5 64.5t70 43.5t90 24.5t115.5 7.5h517l-92 -147h-438q-29 0 -49.5 -2.5t-35 -8.5t-24.5 -14.5t-17 -20.5q-12 -18 -12 -31q0 -27 55 -34 l272 -39q62 -9 98 -37t36 -76q0 -23 -8.5 -48.5t-27.5 -56.5l-31 -50q-23 -37 -53.5 -63t-73 -42t-101 -23.5t-137.5 -7.5h-506z" />
<glyph unicode="T" horiz-adv-x="899" d="M454 554h-327l85 147h879l-85 -147h-327l-320 -554h-225z" />
<glyph unicode="U" horiz-adv-x="916" d="M242 701h225l-232 -393q-21 -35 -33 -62.5t-12 -47.5q0 -25 21 -38t70 -13h105q46 0 77 5t54 18.5t42.5 36.5t41.5 60l260 434h225l-283 -472q-41 -68 -79.5 -112.5t-84 -70.5t-103 -36t-135.5 -10h-230q-99 0 -157 37t-58 111q0 35 14 76.5t43 92.5z" />
<glyph unicode="V" horiz-adv-x="969" d="M197 701h205l-1 -455l508 455h257l-798 -701h-168z" />
<glyph unicode="W" horiz-adv-x="1302" d="M209 701h212l-83 -427l413 427h173l-64 -427l397 427h240l-675 -701h-195l67 426l-421 -426h-193z" />
<glyph unicode="X" horiz-adv-x="961" d="M361 371l-177 330h225l119 -220l339 220h297l-561 -360l185 -341h-227l-125 232l-354 -232h-294z" />
<glyph unicode="Y" horiz-adv-x="995" d="M323 270l-121 431h212l82 -297l431 297h270l-661 -452l-144 -249h-225z" />
<glyph unicode="Z" horiz-adv-x="910" d="M-113 88l727 466h-477l85 147h825l-51 -88l-727 -466h513l-85 -147h-860z" />
<glyph unicode="[" horiz-adv-x="636" d="M462 838h346l-84 -144h-122l-419 -701h161l-84 -144h-388z" />
<glyph unicode="\" horiz-adv-x="786" d="M208 701h199l186 -701h-199z" />
<glyph unicode="]" horiz-adv-x="636" d="M-97 -7h122l419 701h-161l84 144h388l-590 -989h-346z" />
<glyph unicode="^" horiz-adv-x="690" d="M93 419l278 62l285 -77l-76 -119l-248 69l-318 -73z" />
<glyph unicode="_" horiz-adv-x="823" d="M-141 -16h729l-95 -156h-730z" />
<glyph unicode="`" horiz-adv-x="458" d="M89 946l340 -105l-66 -104l-343 100z" />
<glyph unicode="a" horiz-adv-x="1036" d="M650 701h137l52 -701h-215l-7 134h-306q-46 0 -78.5 -8.5t-60.5 -31.5l-113 -94h-256zM609 261l-10 192l-256 -219q23 17 63.5 22t82.5 5h120z" />
<glyph unicode="b" horiz-adv-x="971" d="M262 701h583q84 0 131 -26.5t47 -77.5q0 -39 -31 -91l-29 -48q-21 -37 -57 -63t-94 -32q36 -9 56.5 -31.5t20.5 -57.5q0 -20 -7 -43t-23 -49l-30 -50q-20 -34 -47.5 -58.5t-66.5 -41t-92.5 -24.5t-125.5 -8h-639zM525 147q43 0 71.5 10t46.5 40l9 15q21 36 21 54 q0 27 -51 27h-267q-33 0 -55.5 -4t-39 -13.5t-29.5 -24.5t-25 -36l-39 -68h358zM655 440q41 0 63 10.5t36 33.5l12 22q14 23 5.5 35.5t-34.5 12.5h-335l-81 -140q9 6 21 11t28.5 8t40 5t55.5 2h189z" />
<glyph unicode="c" horiz-adv-x="849" d="M106 472q41 67 79 111.5t83 70.5t101.5 36.5t134.5 10.5h492l-85 -147h-385q-45 0 -76 -5t-54.5 -18t-42.5 -36t-41 -59l-79 -128q-20 -34 -32 -61t-12 -47q0 -26 21.5 -39.5t71.5 -13.5h423l-85 -147h-445q-99 0 -159.5 37.5t-60.5 113.5q0 74 63 177z" />
<glyph unicode="d" horiz-adv-x="1010" d="M262 701h440q88 0 149 -14.5t99 -40t55.5 -60.5t17.5 -76q0 -45 -17.5 -94t-49.5 -100l-35 -57q-47 -77 -95 -127t-113.5 -79.5t-155.5 -41t-222 -11.5h-477zM403 147q105 0 182.5 33t130.5 119l17 27q29 47 42 82t13 61q0 47 -39 66t-108 19h-239l-235 -407h236z" />
<glyph unicode="e" horiz-adv-x="867" d="M262 701h747l-85 -147h-522l-80 -138q10 6 21.5 11t28.5 8t40 5t55 2h327l-85 -147h-353q-33 0 -55.5 -4t-39 -13.5t-29.5 -24.5t-25 -36l-40 -70h566l-85 -147h-790z" />
<glyph unicode="f" horiz-adv-x="819" d="M262 701h717l-85 -147h-492l-96 -166q9 6 21 11t28.5 8t40 5t55.5 2h297l-85 -147h-323q-33 0 -55.5 -4t-39 -13.5t-29.5 -24.5t-25 -36l-109 -189h-224z" />
<glyph unicode="g" horiz-adv-x="994" d="M106 472q41 67 79 111.5t83 70.5t101.5 36.5t134.5 10.5h559l-85 -147h-452q-45 0 -76 -5t-54.5 -18t-42.5 -36t-41 -59l-79 -128q-20 -34 -32 -61t-12 -47q0 -26 21.5 -39.5t71.5 -13.5h178q46 0 76.5 4.5t53.5 17.5t42 36t41 59l11 18h-266l80 137h488l-111 -190 q-39 -66 -76.5 -110.5t-83 -70.5t-103 -37t-135.5 -11h-302q-99 0 -159.5 37.5t-60.5 113.5q0 74 63 177z" />
<glyph unicode="h" horiz-adv-x="964" d="M262 701h225l-157 -271h394l157 271h225l-405 -701h-224l163 283h-394l-164 -283h-224z" />
<glyph unicode="i" horiz-adv-x="345" d="M262 701h225l-405 -701h-224z" />
<glyph unicode="j" horiz-adv-x="810" d="M47 337h212l-59 -95q-31 -50 -31 -70q0 -25 51 -25h91q50 0 81 22t63 75l272 457h225l-275 -462q-36 -61 -67.5 -106t-71 -74.5t-93 -44t-133.5 -14.5h-223q-66 0 -106.5 29t-40.5 85q0 28 11.5 61.5t37.5 73.5z" />
<glyph unicode="k" horiz-adv-x="969" d="M262 701h225l-165 -286l486 286h302l-550 -319l262 -382h-243l-189 283l-217 -125l-91 -158h-224z" />
<glyph unicode="l" horiz-adv-x="826" d="M262 701h225l-320 -554h512l-85 -147h-736z" />
<glyph unicode="m" horiz-adv-x="1235" d="M262 701h205l62 -486l594 486h254l-405 -701h-225l228 394l-469 -394h-148l-54 394l-229 -394h-217z" />
<glyph unicode="n" horiz-adv-x="993" d="M262 701h167l231 -449l260 449h215l-405 -701h-164l-232 449l-261 -449h-215z" />
<glyph unicode="o" d="M106 472q41 67 79 111.5t83 70.5t101.5 36.5t134.5 10.5h318q49 0 89.5 -9.5t69.5 -28.5t45 -47.5t16 -66.5q0 -36 -15 -79.5t-48 -96.5l-88 -144q-41 -68 -79 -112t-82.5 -70t-101.5 -36.5t-135 -10.5h-318q-99 0 -159.5 37.5t-60.5 113.5q0 74 63 177zM471 147 q46 0 76.5 5t54 18t42.5 36t41 59l79 128q20 33 32 60.5t12 47.5q0 26 -21.5 39.5t-71.5 13.5h-189q-45 0 -76 -5t-54.5 -18t-42.5 -36t-41 -59l-79 -128q-20 -34 -32 -61t-12 -47q0 -26 21.5 -39.5t71.5 -13.5h189z" />
<glyph unicode="p" horiz-adv-x="920" d="M508 336q34 0 58.5 1.5t43 8.5t33 20.5t28.5 36.5l37 61q20 35 20 56q0 34 -44 34h-282l-141 -244q9 6 21 11t28.5 8t40 5t55.5 2h102zM262 701h486q113 0 165 -35.5t52 -95.5q0 -57 -44 -130l-55 -92q-24 -41 -53.5 -71t-71 -49.5t-97 -29t-130.5 -9.5h-219 q-33 0 -55.5 -4t-39 -13.5t-29.5 -24.5t-25 -36l-64 -111h-224z" />
<glyph unicode="q" d="M18 -49h53q52 0 79 11.5t46 37.5h-21q-99 0 -159.5 37.5t-60.5 113.5q0 74 63 177l88 144q41 67 79 111.5t83 70.5t101.5 36.5t134.5 10.5h318q49 0 89.5 -9.5t69.5 -28.5t45 -47.5t16 -66.5q0 -36 -15 -79.5t-48 -96.5l-88 -144q-41 -68 -79 -112t-82.5 -70 t-101.5 -36.5t-135 -10.5h-86l-3 -6q-33 -57 -66 -92.5t-74.5 -55.5t-97.5 -27.5t-135 -7.5h-98zM286 147l35 56h206l-33 -56q39 1 65.5 7t47.5 19.5t39 35.5t39 56l79 128q20 33 32 60.5t12 47.5q0 26 -21.5 39.5t-71.5 13.5h-189q-45 0 -76 -5t-54.5 -18t-42.5 -36 t-41 -59l-79 -128q-20 -34 -32 -61t-12 -47q0 -26 21.5 -39.5t71.5 -13.5h4z" />
<glyph unicode="r" horiz-adv-x="920" d="M262 701h475q109 0 168.5 -34t59.5 -101q0 -56 -44 -131l-37 -64q-20 -33 -42.5 -58.5t-52 -44t-66.5 -31.5t-86 -20l109 -217h-228l-104 209h-107q-33 0 -55.5 -4t-39 -13.5t-29.5 -24.5t-25 -36l-76 -131h-224zM522 356q34 0 58.5 1.5t43 8.5t33 20.5t28.5 36.5l23 39 q11 18 17 33t6 27q0 15 -12 23.5t-41 8.5h-276l-129 -224q9 6 21 11t28.5 8t40 5t55.5 2h104z" />
<glyph unicode="s" horiz-adv-x="865" d="M-62 147h497q34 0 56 10t39 39q14 22 14 35q0 24 -49 31l-247 34q-78 11 -121.5 42.5t-43.5 82.5q0 44 35 98l26 42q24 38 54.5 64.5t70 43.5t90 24.5t115.5 7.5h517l-92 -147h-438q-29 0 -49.5 -2.5t-35 -8.5t-24.5 -14.5t-17 -20.5q-12 -18 -12 -31q0 -27 55 -34 l272 -39q62 -9 98 -37t36 -76q0 -23 -8.5 -48.5t-27.5 -56.5l-31 -50q-23 -37 -53.5 -63t-73 -42t-101 -23.5t-137.5 -7.5h-506z" />
<glyph unicode="t" horiz-adv-x="899" d="M454 554h-327l85 147h879l-85 -147h-327l-320 -554h-225z" />
<glyph unicode="u" horiz-adv-x="916" d="M242 701h225l-232 -393q-21 -35 -33 -62.5t-12 -47.5q0 -25 21 -38t70 -13h105q46 0 77 5t54 18.5t42.5 36.5t41.5 60l260 434h225l-283 -472q-41 -68 -79.5 -112.5t-84 -70.5t-103 -36t-135.5 -10h-230q-99 0 -157 37t-58 111q0 35 14 76.5t43 92.5z" />
<glyph unicode="v" horiz-adv-x="969" d="M197 701h205l-1 -455l508 455h257l-798 -701h-168z" />
<glyph unicode="w" horiz-adv-x="1302" d="M209 701h212l-83 -427l413 427h173l-64 -427l397 427h240l-675 -701h-195l67 426l-421 -426h-193z" />
<glyph unicode="x" horiz-adv-x="961" d="M361 371l-177 330h225l119 -220l339 220h297l-561 -360l185 -341h-227l-125 232l-354 -232h-294z" />
<glyph unicode="y" horiz-adv-x="995" d="M323 270l-121 431h212l82 -297l431 297h270l-661 -452l-144 -249h-225z" />
<glyph unicode="z" horiz-adv-x="910" d="M-113 88l727 466h-477l85 147h825l-51 -88l-727 -466h513l-85 -147h-860z" />
<glyph unicode="{" horiz-adv-x="963" d="M6 288q23 39 52.5 65.5t67.5 42.5t87.5 23t113.5 7h295q33 0 55 3t37 9t24.5 15t16.5 21q17 29 17 46q0 22 -22.5 28t-57.5 6h-471l87 147h425q53 0 101 -7t84 -24t57.5 -45t21.5 -70q0 -30 -12.5 -68t-40.5 -86l-233 -401h-537q-108 0 -171 29.5t-63 94.5q0 49 42 121z M568 147l97 162q-10 -6 -22 -11t-29 -8t-40 -5t-55 -2h-213q-46 0 -67.5 -10t-34.5 -32l-19 -31q-13 -19 -13 -34q0 -17 18.5 -23t50.5 -6h327z" />
<glyph unicode="|" horiz-adv-x="636" d="M262 900h110v-1075h-110v1075z" />
<glyph unicode="}" horiz-adv-x="1431" d="M258 701h194l-13 -30q19 8 45.5 14t64.5 6h163q60 0 98 -12.5t57 -32.5q32 23 89 34t129 11h161q99 0 159 -37.5t60 -113.5q0 -35 -14 -79t-46 -98l-214 -363h-221l220 383q19 34 30 61t11 47q0 26 -20.5 39.5t-71.5 13.5h-41q-45 0 -76 -5t-55 -18t-43 -36t-40 -59 l-248 -426h-221l220 383q19 34 30 61t11 47q0 26 -20.5 39.5t-71.5 13.5h-41q-45 0 -76 -5t-55 -18t-43 -36t-40 -59l-250 -426h-221z" />
<glyph unicode="~" horiz-adv-x="667" d="M62 351q18 30 35.5 50t36.5 32t41.5 17t51.5 5q39 0 72 -11.5t60.5 -25l48.5 -24.5t36 -11q17 0 26 6t17 19l28 47h157l-56 -92q-37 -60 -80 -81t-97 -21q-38 0 -70.5 11.5t-58.5 25t-46 25t-33 11.5q-18 0 -29 -10t-19 -27l-19 -36h-156z" />
<glyph unicode="&#xa1;" horiz-adv-x="404" d="M107 0h-221l291 466h190zM413 521h-226l104 180h225z" />
<glyph unicode="&#xa2;" horiz-adv-x="927" d="M266 40q-48 0 -88 10t-68.5 28.5t-44 46.5t-15.5 66q0 36 15.5 80t48.5 97l40 64q42 67 80 111t83 70.5t101 37t134 10.5h55l102 160h173l-101 -160h173l-85 -147h-295q-45 0 -75.5 -5t-54 -18.5t-42.5 -36t-42 -58.5l-31 -48q-21 -33 -33 -60t-12 -47q0 -26 21.5 -40 t72.5 -14h333l-85 -147h-186l-100 -158h-174z" />
<glyph unicode="&#xa3;" horiz-adv-x="927" d="M21 147h99l82 142h-119l71 124h119l34 58q41 71 80.5 116t85.5 70.5t103 34.5t134 9h210l-90 -147h-82q-48 0 -82 -2.5t-61.5 -15t-51.5 -38.5t-51 -74l-7 -11h240l-73 -124h-238l-82 -142h397l-85 -147h-719z" />
<glyph unicode="&#xa4;" horiz-adv-x="580" d="M102 231q-11 23 -20.5 54t-9.5 61q0 65 34 117l-63 63l70 70l63 -62q24 14 54 23.5t60 9.5q31 0 60.5 -9.5t54.5 -23.5l63 62l69 -71l-62 -63q15 -26 24 -55t9 -61q0 -30 -9 -60.5t-22 -53.5l60 -61l-69 -69l-61 59q-25 -18 -55 -26.5t-62 -8.5q-69 0 -118 34l-59 -58 l-70 69zM201 259q16 -16 37.5 -26t49.5 -10q27 0 49.5 10t38.5 26.5t25 39t9 47.5t-8.5 47.5t-24.5 39.5t-38 27t-50 10t-50 -10t-37.5 -27t-23.5 -39.5t-8 -47.5q0 -51 31 -87z" />
<glyph unicode="&#xa5;" horiz-adv-x="927" d="M248 195h-187l83 126h133l-106 380h212l82 -297l431 297h270l-556 -380h153l-82 -126h-207l-113 -195h-225z" />
<glyph unicode="&#xa6;" horiz-adv-x="636" d="M262 250h110v-425h-110v425zM262 900h110v-425h-110v425z" />
<glyph unicode="&#xa7;" horiz-adv-x="865" d="M717 136q-32 -50 -75 -79q1 -3 1 -10q0 -23 -8.5 -48.5t-27.5 -56.5l-31 -50q-23 -37 -53.5 -63t-73 -42t-101 -23.5t-137.5 -7.5h-506l92 147h497q34 0 56 10t39 39q14 22 14 35q0 24 -49 31l-247 34q-78 11 -121.5 42.5t-43.5 82.5q0 44 35 98l26 42q33 54 82 85 q-1 5 -1.5 9.5t-0.5 9.5q0 44 35 98l26 42q24 38 54.5 64.5t70 43.5t90 24.5t115.5 7.5h517l-92 -147h-438q-29 0 -49.5 -2.5t-35 -8.5t-24.5 -14.5t-17 -20.5q-12 -18 -12 -31q0 -27 55 -34l272 -39q62 -9 98 -37t36 -76q0 -23 -8.5 -48.5t-27.5 -56.5zM233 298 q-25 -11 -39 -34q-12 -18 -12 -31q0 -27 55 -34l261 -38q17 12 32 35q14 22 14 35q0 24 -49 31z" />
<glyph unicode="&#xa8;" horiz-adv-x="515" d="M95 900h163l-81 -142h-164zM341 900h163l-81 -142h-164z" />
<glyph unicode="&#xa9;" horiz-adv-x="977" d="M341 408q20 33 37.5 53t38 31.5t46.5 15t63 3.5h196l-61 -93h-120q-16 0 -27.5 -1.5t-21 -6.5t-18 -13.5t-17.5 -22.5l-20 -31q-6 -9 -11 -19.5t-5 -18.5q0 -9 8 -15t31 -6h141l-57 -89h-183q-48 0 -67.5 18.5t-19.5 47.5q0 19 7.5 40t19.5 41zM463 85q50 0 87 4.5t68 21 t59.5 47.5t61.5 84l107 173q53 86 53 129q0 42 -34 57.5t-98 15.5h-254q-49 0 -86.5 -5.5t-69 -22.5t-60 -47.5t-59.5 -81.5l-107 -173q-53 -86 -53 -129q0 -42 34 -57.5t98 -15.5h253zM133 471q42 69 79.5 114t80.5 71q45 27 98 36t134 9h296q188 0 188 -125 q0 -36 -15 -80.5t-47 -95.5l-103 -169q-42 -69 -79 -113.5t-80.5 -71t-99 -36.5t-133.5 -10h-296q-97 0 -142.5 33t-45.5 94q0 70 62 174z" />
<glyph unicode="&#xaa;" horiz-adv-x="342" d="M246 397q-14 -11 -38 -22t-51 -11q-23 0 -45 7t-39 21.5t-27.5 35.5t-10.5 49q0 38 19 63t49 39.5t67 20.5t73 6q0 42 -17.5 59.5t-49.5 17.5q-48 0 -76 -39l-47 29q20 30 51.5 46.5t76.5 16.5q60 0 93 -30.5t33 -102.5v-230h-59zM243 553q-27 0 -52.5 -4t-46 -13 t-33 -23.5t-12.5 -36.5q0 -30 21 -43.5t43 -13.5q24 0 45 9.5t35 21.5v103z" />
<glyph unicode="&#xab;" horiz-adv-x="962" d="M139 448l428 170l-99 -188l-246 -90l172 -93l-76 -143l-280 170zM559 448l428 170l-99 -188l-246 -90l172 -93l-76 -143l-280 170z" />
<glyph unicode="&#xac;" horiz-adv-x="728" d="M17 283l91 146h593l-192 -329h-214l106 183h-384z" />
<glyph unicode="&#xad;" horiz-adv-x="833" />
<glyph unicode="&#xae;" horiz-adv-x="977" d="M400 512h237q39 0 58.5 -18t19.5 -44q0 -20 -13 -44l-21 -36q-21 -36 -42.5 -50.5t-58.5 -17.5l55 -107h-122l-53 104h-15q-26 0 -38.5 -5t-20.5 -20l-46 -79h-123zM509 375q30 0 42 4.5t22 18.5l4 6q22 31 -17 31h-82l-35 -63q4 1 11.5 2t18.5 1h36zM463 85q50 0 87 4.5 t68 21t59.5 47.5t61.5 84l107 173q53 86 53 129q0 42 -34 57.5t-98 15.5h-254q-49 0 -86.5 -5.5t-69 -22.5t-60 -47.5t-59.5 -81.5l-107 -173q-53 -86 -53 -129q0 -42 34 -57.5t98 -15.5h253zM133 471q42 69 79.5 114t80.5 71q45 27 98 36t134 9h296q188 0 188 -125 q0 -36 -15 -80.5t-47 -95.5l-103 -169q-42 -69 -79 -113.5t-80.5 -71t-99 -36.5t-133.5 -10h-296q-97 0 -142.5 33t-45.5 94q0 70 62 174z" />
<glyph unicode="&#xaf;" horiz-adv-x="576" d="M96 883h479l-65 -114h-477z" />
<glyph unicode="&#xb0;" horiz-adv-x="558" d="M425 528q10 0 17.5 1t13.5 5t11 10.5t12 17.5l21 32q13 21 13 32q0 16 -27 16h-100q-20 0 -30 -6.5t-23 -27.5l-21 -32q-13 -21 -13 -32q0 -16 27 -16h99zM220 638q19 31 36.5 51t38.5 31.5t48 15.5t66 4h150q51 0 78.5 -18t27.5 -51q0 -31 -27 -76l-33 -55 q-20 -34 -38.5 -55.5t-39.5 -33.5t-48.5 -16.5t-65.5 -4.5h-150q-54 0 -80 18t-26 50q0 35 30 85z" />
<glyph unicode="&#xb1;" horiz-adv-x="540" d="M237 375h-201v70h201v219h70v-219h201v-70h-201v-220h-70v220zM31 67h478v-67h-478v67z" />
<glyph unicode="&#xb2;" horiz-adv-x="300" d="M41 372l56 59.5t47 52.5q25 30 37 49.5t12 41.5t-12.5 33t-31.5 11q-20 0 -37 -10.5t-35 -39.5l-50 27q23 38 51 57.5t73 19.5q48 0 77 -25.5t29 -67.5q0 -34 -17.5 -63t-39.5 -55l-68 -74h133v-52h-224v36z" />
<glyph unicode="&#xb3;" horiz-adv-x="300" d="M74 428q16 -26 34.5 -35.5t36.5 -9.5q26 0 44.5 14t18.5 37q0 24 -20 37t-55 15v45q32 2 50.5 14.5t18.5 32.5q0 19 -15.5 31t-37.5 12q-42 0 -64 -43l-49 28q20 35 51.5 51t65.5 16q21 0 41 -6t35.5 -18t25.5 -29t10 -39q0 -23 -10.5 -41t-28.5 -30q20 -11 32 -28.5 t12 -46.5q0 -26 -11 -45t-28.5 -32t-40 -19.5t-44.5 -6.5q-34 0 -66 15.5t-55 52.5z" />
<glyph unicode="&#xb4;" horiz-adv-x="477" d="M98 873l379 90l-76 -135l-382 -91z" />
<glyph unicode="&#xb5;" horiz-adv-x="574" d="M80 477h78v-304q0 -66 30 -94t87 -28q46 0 77 18.5t44 44.5q7 14 8 33t1 36v294h78v-359q0 -34 6.5 -50t30.5 -16q18 0 27 4l12 -56q-11 -5 -26.5 -8t-25.5 -3q-34 0 -56.5 12.5t-34.5 46.5q-30 -31 -63 -45t-84 -14q-37 0 -66.5 11.5t-48.5 34.5v-224h-74v666z" />
<glyph unicode="&#xb6;" horiz-adv-x="506" d="M368 667h72v-812h-72v812zM230 276q-41 0 -76.5 15.5t-61.5 41.5t-41.5 61.5t-15.5 76.5q0 40 15.5 76t41.5 62.5t61.5 42t76.5 15.5h71v-812h-71v421z" />
<glyph unicode="&#xb7;" horiz-adv-x="380" d="M115 420h226l-111 -190h-225z" />
<glyph unicode="&#xb8;" horiz-adv-x="443" d="M206 101h173l-149 -236h-174z" />
<glyph unicode="&#xb9;" horiz-adv-x="300" d="M137 599l-68 -39l-27 48l106 61h50v-332h-61v262z" />
<glyph unicode="&#xba;" horiz-adv-x="401" d="M128 384q-46 26 -69.5 72t-23.5 100q0 34 10 67.5t30.5 59.5t51.5 42t73 16t73 -16t51.5 -42.5t31 -60t10.5 -68.5t-10.5 -68t-31 -59.5t-51.5 -42.5t-73 -16q-41 0 -72 16zM124 463q13 -19 32 -30t44 -11t44 11t32 30t19.5 42.5t6.5 49.5q0 25 -6.5 49t-19.5 42.5 t-32 29.5t-44 11t-44 -11t-31.5 -29.5t-19 -42t-6.5 -48.5q0 -55 25 -93z" />
<glyph unicode="&#xbb;" horiz-adv-x="962" d="M86 292l246 90l-172 93l76 143l280 -170l-101 -174l-428 -170zM506 292l246 90l-172 93l76 143l280 -170l-101 -174l-428 -170z" />
<glyph unicode="&#xbc;" horiz-adv-x="740" d="M26 28l638 642l44 -46l-644 -640zM137 599l-68 -39l-27 48l106 61h50v-332h-61v262zM437 135l161 194h48v-197h41v-44h-41v-87h-61v87h-148v47zM585 132v111l-89 -111h89z" />
<glyph unicode="&#xbd;" horiz-adv-x="740" d="M12 28l638 642l44 -46l-644 -640zM127 599l-68 -39l-27 48l106 61h50v-332h-61v262zM449 36l56 59.5t47 52.5q25 30 37 49.5t12 41.5t-12.5 33t-31.5 11q-20 0 -37 -10.5t-35 -39.5l-50 27q23 38 51 57.5t73 19.5q48 0 77 -25.5t29 -67.5q0 -34 -17.5 -63t-39.5 -55 l-68 -74h133v-52h-224v36z" />
<glyph unicode="&#xbe;" horiz-adv-x="740" d="M37 28l638 642l44 -46l-644 -640zM74 428q16 -26 34.5 -35.5t36.5 -9.5q26 0 44.5 14t18.5 37q0 24 -20 37t-55 15v45q32 2 50.5 14.5t18.5 32.5q0 19 -15.5 31t-37.5 12q-42 0 -64 -43l-49 28q20 35 51.5 51t65.5 16q21 0 41 -6t35.5 -18t25.5 -29t10 -39 q0 -23 -10.5 -41t-28.5 -30q20 -11 32 -28.5t12 -46.5q0 -26 -11 -45t-28.5 -32t-40 -19.5t-44.5 -6.5q-34 0 -66 15.5t-55 52.5zM443 135l161 194h48v-197h41v-44h-41v-87h-61v87h-148v47zM591 132v111l-89 -111h89z" />
<glyph unicode="&#xbf;" horiz-adv-x="866" d="M608 412q-18 -30 -37.5 -52t-42 -37t-49.5 -24t-60 -15l-129 -22q-25 -4 -43 -7.5t-31 -8.5t-22 -12.5t-16 -18.5l-8 -14q-12 -20 -2.5 -37t49.5 -17h180q27 0 45 1.5t31.5 7t23.5 15.5t20 27l15 26h224l-29 -54q-47 -88 -121.5 -129t-195.5 -41h-268q-109 0 -158.5 35.5 t-49.5 91.5q0 46 31 100l18 31q15 25 30 44t36 33t50.5 24t73.5 17l145 22q32 5 48.5 13t28.5 25l21 30h224zM658 521h-226l104 180h225z" />
<glyph unicode="&#xc0;" horiz-adv-x="1036" d="M650 701h137l52 -701h-215l-7 134h-306q-46 0 -78.5 -8.5t-60.5 -31.5l-113 -94h-256zM609 261l-10 192l-256 -219q23 17 63.5 22t82.5 5h120zM590 946l340 -105l-66 -104l-343 100z" />
<glyph unicode="&#xc1;" horiz-adv-x="1036" d="M650 701h137l52 -701h-215l-7 134h-306q-46 0 -78.5 -8.5t-60.5 -31.5l-113 -94h-256zM609 261l-10 192l-256 -219q23 17 63.5 22t82.5 5h120zM617 873l379 90l-76 -135l-382 -91z" />
<glyph unicode="&#xc2;" horiz-adv-x="1036" d="M650 701h137l52 -701h-215l-7 134h-306q-46 0 -78.5 -8.5t-60.5 -31.5l-113 -94h-256zM609 261l-10 192l-256 -219q23 17 63.5 22t82.5 5h120zM514 862l268 62l260 -81l-65 -105l-228 69l-305 -73z" />
<glyph unicode="&#xc3;" horiz-adv-x="1036" d="M650 701h137l52 -701h-215l-7 134h-306q-46 0 -78.5 -8.5t-60.5 -31.5l-113 -94h-256zM609 261l-10 192l-256 -219q23 17 63.5 22t82.5 5h120zM506 820q27 47 62 66t92 19q39 0 66 -11.5t47 -25l36 -24.5t33 -11q23 0 38 25l28 47h145l-56 -91q-27 -46 -63 -64.5 t-88 -18.5q-44 0 -73 11.5t-49.5 25l-36.5 25t-32 11.5q-12 0 -19 -6t-20 -31l-19 -36h-144z" />
<glyph unicode="&#xc4;" horiz-adv-x="1036" d="M650 701h137l52 -701h-215l-7 134h-306q-46 0 -78.5 -8.5t-60.5 -31.5l-113 -94h-256zM609 261l-10 192l-256 -219q23 17 63.5 22t82.5 5h120zM617 900h163l-81 -142h-164zM863 900h163l-81 -142h-164z" />
<glyph unicode="&#xc5;" horiz-adv-x="1036" d="M616 853q23 36 53.5 55t73.5 19h143q38 0 58.5 -15.5t20.5 -41.5q0 -25 -20 -57l-22 -36q-25 -40 -55.5 -58t-77.5 -18h-3l52 -701h-215l-7 134h-306q-46 0 -78.5 -8.5t-60.5 -31.5l-113 -94h-256l847 701q-38 2 -57 18t-19 42q0 25 18 54zM609 261l-10 192l-256 -219 q23 17 63.5 22t82.5 5h120zM772 783q17 0 26 4.5t15 15.5l10 17q7 12 3.5 19.5t-17.5 7.5h-44q-18 0 -25.5 -4.5t-15.5 -15.5l-10 -17q-8 -12 -4 -19.5t18 -7.5h44z" />
<glyph unicode="&#xc6;" horiz-adv-x="1473" d="M720 701h895l-85 -147h-522l-80 -138q10 6 21.5 11t28.5 8t40 5t55 2h327l-85 -147h-353q-33 0 -55.5 -4t-39 -13.5t-29.5 -24.5t-25 -36l-40 -70h566l-85 -147h-790l77 134h-204q-46 0 -78 -9t-61 -31l-129 -94h-266zM614 260l158 274l-404 -302q32 15 67 22t82 7z" />
<glyph unicode="&#xc7;" horiz-adv-x="849" d="M246 0h-71q-99 0 -159.5 37.5t-60.5 113.5q0 74 63 177l88 144q41 67 79 111.5t83 70.5t101.5 36.5t134.5 10.5h492l-85 -147h-385q-45 0 -76 -5t-54.5 -18t-42.5 -36t-41 -59l-79 -128q-20 -34 -32 -61t-12 -47q0 -26 21.5 -39.5t71.5 -13.5h423l-85 -147h-201l-85 -135 h-174z" />
<glyph unicode="&#xc8;" horiz-adv-x="867" d="M262 701h747l-85 -147h-522l-80 -138q10 6 21.5 11t28.5 8t40 5t55 2h327l-85 -147h-353q-33 0 -55.5 -4t-39 -13.5t-29.5 -24.5t-25 -36l-40 -70h566l-85 -147h-790zM512 946l340 -105l-66 -104l-343 100z" />
<glyph unicode="&#xc9;" horiz-adv-x="867" d="M262 701h747l-85 -147h-522l-80 -138q10 6 21.5 11t28.5 8t40 5t55 2h327l-85 -147h-353q-33 0 -55.5 -4t-39 -13.5t-29.5 -24.5t-25 -36l-40 -70h566l-85 -147h-790zM572 873l379 90l-76 -135l-382 -91z" />
<glyph unicode="&#xca;" horiz-adv-x="867" d="M262 701h747l-85 -147h-522l-80 -138q10 6 21.5 11t28.5 8t40 5t55 2h327l-85 -147h-353q-33 0 -55.5 -4t-39 -13.5t-29.5 -24.5t-25 -36l-40 -70h566l-85 -147h-790zM443 862l268 62l260 -81l-65 -105l-228 69l-305 -73z" />
<glyph unicode="&#xcb;" horiz-adv-x="867" d="M262 701h747l-85 -147h-522l-80 -138q10 6 21.5 11t28.5 8t40 5t55 2h327l-85 -147h-353q-33 0 -55.5 -4t-39 -13.5t-29.5 -24.5t-25 -36l-40 -70h566l-85 -147h-790zM533 900h163l-81 -142h-164zM779 900h163l-81 -142h-164z" />
<glyph unicode="&#xcc;" horiz-adv-x="345" d="M262 701h225l-405 -701h-224zM237 946l340 -105l-66 -104l-343 100z" />
<glyph unicode="&#xcd;" horiz-adv-x="345" d="M262 701h225l-405 -701h-224zM300 873l379 90l-76 -135l-382 -91z" />
<glyph unicode="&#xce;" horiz-adv-x="345" d="M262 701h225l-405 -701h-224zM172 862l268 62l260 -81l-65 -105l-228 69l-305 -73z" />
<glyph unicode="&#xcf;" horiz-adv-x="345" d="M262 701h225l-405 -701h-224zM272 900h163l-81 -142h-164zM518 900h163l-81 -142h-164z" />
<glyph unicode="&#xd0;" horiz-adv-x="1010" d="M35 307h-92l63 114h94l162 280h440q88 0 149 -14.5t99 -40t55.5 -60.5t17.5 -76q0 -45 -17.5 -94t-49.5 -100l-35 -57q-47 -77 -95 -127t-113.5 -79.5t-155.5 -41t-222 -11.5h-477zM403 147q105 0 182.5 33t130.5 119l17 27q29 47 42 82t13 61q0 47 -39 66t-108 19h-239 l-77 -133h172l-65 -114h-173l-92 -160h236z" />
<glyph unicode="&#xd1;" horiz-adv-x="993" d="M262 701h167l231 -449l260 449h215l-405 -701h-164l-232 449l-261 -449h-215zM457 820q27 47 62 66t92 19q39 0 66 -11.5t47 -25l36 -24.5t33 -11q23 0 38 25l28 47h145l-56 -91q-27 -46 -63 -64.5t-88 -18.5q-44 0 -73 11.5t-49.5 25l-36.5 25t-32 11.5q-12 0 -19 -6 t-20 -31l-19 -36h-144z" />
<glyph unicode="&#xd2;" d="M106 472q41 67 79 111.5t83 70.5t101.5 36.5t134.5 10.5h318q49 0 89.5 -9.5t69.5 -28.5t45 -47.5t16 -66.5q0 -36 -15 -79.5t-48 -96.5l-88 -144q-41 -68 -79 -112t-82.5 -70t-101.5 -36.5t-135 -10.5h-318q-99 0 -159.5 37.5t-60.5 113.5q0 74 63 177zM471 147 q46 0 76.5 5t54 18t42.5 36t41 59l79 128q20 33 32 60.5t12 47.5q0 26 -21.5 39.5t-71.5 13.5h-189q-45 0 -76 -5t-54.5 -18t-42.5 -36t-41 -59l-79 -128q-20 -34 -32 -61t-12 -47q0 -26 21.5 -39.5t71.5 -13.5h189zM545 946l340 -105l-66 -104l-343 100z" />
<glyph unicode="&#xd3;" d="M106 472q41 67 79 111.5t83 70.5t101.5 36.5t134.5 10.5h318q49 0 89.5 -9.5t69.5 -28.5t45 -47.5t16 -66.5q0 -36 -15 -79.5t-48 -96.5l-88 -144q-41 -68 -79 -112t-82.5 -70t-101.5 -36.5t-135 -10.5h-318q-99 0 -159.5 37.5t-60.5 113.5q0 74 63 177zM471 147 q46 0 76.5 5t54 18t42.5 36t41 59l79 128q20 33 32 60.5t12 47.5q0 26 -21.5 39.5t-71.5 13.5h-189q-45 0 -76 -5t-54.5 -18t-42.5 -36t-41 -59l-79 -128q-20 -34 -32 -61t-12 -47q0 -26 21.5 -39.5t71.5 -13.5h189zM565 873l379 90l-76 -135l-382 -91z" />
<glyph unicode="&#xd4;" d="M106 472q41 67 79 111.5t83 70.5t101.5 36.5t134.5 10.5h318q49 0 89.5 -9.5t69.5 -28.5t45 -47.5t16 -66.5q0 -36 -15 -79.5t-48 -96.5l-88 -144q-41 -68 -79 -112t-82.5 -70t-101.5 -36.5t-135 -10.5h-318q-99 0 -159.5 37.5t-60.5 113.5q0 74 63 177zM471 147 q46 0 76.5 5t54 18t42.5 36t41 59l79 128q20 33 32 60.5t12 47.5q0 26 -21.5 39.5t-71.5 13.5h-189q-45 0 -76 -5t-54.5 -18t-42.5 -36t-41 -59l-79 -128q-20 -34 -32 -61t-12 -47q0 -26 21.5 -39.5t71.5 -13.5h189zM468 862l268 62l260 -81l-65 -105l-228 69l-305 -73z" />
<glyph unicode="&#xd5;" d="M106 472q41 67 79 111.5t83 70.5t101.5 36.5t134.5 10.5h318q49 0 89.5 -9.5t69.5 -28.5t45 -47.5t16 -66.5q0 -36 -15 -79.5t-48 -96.5l-88 -144q-41 -68 -79 -112t-82.5 -70t-101.5 -36.5t-135 -10.5h-318q-99 0 -159.5 37.5t-60.5 113.5q0 74 63 177zM471 147 q46 0 76.5 5t54 18t42.5 36t41 59l79 128q20 33 32 60.5t12 47.5q0 26 -21.5 39.5t-71.5 13.5h-189q-45 0 -76 -5t-54.5 -18t-42.5 -36t-41 -59l-79 -128q-20 -34 -32 -61t-12 -47q0 -26 21.5 -39.5t71.5 -13.5h189zM450 820q27 47 62 66t92 19q39 0 66 -11.5t47 -25 l36 -24.5t33 -11q23 0 38 25l28 47h145l-56 -91q-27 -46 -63 -64.5t-88 -18.5q-44 0 -73 11.5t-49.5 25l-36.5 25t-32 11.5q-12 0 -19 -6t-20 -31l-19 -36h-144z" />
<glyph unicode="&#xd6;" d="M106 472q41 67 79 111.5t83 70.5t101.5 36.5t134.5 10.5h318q49 0 89.5 -9.5t69.5 -28.5t45 -47.5t16 -66.5q0 -36 -15 -79.5t-48 -96.5l-88 -144q-41 -68 -79 -112t-82.5 -70t-101.5 -36.5t-135 -10.5h-318q-99 0 -159.5 37.5t-60.5 113.5q0 74 63 177zM471 147 q46 0 76.5 5t54 18t42.5 36t41 59l79 128q20 33 32 60.5t12 47.5q0 26 -21.5 39.5t-71.5 13.5h-189q-45 0 -76 -5t-54.5 -18t-42.5 -36t-41 -59l-79 -128q-20 -34 -32 -61t-12 -47q0 -26 21.5 -39.5t71.5 -13.5h189zM553 900h163l-81 -142h-164zM799 900h163l-81 -142h-164z " />
<glyph unicode="&#xd7;" horiz-adv-x="650" d="M16 228l223 145l-78 163l160 56l61 -126l192 125l101 -102l-232 -151l76 -155l-160 -59l-59 121l-187 -121z" />
<glyph unicode="&#xd8;" d="M106 472q41 67 79 111.5t83 70.5t101.5 36.5t134.5 10.5h285l100 91h187l-125 -114q43 -18 67 -50t24 -79q0 -36 -15 -79.5t-48 -96.5l-88 -144q-41 -68 -79 -112t-82.5 -70t-101.5 -36.5t-135 -10.5h-284l-99 -91h-187l123 112q-43 18 -67 50t-24 80q0 74 63 177z M189 200q0 -22 14 -35l425 389h-102q-45 0 -76 -5t-54.5 -18t-42.5 -36t-41 -59l-79 -128q-20 -34 -32 -61t-12 -47zM808 501q0 22 -14 33l-424 -387h101q46 0 76.5 5t54 18t42.5 36t41 59l79 128q20 33 32 60.5t12 47.5z" />
<glyph unicode="&#xd9;" horiz-adv-x="916" d="M242 701h225l-232 -393q-21 -35 -33 -62.5t-12 -47.5q0 -25 21 -38t70 -13h105q46 0 77 5t54 18.5t42.5 36.5t41.5 60l260 434h225l-283 -472q-41 -68 -79.5 -112.5t-84 -70.5t-103 -36t-135.5 -10h-230q-99 0 -157 37t-58 111q0 35 14 76.5t43 92.5zM549 946l340 -105 l-66 -104l-343 100z" />
<glyph unicode="&#xda;" horiz-adv-x="916" d="M242 701h225l-232 -393q-21 -35 -33 -62.5t-12 -47.5q0 -25 21 -38t70 -13h105q46 0 77 5t54 18.5t42.5 36.5t41.5 60l260 434h225l-283 -472q-41 -68 -79.5 -112.5t-84 -70.5t-103 -36t-135.5 -10h-230q-99 0 -157 37t-58 111q0 35 14 76.5t43 92.5zM588 873l379 90 l-76 -135l-382 -91z" />
<glyph unicode="&#xdb;" horiz-adv-x="916" d="M242 701h225l-232 -393q-21 -35 -33 -62.5t-12 -47.5q0 -25 21 -38t70 -13h105q46 0 77 5t54 18.5t42.5 36.5t41.5 60l260 434h225l-283 -472q-41 -68 -79.5 -112.5t-84 -70.5t-103 -36t-135.5 -10h-230q-99 0 -157 37t-58 111q0 35 14 76.5t43 92.5zM457 862l268 62 l260 -81l-65 -105l-228 69l-305 -73z" />
<glyph unicode="&#xdc;" horiz-adv-x="916" d="M242 701h225l-232 -393q-21 -35 -33 -62.5t-12 -47.5q0 -25 21 -38t70 -13h105q46 0 77 5t54 18.5t42.5 36.5t41.5 60l260 434h225l-283 -472q-41 -68 -79.5 -112.5t-84 -70.5t-103 -36t-135.5 -10h-230q-99 0 -157 37t-58 111q0 35 14 76.5t43 92.5zM548 900h163 l-81 -142h-164zM794 900h163l-81 -142h-164z" />
<glyph unicode="&#xdd;" horiz-adv-x="995" d="M323 270l-121 431h212l82 -297l431 297h270l-661 -452l-144 -249h-225zM596 873l379 90l-76 -135l-382 -91z" />
<glyph unicode="&#xde;" horiz-adv-x="894" d="M462 254q34 0 58.5 1.5t43 8.5t33 20.5t28.5 36.5l28 46q20 35 20 56q0 34 -44 34h-282l-132 -229q9 6 21 11t28.5 8t40 5t55.5 2h102zM262 701h228l-57 -97h260q113 0 165 -35.5t52 -95.5q0 -57 -44 -130l-46 -77q-24 -41 -53.5 -71t-71 -49.5t-97 -29t-130.5 -9.5h-219 q-33 0 -55.5 -4t-39 -13.5t-29.5 -24.5t-25 -36l-18 -29h-224z" />
<glyph unicode="&#xdf;" horiz-adv-x="1730" d="M-62 147h497q34 0 56 10t39 39q14 22 14 35q0 24 -49 31l-247 34q-78 11 -121.5 42.5t-43.5 82.5q0 44 35 98l26 42q24 38 54.5 64.5t70 43.5t90 24.5t115.5 7.5h517l-92 -147h-438q-29 0 -49.5 -2.5t-35 -8.5t-24.5 -14.5t-17 -20.5q-12 -18 -12 -31q0 -27 55 -34 l272 -39q62 -9 98 -37t36 -76q0 -23 -8.5 -48.5t-27.5 -56.5l-31 -50q-23 -37 -53.5 -63t-73 -42t-101 -23.5t-137.5 -7.5h-506zM803 147h497q34 0 56 10t39 39q14 22 14 35q0 24 -49 31l-247 34q-78 11 -121.5 42.5t-43.5 82.5q0 44 35 98l26 42q24 38 54.5 64.5t70 43.5 t90 24.5t115.5 7.5h517l-92 -147h-438q-29 0 -49.5 -2.5t-35 -8.5t-24.5 -14.5t-17 -20.5q-12 -18 -12 -31q0 -27 55 -34l272 -39q62 -9 98 -37t36 -76q0 -23 -8.5 -48.5t-27.5 -56.5l-31 -50q-23 -37 -53.5 -63t-73 -42t-101 -23.5t-137.5 -7.5h-506z" />
<glyph unicode="&#xe0;" horiz-adv-x="1036" d="M650 701h137l52 -701h-215l-7 134h-306q-46 0 -78.5 -8.5t-60.5 -31.5l-113 -94h-256zM609 261l-10 192l-256 -219q23 17 63.5 22t82.5 5h120zM590 946l340 -105l-66 -104l-343 100z" />
<glyph unicode="&#xe1;" horiz-adv-x="1036" d="M650 701h137l52 -701h-215l-7 134h-306q-46 0 -78.5 -8.5t-60.5 -31.5l-113 -94h-256zM609 261l-10 192l-256 -219q23 17 63.5 22t82.5 5h120zM617 873l379 90l-76 -135l-382 -91z" />
<glyph unicode="&#xe2;" horiz-adv-x="1036" d="M650 701h137l52 -701h-215l-7 134h-306q-46 0 -78.5 -8.5t-60.5 -31.5l-113 -94h-256zM609 261l-10 192l-256 -219q23 17 63.5 22t82.5 5h120zM514 862l268 62l260 -81l-65 -105l-228 69l-305 -73z" />
<glyph unicode="&#xe3;" horiz-adv-x="1036" d="M650 701h137l52 -701h-215l-7 134h-306q-46 0 -78.5 -8.5t-60.5 -31.5l-113 -94h-256zM609 261l-10 192l-256 -219q23 17 63.5 22t82.5 5h120zM506 820q27 47 62 66t92 19q39 0 66 -11.5t47 -25l36 -24.5t33 -11q23 0 38 25l28 47h145l-56 -91q-27 -46 -63 -64.5 t-88 -18.5q-44 0 -73 11.5t-49.5 25l-36.5 25t-32 11.5q-12 0 -19 -6t-20 -31l-19 -36h-144z" />
<glyph unicode="&#xe4;" horiz-adv-x="1036" d="M650 701h137l52 -701h-215l-7 134h-306q-46 0 -78.5 -8.5t-60.5 -31.5l-113 -94h-256zM609 261l-10 192l-256 -219q23 17 63.5 22t82.5 5h120zM617 900h163l-81 -142h-164zM863 900h163l-81 -142h-164z" />
<glyph unicode="&#xe5;" horiz-adv-x="1036" d="M616 853q23 36 53.5 55t73.5 19h143q38 0 58.5 -15.5t20.5 -41.5q0 -25 -20 -57l-22 -36q-25 -40 -55.5 -58t-77.5 -18h-3l52 -701h-215l-7 134h-306q-46 0 -78.5 -8.5t-60.5 -31.5l-113 -94h-256l847 701q-38 2 -57 18t-19 42q0 25 18 54zM609 261l-10 192l-256 -219 q23 17 63.5 22t82.5 5h120zM772 783q17 0 26 4.5t15 15.5l10 17q7 12 3.5 19.5t-17.5 7.5h-44q-18 0 -25.5 -4.5t-15.5 -15.5l-10 -17q-8 -12 -4 -19.5t18 -7.5h44z" />
<glyph unicode="&#xe6;" horiz-adv-x="1473" d="M720 701h895l-85 -147h-522l-80 -138q10 6 21.5 11t28.5 8t40 5t55 2h327l-85 -147h-353q-33 0 -55.5 -4t-39 -13.5t-29.5 -24.5t-25 -36l-40 -70h566l-85 -147h-790l77 134h-204q-46 0 -78 -9t-61 -31l-129 -94h-266zM614 260l158 274l-404 -302q32 15 67 22t82 7z" />
<glyph unicode="&#xe7;" horiz-adv-x="849" d="M246 0h-71q-99 0 -159.5 37.5t-60.5 113.5q0 74 63 177l88 144q41 67 79 111.5t83 70.5t101.5 36.5t134.5 10.5h492l-85 -147h-385q-45 0 -76 -5t-54.5 -18t-42.5 -36t-41 -59l-79 -128q-20 -34 -32 -61t-12 -47q0 -26 21.5 -39.5t71.5 -13.5h423l-85 -147h-201l-85 -135 h-174z" />
<glyph unicode="&#xe8;" horiz-adv-x="867" d="M262 701h747l-85 -147h-522l-80 -138q10 6 21.5 11t28.5 8t40 5t55 2h327l-85 -147h-353q-33 0 -55.5 -4t-39 -13.5t-29.5 -24.5t-25 -36l-40 -70h566l-85 -147h-790zM512 946l340 -105l-66 -104l-343 100z" />
<glyph unicode="&#xe9;" horiz-adv-x="867" d="M262 701h747l-85 -147h-522l-80 -138q10 6 21.5 11t28.5 8t40 5t55 2h327l-85 -147h-353q-33 0 -55.5 -4t-39 -13.5t-29.5 -24.5t-25 -36l-40 -70h566l-85 -147h-790zM572 873l379 90l-76 -135l-382 -91z" />
<glyph unicode="&#xea;" horiz-adv-x="867" d="M262 701h747l-85 -147h-522l-80 -138q10 6 21.5 11t28.5 8t40 5t55 2h327l-85 -147h-353q-33 0 -55.5 -4t-39 -13.5t-29.5 -24.5t-25 -36l-40 -70h566l-85 -147h-790zM443 862l268 62l260 -81l-65 -105l-228 69l-305 -73z" />
<glyph unicode="&#xeb;" horiz-adv-x="867" d="M262 701h747l-85 -147h-522l-80 -138q10 6 21.5 11t28.5 8t40 5t55 2h327l-85 -147h-353q-33 0 -55.5 -4t-39 -13.5t-29.5 -24.5t-25 -36l-40 -70h566l-85 -147h-790zM533 900h163l-81 -142h-164zM779 900h163l-81 -142h-164z" />
<glyph unicode="&#xec;" horiz-adv-x="345" d="M262 701h225l-405 -701h-224zM237 946l340 -105l-66 -104l-343 100z" />
<glyph unicode="&#xed;" horiz-adv-x="345" d="M262 701h225l-405 -701h-224zM300 873l379 90l-76 -135l-382 -91z" />
<glyph unicode="&#xee;" horiz-adv-x="345" d="M262 701h225l-405 -701h-224zM172 862l268 62l260 -81l-65 -105l-228 69l-305 -73z" />
<glyph unicode="&#xef;" horiz-adv-x="345" d="M262 701h225l-405 -701h-224zM272 900h163l-81 -142h-164zM518 900h163l-81 -142h-164z" />
<glyph unicode="&#xf0;" horiz-adv-x="1010" d="M35 307h-92l63 114h94l162 280h440q88 0 149 -14.5t99 -40t55.5 -60.5t17.5 -76q0 -45 -17.5 -94t-49.5 -100l-35 -57q-47 -77 -95 -127t-113.5 -79.5t-155.5 -41t-222 -11.5h-477zM403 147q105 0 182.5 33t130.5 119l17 27q29 47 42 82t13 61q0 47 -39 66t-108 19h-239 l-77 -133h172l-65 -114h-173l-92 -160h236z" />
<glyph unicode="&#xf1;" horiz-adv-x="993" d="M262 701h167l231 -449l260 449h215l-405 -701h-164l-232 449l-261 -449h-215zM457 820q27 47 62 66t92 19q39 0 66 -11.5t47 -25l36 -24.5t33 -11q23 0 38 25l28 47h145l-56 -91q-27 -46 -63 -64.5t-88 -18.5q-44 0 -73 11.5t-49.5 25l-36.5 25t-32 11.5q-12 0 -19 -6 t-20 -31l-19 -36h-144z" />
<glyph unicode="&#xf2;" d="M106 472q41 67 79 111.5t83 70.5t101.5 36.5t134.5 10.5h318q49 0 89.5 -9.5t69.5 -28.5t45 -47.5t16 -66.5q0 -36 -15 -79.5t-48 -96.5l-88 -144q-41 -68 -79 -112t-82.5 -70t-101.5 -36.5t-135 -10.5h-318q-99 0 -159.5 37.5t-60.5 113.5q0 74 63 177zM471 147 q46 0 76.5 5t54 18t42.5 36t41 59l79 128q20 33 32 60.5t12 47.5q0 26 -21.5 39.5t-71.5 13.5h-189q-45 0 -76 -5t-54.5 -18t-42.5 -36t-41 -59l-79 -128q-20 -34 -32 -61t-12 -47q0 -26 21.5 -39.5t71.5 -13.5h189zM545 946l340 -105l-66 -104l-343 100z" />
<glyph unicode="&#xf3;" d="M106 472q41 67 79 111.5t83 70.5t101.5 36.5t134.5 10.5h318q49 0 89.5 -9.5t69.5 -28.5t45 -47.5t16 -66.5q0 -36 -15 -79.5t-48 -96.5l-88 -144q-41 -68 -79 -112t-82.5 -70t-101.5 -36.5t-135 -10.5h-318q-99 0 -159.5 37.5t-60.5 113.5q0 74 63 177zM471 147 q46 0 76.5 5t54 18t42.5 36t41 59l79 128q20 33 32 60.5t12 47.5q0 26 -21.5 39.5t-71.5 13.5h-189q-45 0 -76 -5t-54.5 -18t-42.5 -36t-41 -59l-79 -128q-20 -34 -32 -61t-12 -47q0 -26 21.5 -39.5t71.5 -13.5h189zM565 873l379 90l-76 -135l-382 -91z" />
<glyph unicode="&#xf4;" d="M106 472q41 67 79 111.5t83 70.5t101.5 36.5t134.5 10.5h318q49 0 89.5 -9.5t69.5 -28.5t45 -47.5t16 -66.5q0 -36 -15 -79.5t-48 -96.5l-88 -144q-41 -68 -79 -112t-82.5 -70t-101.5 -36.5t-135 -10.5h-318q-99 0 -159.5 37.5t-60.5 113.5q0 74 63 177zM471 147 q46 0 76.5 5t54 18t42.5 36t41 59l79 128q20 33 32 60.5t12 47.5q0 26 -21.5 39.5t-71.5 13.5h-189q-45 0 -76 -5t-54.5 -18t-42.5 -36t-41 -59l-79 -128q-20 -34 -32 -61t-12 -47q0 -26 21.5 -39.5t71.5 -13.5h189zM468 862l268 62l260 -81l-65 -105l-228 69l-305 -73z" />
<glyph unicode="&#xf5;" d="M106 472q41 67 79 111.5t83 70.5t101.5 36.5t134.5 10.5h318q49 0 89.5 -9.5t69.5 -28.5t45 -47.5t16 -66.5q0 -36 -15 -79.5t-48 -96.5l-88 -144q-41 -68 -79 -112t-82.5 -70t-101.5 -36.5t-135 -10.5h-318q-99 0 -159.5 37.5t-60.5 113.5q0 74 63 177zM471 147 q46 0 76.5 5t54 18t42.5 36t41 59l79 128q20 33 32 60.5t12 47.5q0 26 -21.5 39.5t-71.5 13.5h-189q-45 0 -76 -5t-54.5 -18t-42.5 -36t-41 -59l-79 -128q-20 -34 -32 -61t-12 -47q0 -26 21.5 -39.5t71.5 -13.5h189zM450 820q27 47 62 66t92 19q39 0 66 -11.5t47 -25 l36 -24.5t33 -11q23 0 38 25l28 47h145l-56 -91q-27 -46 -63 -64.5t-88 -18.5q-44 0 -73 11.5t-49.5 25l-36.5 25t-32 11.5q-12 0 -19 -6t-20 -31l-19 -36h-144z" />
<glyph unicode="&#xf6;" d="M106 472q41 67 79 111.5t83 70.5t101.5 36.5t134.5 10.5h318q49 0 89.5 -9.5t69.5 -28.5t45 -47.5t16 -66.5q0 -36 -15 -79.5t-48 -96.5l-88 -144q-41 -68 -79 -112t-82.5 -70t-101.5 -36.5t-135 -10.5h-318q-99 0 -159.5 37.5t-60.5 113.5q0 74 63 177zM471 147 q46 0 76.5 5t54 18t42.5 36t41 59l79 128q20 33 32 60.5t12 47.5q0 26 -21.5 39.5t-71.5 13.5h-189q-45 0 -76 -5t-54.5 -18t-42.5 -36t-41 -59l-79 -128q-20 -34 -32 -61t-12 -47q0 -26 21.5 -39.5t71.5 -13.5h189zM553 900h163l-81 -142h-164zM799 900h163l-81 -142h-164z " />
<glyph unicode="&#xf7;" horiz-adv-x="655" d="M377 640h206l-89 -153h-205zM108 429h529l-90 -146h-530zM145 223h206l-89 -153h-205z" />
<glyph unicode="&#xf8;" d="M106 472q41 67 79 111.5t83 70.5t101.5 36.5t134.5 10.5h285l100 91h187l-125 -114q43 -18 67 -50t24 -79q0 -36 -15 -79.5t-48 -96.5l-88 -144q-41 -68 -79 -112t-82.5 -70t-101.5 -36.5t-135 -10.5h-284l-99 -91h-187l123 112q-43 18 -67 50t-24 80q0 74 63 177z M189 200q0 -22 14 -35l425 389h-102q-45 0 -76 -5t-54.5 -18t-42.5 -36t-41 -59l-79 -128q-20 -34 -32 -61t-12 -47zM808 501q0 22 -14 33l-424 -387h101q46 0 76.5 5t54 18t42.5 36t41 59l79 128q20 33 32 60.5t12 47.5z" />
<glyph unicode="&#xf9;" horiz-adv-x="916" d="M242 701h225l-232 -393q-21 -35 -33 -62.5t-12 -47.5q0 -25 21 -38t70 -13h105q46 0 77 5t54 18.5t42.5 36.5t41.5 60l260 434h225l-283 -472q-41 -68 -79.5 -112.5t-84 -70.5t-103 -36t-135.5 -10h-230q-99 0 -157 37t-58 111q0 35 14 76.5t43 92.5zM549 946l340 -105 l-66 -104l-343 100z" />
<glyph unicode="&#xfa;" horiz-adv-x="916" d="M242 701h225l-232 -393q-21 -35 -33 -62.5t-12 -47.5q0 -25 21 -38t70 -13h105q46 0 77 5t54 18.5t42.5 36.5t41.5 60l260 434h225l-283 -472q-41 -68 -79.5 -112.5t-84 -70.5t-103 -36t-135.5 -10h-230q-99 0 -157 37t-58 111q0 35 14 76.5t43 92.5zM588 873l379 90 l-76 -135l-382 -91z" />
<glyph unicode="&#xfb;" horiz-adv-x="916" d="M242 701h225l-232 -393q-21 -35 -33 -62.5t-12 -47.5q0 -25 21 -38t70 -13h105q46 0 77 5t54 18.5t42.5 36.5t41.5 60l260 434h225l-283 -472q-41 -68 -79.5 -112.5t-84 -70.5t-103 -36t-135.5 -10h-230q-99 0 -157 37t-58 111q0 35 14 76.5t43 92.5zM457 862l268 62 l260 -81l-65 -105l-228 69l-305 -73z" />
<glyph unicode="&#xfc;" horiz-adv-x="916" d="M242 701h225l-232 -393q-21 -35 -33 -62.5t-12 -47.5q0 -25 21 -38t70 -13h105q46 0 77 5t54 18.5t42.5 36.5t41.5 60l260 434h225l-283 -472q-41 -68 -79.5 -112.5t-84 -70.5t-103 -36t-135.5 -10h-230q-99 0 -157 37t-58 111q0 35 14 76.5t43 92.5zM548 900h163 l-81 -142h-164zM794 900h163l-81 -142h-164z" />
<glyph unicode="&#xfd;" horiz-adv-x="995" d="M323 270l-121 431h212l82 -297l431 297h270l-661 -452l-144 -249h-225zM596 873l379 90l-76 -135l-382 -91z" />
<glyph unicode="&#xfe;" horiz-adv-x="871" d="M462 254q34 0 58.5 1.5t43 8.5t33 20.5t28.5 36.5l28 46q20 35 20 56q0 34 -44 34h-282l-132 -229q9 6 21 11t28.5 8t40 5t55.5 2h102zM262 701h228l-57 -97h260q113 0 165 -35.5t52 -95.5q0 -57 -44 -130l-46 -77q-24 -41 -53.5 -71t-71 -49.5t-97 -29t-130.5 -9.5h-219 q-33 0 -55.5 -4t-39 -13.5t-29.5 -24.5t-25 -36l-18 -29h-224z" />
<glyph unicode="&#xff;" horiz-adv-x="995" d="M323 270l-121 431h212l82 -297l431 297h270l-661 -452l-144 -249h-225zM568 900h163l-81 -142h-164zM814 900h163l-81 -142h-164z" />
<glyph unicode="&#x152;" horiz-adv-x="1546" d="M106 472q41 67 79 111.5t83 70.5t101.5 36.5t134.5 10.5h274q113 0 162 -52l32 52h716l-85 -147h-522l-80 -138q10 6 21.5 11t28.5 8t40 5t55 2h327l-85 -147h-353q-33 0 -55.5 -4t-39 -13.5t-29.5 -24.5t-25 -36l-40 -70h566l-85 -147h-687l37 65q-49 -35 -110.5 -50 t-148.5 -15h-243q-99 0 -159.5 37.5t-60.5 113.5q0 74 63 177zM450 147q83 0 138.5 26.5t97.5 85.5l97 168q18 37 18 64q0 63 -103 63h-172q-45 0 -76 -5t-54.5 -18t-42.5 -36t-41 -59l-79 -128q-20 -34 -32 -61t-12 -47q0 -26 21.5 -39.5t71.5 -13.5h168z" />
<glyph unicode="&#x153;" horiz-adv-x="1546" d="M106 472q41 67 79 111.5t83 70.5t101.5 36.5t134.5 10.5h274q113 0 162 -52l32 52h716l-85 -147h-522l-80 -138q10 6 21.5 11t28.5 8t40 5t55 2h327l-85 -147h-353q-33 0 -55.5 -4t-39 -13.5t-29.5 -24.5t-25 -36l-40 -70h566l-85 -147h-687l37 65q-49 -35 -110.5 -50 t-148.5 -15h-243q-99 0 -159.5 37.5t-60.5 113.5q0 74 63 177zM450 147q83 0 138.5 26.5t97.5 85.5l97 168q18 37 18 64q0 63 -103 63h-172q-45 0 -76 -5t-54.5 -18t-42.5 -36t-41 -59l-79 -128q-20 -34 -32 -61t-12 -47q0 -26 21.5 -39.5t71.5 -13.5h168z" />
<glyph unicode="&#x178;" horiz-adv-x="995" d="M323 270l-121 431h212l82 -297l431 297h270l-661 -452l-144 -249h-225zM568 900h163l-81 -142h-164zM814 900h163l-81 -142h-164z" />
<glyph unicode="&#x2c6;" horiz-adv-x="636" d="M93 862l268 62l260 -81l-65 -105l-228 69l-305 -73z" />
<glyph unicode="&#x2dc;" horiz-adv-x="667" d="M100 820q27 47 62 66t92 19q39 0 66 -11.5t47 -25l36 -24.5t33 -11q23 0 38 25l28 47h145l-56 -91q-27 -46 -63 -64.5t-88 -18.5q-44 0 -73 11.5t-49.5 25l-36.5 25t-32 11.5q-12 0 -19 -6t-20 -31l-19 -36h-144z" />
<glyph unicode="&#x2013;" horiz-adv-x="500" d="M48 434h500l-96 -156h-500z" />
<glyph unicode="&#x2014;" horiz-adv-x="1000" d="M48 434h1000l-96 -156h-1000z" />
<glyph unicode="&#x2018;" horiz-adv-x="291" d="M270 701h157l-153 -276h-182z" />
<glyph unicode="&#x2019;" horiz-adv-x="291" d="M240 701h197l-193 -276h-142z" />
<glyph unicode="&#x201a;" horiz-adv-x="291" d="M-2 202h157l-153 -276h-182z" />
<glyph unicode="&#x201c;" horiz-adv-x="581" d="M270 701h157l-153 -276h-182zM560 701h157l-153 -276h-182z" />
<glyph unicode="&#x201d;" horiz-adv-x="581" d="M240 701h197l-193 -276h-142zM530 701h197l-193 -276h-142z" />
<glyph unicode="&#x201e;" horiz-adv-x="581" d="M-2 202h157l-153 -276h-182zM287 202h157l-153 -276h-182z" />
<glyph unicode="&#x2022;" horiz-adv-x="527" d="M110 392q23 36 53.5 55t73.5 19h143q38 0 58.5 -15.5t20.5 -41.5q0 -25 -20 -57l-22 -36q-25 -40 -55.5 -58t-77.5 -18h-130q-43 0 -64.5 16.5t-21.5 43.5q0 25 18 54z" />
<glyph unicode="&#x2026;" horiz-adv-x="1140" d="M-13 190h226l-111 -190h-225zM367 190h226l-111 -190h-225zM747 190h226l-111 -190h-225z" />
<glyph unicode="&#x2039;" horiz-adv-x="542" d="M139 448l428 170l-99 -188l-246 -90l172 -93l-76 -143l-280 170z" />
<glyph unicode="&#x203a;" horiz-adv-x="542" d="M86 292l246 90l-172 93l76 143l280 -170l-101 -174l-428 -170z" />
<glyph unicode="&#x20ac;" horiz-adv-x="927" d="M31 317h97l7 11l35 57h-96l61 107h100q39 61 76 101.5t81 64.5t99 33.5t130 9.5h442l-85 -147h-335q-35 0 -61 -3t-46 -10t-36.5 -19t-31.5 -30h248l-63 -107h-256l-42 -68h257l-63 -107h-242q-5 -31 16 -47t76 -16h373l-85 -147h-395q-99 0 -159 37.5t-60 113.5 q0 14 1.5 28.5t6.5 30.5h-111z" />
<glyph unicode="&#x2122;" horiz-adv-x="1303" d="M361 611h-161l52 90h462l-51 -90h-160l-177 -305h-142zM772 701h153l29 -266l302 266h179l-227 -395h-142l138 233l-266 -233h-96l-25 233l-130 -233h-142z" />
<glyph unicode="&#xe000;" horiz-adv-x="700" d="M0 700h700v-700h-700v700z" />
<glyph unicode="&#xfb01;" horiz-adv-x="1164" d="M262 701h717l-85 -147h-492l-96 -166q9 6 21 11t28.5 8t40 5t55.5 2h297l-85 -147h-323q-33 0 -55.5 -4t-39 -13.5t-29.5 -24.5t-25 -36l-109 -189h-224zM1081 701h225l-405 -701h-224z" />
<glyph unicode="&#xfb02;" horiz-adv-x="1645" d="M262 701h717l-85 -147h-492l-96 -166q9 6 21 11t28.5 8t40 5t55.5 2h297l-85 -147h-323q-33 0 -55.5 -4t-39 -13.5t-29.5 -24.5t-25 -36l-109 -189h-224zM1081 701h225l-320 -554h512l-85 -147h-736z" />
<glyph unicode="&#xfb03;" horiz-adv-x="1983" d="M1900 701h225l-405 -701h-224zM1081 701h717l-85 -147h-492l-96 -166q9 6 21 11t28.5 8t40 5t55.5 2h297l-85 -147h-323q-33 0 -55.5 -4t-39 -13.5t-29.5 -24.5t-25 -36l-109 -189h-224zM262 701h717l-85 -147h-492l-96 -166q9 6 21 11t28.5 8t40 5t55.5 2h297l-85 -147 h-323q-33 0 -55.5 -4t-39 -13.5t-29.5 -24.5t-25 -36l-109 -189h-224z" />
<glyph unicode="&#xfb04;" horiz-adv-x="2464" d="M1900 701h225l-320 -554h512l-85 -147h-736zM1081 701h717l-85 -147h-492l-96 -166q9 6 21 11t28.5 8t40 5t55.5 2h297l-85 -147h-323q-33 0 -55.5 -4t-39 -13.5t-29.5 -24.5t-25 -36l-109 -189h-224zM262 701h717l-85 -147h-492l-96 -166q9 6 21 11t28.5 8t40 5t55.5 2 h297l-85 -147h-323q-33 0 -55.5 -4t-39 -13.5t-29.5 -24.5t-25 -36l-109 -189h-224z" />
</font>
</defs>
</svg>
