<?xml version="1.0" standalone="no"?>
<!DOCTYPE svg PUBLIC "-//W3C//DTD SVG 1.1//EN" "http://www.w3.org/Graphics/SVG/1.1/DTD/svg11.dtd" >
<svg xmlns="http://www.w3.org/2000/svg">
<metadata></metadata>
<defs>
<font id="mazdaregular" horiz-adv-x="2000" >
<font-face units-per-em="2048" ascent="1536" descent="-512" />
<missing-glyph horiz-adv-x="819" />
<glyph horiz-adv-x="2048" />
<glyph horiz-adv-x="2048" />
<glyph unicode="&#xd;" horiz-adv-x="0" />
<glyph unicode=" "  horiz-adv-x="819" />
<glyph unicode="&#x09;" horiz-adv-x="819" />
<glyph unicode="&#xa0;" horiz-adv-x="819" />
<glyph unicode="!" horiz-adv-x="745" d="M-184 0l151 268h299l-153 -268h-297zM49 399l596 1037h283l-619 -1037h-260z" />
<glyph unicode="&#x22;" horiz-adv-x="964" d="M180 870l326 566h268l-346 -566h-248zM663 870l326 566h268l-346 -566h-248z" />
<glyph unicode="#" horiz-adv-x="1853" d="M-160 356l129 199h371l188 328h-356l129 198h342l205 355h268l-205 -355h432l205 355h269l-205 -355h346l-127 -198h-334l-188 -328h317l-127 -199h-305l-205 -356h-268l205 356h-432l-205 -356h-269l205 356h-385zM608 555h432l189 328h-432z" />
<glyph unicode="$" horiz-adv-x="1898" d="M-154 0l125 199h977q66 0 115 6t87 23.5t66.5 48t53.5 79.5q41 72 41 119q0 78 -137 109l-558 108q-145 29 -214.5 92.5t-69.5 153.5q0 78 55 174l39 66q43 76 94 125t118 78.5t153 42t200 12.5h258l156 245h229l-155 -245h524l-125 -197h-938q-61 0 -105 -7t-75 -24.5 t-54.5 -43t-46.5 -62.5q-41 -66 -41 -109q0 -51 51.5 -79.5t147.5 -47.5l496 -94q283 -53 282 -235q0 -84 -65 -203l-64 -105q-41 -72 -92 -115.5t-119.5 -69.5t-158.5 -35t-213 -9h-228l-151 -242h-232l154 242h-580z" />
<glyph unicode="%" horiz-adv-x="2394" d="M238 0l1568 1436h281l-1569 -1436h-280zM313 967q0 66 52 149l81 135q39 66 75 108t78 65.5t95.5 32.5t128.5 9h215q100 0 153.5 -34.5t53.5 -100.5t-51 -149l-82 -135q-41 -66 -76 -108t-76.5 -65.5t-95 -33t-129.5 -9.5h-215q-100 0 -153.5 35t-53.5 101zM522 1030 q0 -45 76 -45h168q29 0 49.5 3t36.5 14.5t31.5 30t34.5 48.5l61 97q37 59 37 90q0 45 -76 45h-168q-29 0 -49.5 -4t-36.5 -14.5t-31.5 -29t-33.5 -48.5l-62 -97q-37 -59 -37 -90zM1153 135q0 66 51 150l82 135q39 66 75 107.5t78 65t95 33t129 9.5h215q100 0 153.5 -35 t53.5 -100q0 -66 -51 -150l-82 -135q-41 -66 -76 -107.5t-77 -65.5t-95 -33t-129 -9h-215q-100 0 -153.5 35t-53.5 100zM1362 199q0 -45 76 -45h168q29 0 49 3t36.5 14t32 29.5t33.5 49.5l62 96q37 59 36 90q0 45 -75 45h-168q-29 0 -49.5 -4t-37 -14t-31.5 -28.5t-34 -49.5 l-61 -96q-37 -59 -37 -90z" />
<glyph unicode="&#x26;" horiz-adv-x="1863" d="M-25 264q0 86 60 187l117 192q45 74 116.5 122t188.5 71q-31 63 -31 133q0 74 39 139l63 104q72 117 184.5 170.5t288.5 53.5h146q104 0 179 -20.5t123 -56.5t69.5 -85t21.5 -109q0 -39 -10 -86h-273q12 80 -46 120t-175 40h-55q-80 0 -133 -21.5t-88 -82.5l-37 -64 q-23 -39 -23 -86q0 -45 25 -94t82 -94l346 -277l98 160h275l-156 -264l-29 -45l220 -174l-113 -197l-246 190q-49 -49 -106.5 -85.5t-131 -59t-166.5 -34t-212 -11.5h-244q-174 0 -270.5 73.5t-96.5 190.5zM258 319q0 -55 50 -87.5t153 -32.5h203q121 0 204.5 30.5 t153.5 102.5l-424 332q-51 -4 -87 -11.5t-62.5 -22t-46 -35t-35.5 -48.5l-78 -131q-31 -53 -31 -97z" />
<glyph unicode="'" horiz-adv-x="481" d="M180 870l326 566h268l-346 -566h-248z" />
<glyph unicode="(" horiz-adv-x="1009" d="M-51 33q0 72 32.5 166t92.5 192l481 805q80 135 152.5 226t150.5 146.5t167 79t204 23.5h215l-113 -196h-125q-59 0 -108 -17.5t-94.5 -54.5t-90.5 -96.5t-96 -145.5l-489 -815q-47 -80 -73 -142.5t-26 -107.5q0 -72 52.5 -103.5t164.5 -31.5h97l-115 -197h-96 q-188 0 -285.5 69t-97.5 200z" />
<glyph unicode=")" horiz-adv-x="1009" d="M-434 -236l112 197h125q59 0 108.5 17.5t94.5 54.5t90 96t97 145l489 816q47 80 72.5 142t25.5 107q0 72 -52 104t-165 32h-96l115 196h96q188 0 285.5 -68.5t97.5 -199.5q0 -72 -33 -166t-92 -193l-481 -804q-80 -135 -153 -226.5t-150.5 -146.5t-167.5 -79t-203 -24 h-215z" />
<glyph unicode="*" horiz-adv-x="950" d="M311 1051l72 131h192l-77 168l149 43l78 -168l190 168l101 -82l-152 -129h213l-73 -131h-197l78 -166l-150 -43l-82 172l-211 -183l-96 84l158 136h-193z" />
<glyph unicode="+" horiz-adv-x="1411" d="M82 621l117 210h419l185 343h274l-186 -343h438l-121 -210h-432l-184 -342h-270l184 342h-424z" />
<glyph unicode="," horiz-adv-x="657" d="M-322 -342l205 342h-112l153 268h299l-129 -221q-59 -104 -133 -207.5t-139 -181.5h-144z" />
<glyph unicode="-" horiz-adv-x="1105" d="M78 621l133 210h817l-131 -210h-819z" />
<glyph unicode="." horiz-adv-x="657" d="M-225 0l153 268h299l-155 -268h-297z" />
<glyph unicode="/" horiz-adv-x="1177" d="M-346 0l1569 1436h301l-1569 -1436h-301z" />
<glyph unicode="0" horiz-adv-x="1898" d="M-72 272q0 150 127 355l205 338q88 143 164 235t165 144.5t202.5 72t275.5 19.5h489q199 0 300.5 -69t101.5 -202q0 -147 -127 -356l-205 -336q-88 -145 -165 -236.5t-166 -144.5t-202.5 -72.5t-273.5 -19.5h-489q-199 0 -300.5 69.5t-101.5 202.5zM209 334 q0 -72 59.5 -103.5t175.5 -31.5h394q100 0 171.5 11t130 44t111 94.5t113.5 159.5l213 344q100 162 100 252q0 72 -59 103.5t-176 31.5h-395q-98 0 -170 -12.5t-131.5 -46t-111.5 -94t-112 -156.5l-213 -344q-100 -162 -100 -252z" />
<glyph unicode="1" horiz-adv-x="952" d="M119 954l141 240l729 242h228l-828 -1436h-268l682 1182z" />
<glyph unicode="2" horiz-adv-x="1695" d="M-276 0l147 256q55 98 111.5 163.5t122 108.5t144.5 70t181 49l768 170q53 12 90 22.5t64.5 24t48 34t39.5 50.5l49 82q41 66 41 113q0 45 -40 70.5t-132 25.5h-391q-152 0 -232 -37t-125 -115l-49 -83h-266l51 90q53 92 112.5 156.5t135.5 105.5t171 60.5t222 19.5h473 q182 0 265 -68t83 -166q0 -88 -57 -186l-88 -150q-37 -61 -74 -100t-84 -65.5t-109.5 -45t-150.5 -37.5l-747 -159q-80 -16 -135.5 -32.5t-96.5 -39t-70.5 -52.5t-56.5 -75l-35 -61h1237l-114 -199h-1503z" />
<glyph unicode="3" horiz-adv-x="1572" d="M-358 0l114 199h885q70 0 121 7t90 23.5t68.5 46t58.5 76.5l57 92q37 61 37 103q0 82 -149 82h-654l115 198h514q98 0 168 7.5t119 25t81.5 45t59.5 68.5l51 84q33 53 33 90q0 41 -37 65.5t-114 24.5h-906l115 199h881q178 0 262 -64.5t84 -165.5q0 -86 -58 -182 l-73 -125q-47 -80 -114 -129t-187 -63q43 -18 67.5 -48t24.5 -77q0 -35 -16.5 -83t-53.5 -108l-69 -112q-47 -76 -97.5 -129.5t-118 -86t-155.5 -48t-207 -15.5h-997z" />
<glyph unicode="4" horiz-adv-x="1732" d="M-127 338l68 117l1183 981h340l-1095 -908h684l196 338h267l-197 -338h272l-114 -190h-267l-194 -338h-268l194 338h-1069z" />
<glyph unicode="5" horiz-adv-x="1609" d="M-287 0l115 199h864q88 0 147.5 13t102.5 38.5t76 64.5t63 91l68 108q45 70 45 115q0 74 -129 73h-426q-80 0 -136.5 -4t-96 -15t-69.5 -30.5t-58 -48.5h-240l481 832h1368l-125 -199h-1089l-228 -391q53 29 124 42t165 13h432q145 0 225.5 -55t80.5 -156q0 -94 -72 -213 l-72 -119q-55 -90 -105 -157.5t-121 -112.5t-171.5 -66.5t-253.5 -21.5h-965z" />
<glyph unicode="6" horiz-adv-x="1730" d="M-82 264q0 127 98 293l246 408q86 145 164 236t169 143.5t205.5 72t276.5 19.5h862l-129 -197h-757q-98 0 -171 -12.5t-132.5 -46t-113.5 -94t-114 -156.5l-51 -84q47 23 111.5 35t158.5 12h445q111 0 186.5 -19.5t122.5 -54.5t68.5 -81t21.5 -99q0 -51 -17.5 -106.5 t-47.5 -108.5l-60 -107q-55 -98 -114.5 -159.5t-132 -97t-159.5 -48t-198 -12.5h-543q-199 0 -297 70.5t-98 193.5zM195 315q0 -119 204 -118h471q74 0 126.5 8t92 28.5t70.5 54.5t62 87l43 76q43 74 43 124q0 119 -207 119h-471q-74 0 -126 -8t-91 -28.5t-70 -55.5t-61 -86 l-45 -76q-41 -68 -41 -125z" />
<glyph unicode="7" horiz-adv-x="1464" d="M-168 -2l1444 1239h-965l115 199h1346l-64 -119l-1536 -1319h-340z" />
<glyph unicode="8" horiz-adv-x="1734" d="M-147 231q0 78 47 156l86 145q63 106 152 166t198 66q-57 63 -57 135q0 70 51 154l80 129q37 61 85 108t113.5 80t151.5 49.5t201 16.5h557q166 0 253 -62.5t87 -165.5q0 -78 -52 -166l-59 -104q-49 -88 -116.5 -135t-178.5 -74q41 -25 63.5 -57.5t22.5 -79.5 q0 -72 -53 -160l-111 -182q-37 -66 -87 -113t-119.5 -77.5t-159.5 -45t-209 -14.5h-557q-104 0 -178 18.5t-121 49t-68.5 72.5t-21.5 91zM127 293q0 -43 41 -69.5t139 -26.5h549q125 0 197.5 42t120.5 119l51 86q35 57 35 101q0 45 -41 71.5t-134 26.5h-553 q-125 0 -199.5 -42t-117.5 -120l-63 -108q-25 -43 -25 -80zM549 936q0 -41 40 -68.5t136 -27.5h471q125 0 199.5 43t117.5 118l31 48q33 55 33 96q0 43 -36 68.5t-111 25.5h-502q-129 0 -201 -44t-117 -118l-35 -59q-27 -47 -26 -82z" />
<glyph unicode="9" horiz-adv-x="1730" d="M-209 0l129 197h752q98 0 170.5 12t132 46t114 94.5t113.5 156.5l51 84q-47 -23 -111.5 -35t-158.5 -12h-444q-111 0 -187 19.5t-123 54t-68.5 80.5t-21.5 100q0 51 17.5 106t48.5 109l59 106q55 98 114.5 159.5t132.5 97.5t160 48.5t197 12.5h543q203 0 301 -70t98 -192 q0 -125 -102 -295l-246 -408q-86 -145 -163.5 -236.5t-169 -143.5t-206 -71.5t-276.5 -19.5h-856zM418 860q0 -119 207 -119h471q74 0 126 8.5t91 29t69.5 54t61.5 87.5l45 75q41 68 41 125q0 119 -205 119h-471q-74 0 -126 -8t-92 -28.5t-70.5 -55.5t-61.5 -86l-43 -76 q-43 -74 -43 -125z" />
<glyph unicode=":" horiz-adv-x="677" d="M-225 0l153 268h299l-155 -268h-297zM250 819l153 268h299l-155 -268h-297z" />
<glyph unicode=";" horiz-adv-x="677" d="M-322 -342l205 342h-112l153 268h299l-129 -221q-59 -104 -133 -207.5t-139 -181.5h-144zM244 819l153 268h299l-155 -268h-297z" />
<glyph unicode="&#x3c;" horiz-adv-x="1437" d="M104 623l111 204l1210 379l-159 -278l-785 -238l604 -246l-114 -200z" />
<glyph unicode="=" horiz-adv-x="1476" d="M0 410l117 211h1126l-121 -211h-1122zM229 831l117 211h1131l-121 -211h-1127z" />
<glyph unicode="&#x3e;" horiz-adv-x="1437" d="M12 244l160 278l784 238l-604 246l115 200l866 -379l-110 -204z" />
<glyph unicode="?" horiz-adv-x="1636" d="M244 1004l65 114q47 82 101.5 142.5t127 99.5t170 57.5t230.5 18.5h473q180 0 262 -66.5t82 -165.5q0 -88 -59 -188l-92 -150q-37 -61 -73 -101t-74 -64.5t-79 -39t-90 -22.5l-297 -53q-53 -10 -106.5 -30.5t-87.5 -80.5l-35 -61h-268l86 151q31 51 65.5 86t74.5 56.5 t85 35t94 23.5l270 55q41 8 73 17.5t56.5 24t45 35t38.5 50.5l52 82q20 33 31.5 61.5t11.5 53.5q0 43 -40 68.5t-130 25.5h-392q-152 0 -230.5 -37t-125.5 -115l-49 -83h-266zM270 0l152 268h299l-154 -268h-297z" />
<glyph unicode="@" horiz-adv-x="1970" d="M-57 285q0 154 131 370l176 289q92 150 172 246t172 150.5t211 75t287 20.5h657q180 0 256 -52.5t76 -136.5q0 -53 -24.5 -114.5t-65.5 -126.5l-367 -617h-733q-88 0 -149.5 15.5t-99.5 43t-55.5 64.5t-17.5 78q0 35 11.5 72.5t31.5 74.5l29 49q37 61 77 103.5t90 68 t112.5 37t146.5 11.5h539q86 0 129 23.5t75 80.5q29 51 29 82q0 35 -33.5 49t-109.5 14h-641q-111 0 -189 -10t-141 -44t-119.5 -98.5t-122.5 -170.5l-198 -326q-113 -180 -113 -278q0 -78 67.5 -113t198.5 -35h1135l-109 -180h-1104q-205 0 -311 72.5t-106 212.5zM817 641 q0 -35 38 -53.5t124 -18.5h518l180 299q-33 -23 -74.5 -33t-117.5 -10h-416q-55 0 -88 -3t-54.5 -12t-35.5 -25.5t-31 -41.5l-16 -28q-27 -47 -27 -74z" />
<glyph unicode="A" horiz-adv-x="1875" d="M-428 0l1683 1436h168l41 -1436h-252l-8 369h-653q-109 0 -195 -18.5t-163 -86.5l-316 -264h-305zM485 522q49 23 109.5 34t146.5 11h459l-8 537z" />
<glyph unicode="B" horiz-adv-x="1869" d="M-276 0l827 1436h1044q172 0 260.5 -64.5t88.5 -167.5q0 -84 -58 -174l-63 -102q-43 -70 -112 -119t-185 -61q76 -18 122 -61.5t46 -115.5q0 -82 -66 -192l-59 -100q-47 -78 -102.5 -131.5t-127 -86t-166 -47t-217.5 -14.5h-1232zM104 199h902q121 0 196.5 27.5 t128.5 115.5l49 82q47 74 47 125q0 98 -198 98h-594q-80 0 -136.5 -7t-98.5 -26.5t-73.5 -55.5t-64.5 -93zM453 801q94 47 278 47h526q129 0 203 30.5t113 98.5l43 61q39 59 39 105q0 47 -41 71.5t-113 24.5h-794z" />
<glyph unicode="C" horiz-adv-x="1675" d="M-72 272q0 150 127 355l205 338q88 143 163 235t162 144.5t198.5 72t273.5 19.5h880l-125 -197h-774q-98 0 -168.5 -12.5t-128 -46t-108.5 -94t-111 -156.5l-213 -344q-51 -82 -74.5 -143.5t-23.5 -108.5q0 -72 59.5 -103.5t175.5 -31.5h834l-125 -199h-825 q-197 0 -299.5 69.5t-102.5 202.5z" />
<glyph unicode="D" horiz-adv-x="1988" d="M-276 0l827 1436h891q150 0 256 -26t173.5 -73t99.5 -112.5t32 -145.5q0 -82 -30.5 -175t-90.5 -193l-121 -195q-86 -141 -175 -239.5t-212 -160t-294 -89t-418 -27.5h-938zM104 199h684q123 0 226.5 17t192.5 60t164 115t140 180l88 144q123 193 123 311 q0 113 -105.5 163t-309.5 50h-600z" />
<glyph unicode="E" horiz-adv-x="1648" d="M-276 0l827 1436h1376l-115 -197h-1105l-242 -420q57 27 129 39t158 12h714l-112 -198h-639q-59 0 -119.5 -2t-116 -14.5t-100.5 -38t-74 -74.5l-201 -344h1196l-114 -199h-1462z" />
<glyph unicode="F" horiz-adv-x="1599" d="M-276 0l827 1436h1364l-115 -197h-1093l-279 -481q57 27 135 39t154 12h743l-114 -199h-670q-55 0 -115.5 -1t-116 -13t-100.5 -39t-72 -76l-280 -481h-268z" />
<glyph unicode="G" horiz-adv-x="1955" d="M-72 272q0 150 127 355l205 338q90 141 166 233t162 144.5t196.5 73t272.5 20.5h1028l-125 -197h-922q-98 0 -168.5 -12.5t-128 -46t-108.5 -94t-111 -156.5l-213 -344q-100 -162 -100 -252q0 -72 59.5 -103.5t175.5 -31.5h476q100 0 169.5 11t126 44t107.5 93.5 t113 160.5l61 98h-625l121 197h897l-194 -330q-88 -141 -163 -233.5t-163 -145.5t-199.5 -73.5t-271.5 -20.5h-569q-199 0 -300.5 69.5t-101.5 202.5z" />
<glyph unicode="H" horiz-adv-x="1859" d="M-276 0l827 1436h268l-352 -611h1034l354 611h269l-830 -1436h-268l363 627h-1037l-360 -627h-268z" />
<glyph unicode="I" horiz-adv-x="548" d="M-276 0l827 1436h268l-827 -1436h-268z" />
<glyph unicode="J" horiz-adv-x="1445" d="M-182 244q0 43 14 91t45 97l125 203h252l-115 -189q-55 -92 -55 -147q0 -100 170 -100h242q66 0 117 14t99 52t96 103.5t110 170.5l524 897h268l-532 -928q-74 -129 -134.5 -225.5t-136.5 -159t-181 -93t-271 -30.5h-330q-145 0 -226 68.5t-81 175.5z" />
<glyph unicode="K" horiz-adv-x="1761" d="M-276 0l827 1436h268l-387 -672l1221 672h377l-1164 -639l564 -797h-295l-476 682l-403 -221l-264 -461h-268z" />
<glyph unicode="L" horiz-adv-x="1490" d="M-276 0l827 1436h268l-715 -1237h1108l-112 -199h-1376z" />
<glyph unicode="M" horiz-adv-x="2377" d="M-274 0l825 1436h270l103 -1153l1368 1153h348l-830 -1436h-268l637 1096l-1298 -1096h-168l-105 1079l-626 -1079h-256z" />
<glyph unicode="N" horiz-adv-x="1918" d="M-276 0l827 1436h244l465 -1147l665 1147h258l-829 -1436h-234l-475 1147l-663 -1147h-258z" />
<glyph unicode="O" d="M-72 272q0 150 127 355l205 338q90 141 167 233t166 144.5t200.5 73t273.5 20.5h592q199 0 300 -69t101 -202q0 -147 -127 -356l-204 -336q-90 -143 -167 -234.5t-166 -144.5t-202 -73.5t-272 -20.5h-592q-199 0 -300.5 69.5t-101.5 202.5zM209 334q0 -72 59.5 -103.5 t175.5 -31.5h496q100 0 172 11t131.5 44t111.5 93.5t111 160.5l213 344q100 162 101 252q0 72 -59.5 103.5t-176.5 31.5h-497q-98 0 -170 -12.5t-132.5 -46t-112.5 -94t-110 -156.5l-213 -344q-100 -162 -100 -252z" />
<glyph unicode="P" horiz-adv-x="1714" d="M-276 0l827 1436h965q180 0 268 -63.5t88 -172.5t-86 -246l-125 -198q-51 -80 -105.5 -136.5t-131 -93.5t-183 -54t-260.5 -17h-477q-74 0 -126 -7.5t-92 -27t-71 -52t-59 -83.5l-164 -285h-268zM342 606q49 31 114.5 40t141.5 9h416q86 0 146.5 5.5t106.5 23.5t82.5 53 t73.5 97l90 143q63 100 64 160q0 53 -41 77.5t-117 24.5h-712z" />
<glyph unicode="Q" d="M-72 272q0 150 127 355l205 338q90 141 167 233t166 144.5t200.5 73t273.5 20.5h592q199 0 300 -69t101 -202q0 -147 -127 -356l-204 -336q-90 -143 -167 -234.5t-166 -144.5t-202 -73.5t-272 -20.5h-187l-33 -55q-45 -74 -93 -127.5t-110.5 -89t-144.5 -53t-194 -17.5 h-215l114 184h127q104 0 160.5 26t97.5 93l23 39h-137q-199 0 -300.5 69.5t-101.5 202.5zM209 334q0 -72 59.5 -103.5t175.5 -31.5h146l72 114h266l-70 -114h82q100 0 172 11t131.5 44t111.5 93.5t111 160.5l213 344q100 162 101 252q0 72 -59.5 103.5t-176.5 31.5h-497 q-98 0 -170 -12.5t-132.5 -46t-112.5 -94t-110 -156.5l-213 -344q-100 -162 -100 -252z" />
<glyph unicode="R" horiz-adv-x="1832" d="M-276 0l827 1436h956q180 0 267.5 -66.5t87.5 -177.5q0 -106 -78 -238l-76 -125q-49 -84 -99 -141t-112.5 -94t-145.5 -54.5t-200 -21.5l270 -518h-276l-271 518h-331q-74 0 -127.5 -7t-93 -26.5t-70.5 -52.5t-59 -84l-201 -348h-268zM381 670q49 31 114.5 41t141.5 10 h442q82 0 140.5 5t101.5 21.5t74.5 47t62.5 84.5l62 104q29 47 42 86t13 68q0 102 -162 102h-706z" />
<glyph unicode="S" horiz-adv-x="1710" d="M-270 0l125 199h976q66 0 115 6t87 23.5t66.5 48t53.5 79.5q41 72 41 119q0 78 -137 109l-557 108q-145 29 -215 92.5t-70 153.5q0 78 55 174l39 66q43 76 94.5 125t118 78.5t152.5 42t200 12.5h1012l-125 -197h-938q-61 0 -105 -7t-75 -24.5t-54.5 -43t-45.5 -62.5 q-41 -66 -41 -109q0 -51 51 -79.5t147 -47.5l496 -94q283 -53 283 -235q0 -84 -66 -203l-63 -105q-41 -72 -92.5 -115.5t-120 -69.5t-158.5 -35t-213 -9h-1036z" />
<glyph unicode="T" horiz-adv-x="1728" d="M301 0l715 1239h-711l115 197h1687l-114 -197h-707l-717 -1239h-268z" />
<glyph unicode="U" horiz-adv-x="1853" d="M-41 276q0 68 26.5 150t82.5 178l497 832h271l-514 -865q-45 -72 -65.5 -128t-20.5 -99q0 -78 62 -111.5t169 -33.5h348q90 0 156.5 12t123 47t107.5 97.5t109 160.5l551 920h270l-561 -947q-86 -139 -157 -233t-151.5 -151.5t-185 -81t-254.5 -23.5h-477 q-190 0 -288.5 71.5t-98.5 204.5z" />
<glyph unicode="V" horiz-adv-x="1765" d="M397 0l11 1436h237l-8 -1086l1225 1086h323l-1634 -1436h-154z" />
<glyph unicode="W" horiz-adv-x="2508" d="M135 0l295 1436h248l-223 -1047l1091 1047h193l-117 -1047l985 1047h289l-1366 -1436h-193l119 1081l-1141 -1081h-180z" />
<glyph unicode="X" horiz-adv-x="1746" d="M-442 0l1151 760l-312 676h271l254 -549l833 549h373l-1120 -738l323 -698h-272l-264 573l-869 -573h-368z" />
<glyph unicode="Y" horiz-adv-x="1810" d="M313 0l320 557l-244 879h248l201 -717l1036 717h332l-1317 -910l-307 -526h-269z" />
<glyph unicode="Z" horiz-adv-x="1628" d="M-371 0l60 109l1697 1130h-1083l115 197h1534l-60 -109l-1691 -1128h1151l-115 -199h-1608z" />
<glyph unicode="[" horiz-adv-x="1007" d="M-301 -236l1139 1907h526l-113 -196h-250l-905 -1514h330l-115 -197h-612z" />
<glyph unicode="\" horiz-adv-x="1472" d="M426 1436h227l381 -1436h-227z" />
<glyph unicode="]" horiz-adv-x="1009" d="M-356 -236l112 197h250l905 1514h-329l114 196h613l-1139 -1907h-526z" />
<glyph unicode="^" horiz-adv-x="1622" d="M86 510l129 219l600 178l559 -217l-114 -180l-519 201z" />
<glyph unicode="_" horiz-adv-x="1603" d="M-418 -313l133 211h1313l-131 -211h-1315z" />
<glyph unicode="`" horiz-adv-x="1007" d="M201 1688l98 155l625 -192l-93 -146z" />
<glyph unicode="a" horiz-adv-x="1892" d="M-102 270q0 49 16 100.5t45 104.5l37 66q49 86 107.5 145t131 94t161.5 50.5t202 15.5h752q117 0 179 27.5t107 105.5q51 84 52 137q0 59 -58.5 91t-193.5 32h-922l123 197h883q125 0 211 -18.5t139 -52.5t76.5 -81t23.5 -104q0 -72 -33.5 -157t-87.5 -177l-528 -846 h-983q-121 0 -204 21.5t-136 58.5t-76.5 86t-23.5 104zM176 317q0 -118 232 -118h4h759l322 510q-43 -33 -107.5 -47.5t-168.5 -14.5h-623q-76 0 -129 -7t-91 -22.5t-64.5 -41t-49.5 -64.5l-31 -51q-53 -88 -53 -144z" />
<glyph unicode="b" horiz-adv-x="1869" d="M-276 0l827 1436h1044q172 0 260.5 -64.5t88.5 -167.5q0 -84 -58 -174l-63 -102q-43 -70 -112 -119t-185 -61q76 -18 122 -61.5t46 -115.5q0 -82 -66 -192l-59 -100q-47 -78 -102.5 -131.5t-127 -86t-166 -47t-217.5 -14.5h-1232zM104 199h902q121 0 196.5 27.5 t128.5 115.5l49 82q47 74 47 125q0 98 -198 98h-594q-80 0 -136.5 -7t-98.5 -26.5t-73.5 -55.5t-64.5 -93zM453 801q94 47 278 47h526q129 0 203 30.5t113 98.5l43 61q39 59 39 105q0 47 -41 71.5t-113 24.5h-794z" />
<glyph unicode="c" horiz-adv-x="1675" d="M-72 272q0 150 127 355l205 338q88 143 163 235t162 144.5t198.5 72t273.5 19.5h880l-125 -197h-774q-98 0 -168.5 -12.5t-128 -46t-108.5 -94t-111 -156.5l-213 -344q-51 -82 -74.5 -143.5t-23.5 -108.5q0 -72 59.5 -103.5t175.5 -31.5h834l-125 -199h-825 q-197 0 -299.5 69.5t-102.5 202.5z" />
<glyph unicode="d" horiz-adv-x="1988" d="M-276 0l827 1436h891q150 0 256 -26t173.5 -73t99.5 -112.5t32 -145.5q0 -82 -30.5 -175t-90.5 -193l-121 -195q-86 -141 -175 -239.5t-212 -160t-294 -89t-418 -27.5h-938zM104 199h684q123 0 226.5 17t192.5 60t164 115t140 180l88 144q123 193 123 311 q0 113 -105.5 163t-309.5 50h-600z" />
<glyph unicode="e" horiz-adv-x="1648" d="M-276 0l827 1436h1376l-115 -197h-1105l-242 -420q57 27 129 39t158 12h714l-112 -198h-639q-59 0 -119.5 -2t-116 -14.5t-100.5 -38t-74 -74.5l-201 -344h1196l-114 -199h-1462z" />
<glyph unicode="f" horiz-adv-x="1599" d="M-276 0l827 1436h1364l-115 -197h-1093l-279 -481q57 27 135 39t154 12h743l-114 -199h-670q-55 0 -115.5 -1t-116 -13t-100.5 -39t-72 -76l-280 -481h-268z" />
<glyph unicode="g" horiz-adv-x="1955" d="M-72 272q0 150 127 355l205 338q90 141 166 233t162 144.5t196.5 73t272.5 20.5h1028l-125 -197h-922q-98 0 -168.5 -12.5t-128 -46t-108.5 -94t-111 -156.5l-213 -344q-100 -162 -100 -252q0 -72 59.5 -103.5t175.5 -31.5h476q100 0 169.5 11t126 44t107.5 93.5 t113 160.5l61 98h-625l121 197h897l-194 -330q-88 -141 -163 -233.5t-163 -145.5t-199.5 -73.5t-271.5 -20.5h-569q-199 0 -300.5 69.5t-101.5 202.5z" />
<glyph unicode="h" horiz-adv-x="1859" d="M-276 0l827 1436h268l-352 -611h1034l354 611h269l-830 -1436h-268l363 627h-1037l-360 -627h-268z" />
<glyph unicode="i" horiz-adv-x="548" d="M-276 0l827 1436h268l-827 -1436h-268z" />
<glyph unicode="j" horiz-adv-x="1445" d="M-182 244q0 43 14 91t45 97l125 203h252l-115 -189q-55 -92 -55 -147q0 -100 170 -100h242q66 0 117 14t99 52t96 103.5t110 170.5l524 897h268l-532 -928q-74 -129 -134.5 -225.5t-136.5 -159t-181 -93t-271 -30.5h-330q-145 0 -226 68.5t-81 175.5z" />
<glyph unicode="k" horiz-adv-x="1761" d="M-276 0l827 1436h268l-387 -672l1221 672h377l-1164 -639l564 -797h-295l-476 682l-403 -221l-264 -461h-268z" />
<glyph unicode="l" horiz-adv-x="1490" d="M-276 0l827 1436h268l-715 -1237h1108l-112 -199h-1376z" />
<glyph unicode="m" horiz-adv-x="2805" d="M-272 0l819 1436h233l-26 -56q66 20 149.5 27.5t188.5 7.5h251q164 0 242 -40t105 -107q57 47 112.5 76.5t117.5 45t137 20.5t171 5h248q193 0 292 -72.5t99 -201.5q0 -115 -84 -260l-510 -881h-268l516 901q63 109 64 182q0 135 -222 136h-176q-111 0 -188.5 -17.5 t-145 -70t-135 -147.5t-157.5 -251l-424 -733h-269l518 899q63 109 64 182q0 72 -56.5 105t-160.5 33h-182q-111 0 -188 -17.5t-144.5 -70t-136 -147.5t-158.5 -251l-428 -733h-268z" />
<glyph unicode="n" horiz-adv-x="1918" d="M-276 0l827 1436h244l465 -1147l665 1147h258l-829 -1436h-234l-475 1147l-663 -1147h-258z" />
<glyph unicode="o" d="M-72 272q0 150 127 355l205 338q90 141 167 233t166 144.5t200.5 73t273.5 20.5h592q199 0 300 -69t101 -202q0 -147 -127 -356l-204 -336q-90 -143 -167 -234.5t-166 -144.5t-202 -73.5t-272 -20.5h-592q-199 0 -300.5 69.5t-101.5 202.5zM209 334q0 -72 59.5 -103.5 t175.5 -31.5h496q100 0 172 11t131.5 44t111.5 93.5t111 160.5l213 344q100 162 101 252q0 72 -59.5 103.5t-176.5 31.5h-497q-98 0 -170 -12.5t-132.5 -46t-112.5 -94t-110 -156.5l-213 -344q-100 -162 -100 -252z" />
<glyph unicode="p" horiz-adv-x="1714" d="M-276 0l827 1436h965q180 0 268 -63.5t88 -172.5t-86 -246l-125 -198q-51 -80 -105.5 -136.5t-131 -93.5t-183 -54t-260.5 -17h-477q-74 0 -126 -7.5t-92 -27t-71 -52t-59 -83.5l-164 -285h-268zM342 606q49 31 114.5 40t141.5 9h416q86 0 146.5 5.5t106.5 23.5t82.5 53 t73.5 97l90 143q63 100 64 160q0 53 -41 77.5t-117 24.5h-712z" />
<glyph unicode="q" d="M-72 272q0 150 127 355l205 338q90 141 167 233t166 144.5t200.5 73t273.5 20.5h592q199 0 300 -69t101 -202q0 -147 -127 -356l-204 -336q-90 -143 -167 -234.5t-166 -144.5t-202 -73.5t-272 -20.5h-187l-33 -55q-45 -74 -93 -127.5t-110.5 -89t-144.5 -53t-194 -17.5 h-215l114 184h127q104 0 160.5 26t97.5 93l23 39h-137q-199 0 -300.5 69.5t-101.5 202.5zM209 334q0 -72 59.5 -103.5t175.5 -31.5h146l72 114h266l-70 -114h82q100 0 172 11t131.5 44t111.5 93.5t111 160.5l213 344q100 162 101 252q0 72 -59.5 103.5t-176.5 31.5h-497 q-98 0 -170 -12.5t-132.5 -46t-112.5 -94t-110 -156.5l-213 -344q-100 -162 -100 -252z" />
<glyph unicode="r" horiz-adv-x="1832" d="M-276 0l827 1436h956q180 0 267.5 -66.5t87.5 -177.5q0 -106 -78 -238l-76 -125q-49 -84 -99 -141t-112.5 -94t-145.5 -54.5t-200 -21.5l270 -518h-276l-271 518h-331q-74 0 -127.5 -7t-93 -26.5t-70.5 -52.5t-59 -84l-201 -348h-268zM381 670q49 31 114.5 41t141.5 10 h442q82 0 140.5 5t101.5 21.5t74.5 47t62.5 84.5l62 104q29 47 42 86t13 68q0 102 -162 102h-706z" />
<glyph unicode="s" horiz-adv-x="1710" d="M-270 0l125 199h976q66 0 115 6t87 23.5t66.5 48t53.5 79.5q41 72 41 119q0 78 -137 109l-557 108q-145 29 -215 92.5t-70 153.5q0 78 55 174l39 66q43 76 94.5 125t118 78.5t152.5 42t200 12.5h1012l-125 -197h-938q-61 0 -105 -7t-75 -24.5t-54.5 -43t-45.5 -62.5 q-41 -66 -41 -109q0 -51 51 -79.5t147 -47.5l496 -94q283 -53 283 -235q0 -84 -66 -203l-63 -105q-41 -72 -92.5 -115.5t-120 -69.5t-158.5 -35t-213 -9h-1036z" />
<glyph unicode="t" horiz-adv-x="1728" d="M301 0l715 1239h-711l115 197h1687l-114 -197h-707l-717 -1239h-268z" />
<glyph unicode="u" horiz-adv-x="1853" d="M-41 276q0 68 26.5 150t82.5 178l497 832h271l-514 -865q-45 -72 -65.5 -128t-20.5 -99q0 -78 62 -111.5t169 -33.5h348q90 0 156.5 12t123 47t107.5 97.5t109 160.5l551 920h270l-561 -947q-86 -139 -157 -233t-151.5 -151.5t-185 -81t-254.5 -23.5h-477 q-190 0 -288.5 71.5t-98.5 204.5z" />
<glyph unicode="v" horiz-adv-x="1765" d="M397 0l11 1436h237l-8 -1086l1225 1086h323l-1634 -1436h-154z" />
<glyph unicode="w" horiz-adv-x="2508" d="M135 0l295 1436h248l-223 -1047l1091 1047h193l-117 -1047l985 1047h289l-1366 -1436h-193l119 1081l-1141 -1081h-180z" />
<glyph unicode="x" horiz-adv-x="1746" d="M-442 0l1151 760l-312 676h271l254 -549l833 549h373l-1120 -738l323 -698h-272l-264 573l-869 -573h-368z" />
<glyph unicode="y" horiz-adv-x="1810" d="M313 0l320 557l-244 879h248l201 -717l1036 717h332l-1317 -910l-307 -526h-269z" />
<glyph unicode="z" horiz-adv-x="1628" d="M-371 0l60 109l1697 1130h-1083l115 197h1534l-60 -109l-1691 -1128h1151l-115 -199h-1608z" />
<glyph unicode="{" horiz-adv-x="1892" d="M-102 270q0 49 16 100.5t45 104.5l37 66q49 86 107.5 145t131 94t161.5 50.5t202 15.5h752q117 0 179 27.5t107 105.5q51 84 52 137q0 59 -58.5 91t-193.5 32h-922l123 197h883q125 0 211 -18.5t139 -52.5t76.5 -81t23.5 -104q0 -72 -33.5 -157t-87.5 -177l-528 -846 h-983q-121 0 -204 21.5t-136 58.5t-76.5 86t-23.5 104zM176 317q0 -119 236 -118h759l322 510q-43 -33 -107.5 -47.5t-168.5 -14.5h-623q-76 0 -129 -7t-91 -22.5t-64.5 -41t-49.5 -64.5l-31 -51q-53 -88 -53 -144z" />
<glyph unicode="|" horiz-adv-x="1302" d="M537 -358v2201h225v-2201h-225z" />
<glyph unicode="}" horiz-adv-x="2805" d="M-272 0l819 1436h233l-26 -56q66 20 149.5 27.5t188.5 7.5h251q164 0 242 -40t105 -107q57 47 112.5 76.5t117.5 45t137 20.5t171 5h248q193 0 292 -72.5t99 -201.5q0 -115 -84 -260l-510 -881h-268l516 901q63 109 64 182q0 135 -222 136h-176q-111 0 -188.5 -17.5 t-145 -70t-135 -147.5t-157.5 -251l-424 -733h-269l518 899q63 109 64 182q0 72 -56.5 105t-160.5 33h-182q-111 0 -188 -17.5t-144.5 -70t-136 -147.5t-158.5 -251l-428 -733h-268z" />
<glyph unicode="~" horiz-adv-x="1429" d="M23 532l108 179q53 90 135 125.5t193 35.5q88 0 150.5 -31.5t115.5 -68.5q39 -29 77 -49.5t79 -20.5q43 0 69.5 16.5t48.5 51.5l64 102h229l-102 -172q-53 -92 -133 -130t-195 -38q-98 0 -162.5 34t-115.5 71q-35 25 -72 45t-76 20q-41 0 -69.5 -15t-51.5 -52l-61 -103 h-231z" />
<glyph unicode="&#xa1;" horiz-adv-x="745" d="M-184 0l618 1036h260l-596 -1036h-282zM477 1167l154 269h297l-152 -269h-299z" />
<glyph unicode="&#xa2;" horiz-adv-x="1705" d="M53 334q0 78 38 171t102 193l112 179q82 131 159 221t167 146t202.5 81t266.5 25h94l205 323h229l-205 -323h385l-120 -191h-580q-113 0 -190.5 -13t-139 -50t-115 -102.5t-118.5 -168.5l-94 -147q-109 -172 -109 -268q0 -72 59.5 -103t176.5 -31h675l-120 -190h-320 l-205 -328h-231l207 328h-121q-111 0 -188.5 17.5t-127 50t-72 79t-22.5 101.5z" />
<glyph unicode="&#xa3;" horiz-adv-x="1898" d="M-74 0q31 53 56 96q23 37 40 68t19 35h215l246 428h-248l108 198h254l80 140q84 145 159 237t163 144.5t200.5 71t274.5 18.5h270l-125 -197h-168q-98 0 -170.5 -12.5t-132 -46t-113 -94t-110.5 -156.5l-61 -105h567l-113 -198h-569l-246 -428h989l-112 -199h-1473z" />
<glyph unicode="&#xa4;" horiz-adv-x="1187" d="M88 350l121 123q-23 47 -42.5 110.5t-19.5 125.5q0 68 17.5 127t52.5 112l-129 129l143 144l129 -127q49 29 110.5 48t123.5 19q63 0 123.5 -19.5t111.5 -47.5l129 127l142 -146l-127 -129q31 -53 49 -112.5t18 -124.5q0 -61 -18 -124t-45 -110l123 -125l-142 -141 l-124 121q-51 -37 -113 -54.5t-127 -17.5q-70 0 -130.5 17.5t-111.5 52.5l-121 -119zM348 709q0 -53 16.5 -98.5t47.5 -80.5q33 -33 76.5 -53t101.5 -20q55 0 101 20.5t79 54t51.5 78.5t18.5 99q0 53 -17.5 98t-50.5 80t-78 55.5t-102 20.5t-102.5 -20.5t-76 -55.5t-48 -80 t-17.5 -98z" />
<glyph unicode="&#xa5;" horiz-adv-x="1898" d="M139 428l109 199h315l-223 809h248l200 -717l1037 717h332l-1172 -809h326l-113 -199h-416l-250 -428h-268l246 428h-371z" />
<glyph unicode="&#xa6;" horiz-adv-x="1302" d="M537 -358v870h225v-870h-225zM537 973v870h225v-870h-225z" />
<glyph unicode="&#xa7;" horiz-adv-x="1710" d="M-481 -500l125 199h977q66 0 114.5 6t86.5 23.5t67 48t53 80.5q41 72 41 118q0 78 -137 109l-557 109q-145 29 -215 92t-70 153q0 78 55 174l39 66q43 76 95 125q27 25 45 39q-23 43 -23 96q0 78 55 174l39 66q43 76 94.5 125t118 78.5t152.5 42t200 12.5h1012l-125 -197 h-938q-61 0 -105 -7t-75 -24.5t-54.5 -43t-45.5 -62.5q-41 -66 -41 -109q0 -51 51 -79.5t147 -47.5l496 -94q283 -53 283 -235q0 -84 -66 -203l-63 -105q-41 -72 -93 -116l-4 -2q14 -35 15 -74q0 -84 -66 -203l-63 -104q-41 -72 -92.5 -116t-120 -69.5t-158.5 -35t-213 -9.5 h-1036zM291 494q0 -51 51 -80t147 -47l496 -95q47 -10 86 -22q15 12 29 26q29 31 53 80q41 72 41 119q0 78 -137 109l-557 108q-35 6 -68 15q-31 -16 -54.5 -42t-45.5 -63q-41 -66 -41 -108z" />
<glyph unicode="&#xa8;" horiz-adv-x="983" d="M147 1581l132 221h221l-129 -221h-224zM545 1581l131 221h221l-129 -221h-223z" />
<glyph unicode="&#xa9;" d="M-66 260q0 145 127 356l211 349q86 141 163 233t165 145q92 55 200.5 74t274.5 19h606q385 0 385 -256q0 -74 -30.5 -165t-96.5 -196l-210 -346q-86 -141 -162 -232t-165 -145.5t-203 -75t-273 -20.5h-607q-197 0 -291 67.5t-94 192.5zM160 324q0 -86 69.5 -118 t200.5 -32h518q102 0 178 9.5t139.5 43t122 97t125.5 172.5l220 354q109 176 108 264q0 86 -69.5 118t-200.5 32h-520q-100 0 -177 -11.5t-141.5 -46.5t-123 -97t-122.5 -167l-219 -354q-109 -174 -108 -264zM557 537q0 70 59 163l82 136q41 68 77 108.5t76 64t90 31 t120 7.5h418l-99 -146h-327q-33 0 -57.5 -3t-46 -15.5t-41 -34t-42.5 -57.5l-57 -95q-29 -47 -36 -68.5t-7 -41.5q0 -23 18.5 -32t65.5 -9h362l-98 -146h-375q-88 0 -135 36t-47 102z" />
<glyph unicode="&#xaa;" horiz-adv-x="700" d="M72 977q0 78 39 129t100 81t137 42t150 12q0 86 -36 122t-102 36q-98 0 -155 -80l-96 59q41 61 105.5 95t156.5 34q123 0 190.5 -62.5t67.5 -209.5v-471h-121l-4 49q-29 -23 -78 -45.5t-104 -22.5q-47 0 -92.5 14.5t-80 44.5t-56 73t-21.5 100zM203 975q0 -61 43 -89 t88 -28q49 0 92 19.5t72 44.5v211q-55 0 -107.5 -8.5t-94.5 -27t-67.5 -48t-25.5 -74.5z" />
<glyph unicode="&#xab;" horiz-adv-x="1853" d="M119 623l104 192l815 348l-149 -289l-453 -198l316 -182l-117 -193zM934 623l104 192l815 348l-149 -289l-453 -198l316 -182l-117 -193z" />
<glyph unicode="&#xac;" horiz-adv-x="1490" d="M82 621l133 210h1194l-377 -630h-268l254 420h-936z" />
<glyph unicode="&#xad;" horiz-adv-x="1705" />
<glyph unicode="&#xae;" d="M-66 260q0 145 127 356l211 349q86 141 163 233t165 145q92 55 200.5 74t274.5 19h606q385 0 385 -256q0 -74 -30.5 -165t-96.5 -196l-210 -346q-86 -141 -162 -232t-165 -145.5t-203 -75t-273 -20.5h-607q-197 0 -291 67.5t-94 192.5zM160 324q0 -86 69.5 -118 t200.5 -32h518q102 0 178 9.5t139.5 43t122 97t125.5 172.5l220 354q109 176 108 264q0 86 -69.5 118t-200.5 32h-520q-100 0 -177 -11.5t-141.5 -46.5t-123 -97t-122.5 -167l-219 -354q-109 -174 -108 -264zM467 399l375 650h424q86 0 130 -36t44 -93q0 -27 -10.5 -53.5 t-26.5 -55.5l-31 -53q-43 -74 -87 -103.5t-120 -36.5l113 -219h-205l-108 213h-97q-53 0 -78.5 -10t-41.5 -41l-95 -162h-186zM860 750q8 2 23.5 4t38.5 2h137q61 0 86.5 8t44.5 39l20 35q16 29 17 43q0 20 -49 20h-234z" />
<glyph unicode="&#xaf;" horiz-adv-x="1179" d="M88 1610l90 164h981l-94 -164h-977z" />
<glyph unicode="&#xb0;" horiz-adv-x="1034" d="M274 1069q0 61 39 133l58 98q37 68 79 110t92 65.5t111.5 32t141.5 8.5h280q111 0 173.5 -42t62.5 -118q0 -61 -41 -131l-56 -97q-39 -68 -79.5 -110.5t-92 -66t-113 -32t-141.5 -8.5h-280q-111 0 -172.5 41t-61.5 117zM524 1122q0 -55 103 -55h194q43 0 73 10t52.5 28.5 t40 46.5t37.5 62q35 57 35 91q0 29 -24.5 42t-80.5 13h-192q-43 0 -73 -10.5t-52.5 -28.5t-40 -45t-37.5 -62q-35 -57 -35 -92z" />
<glyph unicode="&#xb1;" horiz-adv-x="1105" d="M63 0v137h979v-137h-979zM74 768v143h411v449h144v-449h411v-143h-411v-451h-144v451h-411z" />
<glyph unicode="&#xb2;" horiz-adv-x="614" d="M55 1221q47 78 104.5 117.5t149.5 39.5q98 0 157.5 -52t59.5 -138q0 -70 -35.5 -129.5t-80.5 -112.5l-140 -151h273v-107h-459v74q61 66 114.5 122t96.5 107q51 61 75.5 101.5t24.5 85.5t-25.5 67.5t-64.5 22.5q-41 0 -75.5 -21.5t-71.5 -81.5z" />
<glyph unicode="&#xb3;" horiz-adv-x="614" d="M51 819l101 58q33 -53 70.5 -73t74.5 -20q53 0 91 29t38 76q0 49 -41 75.5t-113 30.5v92q66 4 104 30t38 67q0 39 -32 63.5t-77 24.5q-86 0 -131 -88l-100 57q41 72 105.5 104.5t133.5 32.5q43 0 84 -12t73 -36.5t52.5 -59.5t20.5 -80q0 -47 -21.5 -84t-58.5 -62 q41 -23 65.5 -58.5t24.5 -94.5q0 -53 -22.5 -92t-58.5 -65.5t-82 -40t-91 -13.5q-70 0 -135.5 31.5t-112.5 107.5z" />
<glyph unicode="&#xb4;" horiz-adv-x="970" d="M102 1505l101 170l684 168l-109 -182z" />
<glyph unicode="&#xb5;" horiz-adv-x="1175" d="M164 -387v1364h160v-623q0 -135 61 -192.5t178 -57.5q94 0 157.5 38t90.5 91q14 29 16 68t2 74v602h160v-735q0 -70 13.5 -103t62.5 -33q33 0 55 9l25 -115q-23 -10 -54.5 -16.5t-52.5 -6.5q-70 0 -115.5 26t-70.5 95q-61 -63 -129 -92t-172 -29q-76 0 -136.5 24 t-99.5 71v-459h-151z" />
<glyph unicode="&#xb6;" horiz-adv-x="1036" d="M72 965q0 82 31.5 155.5t85 128t126 86t156.5 31.5h145v-1663h-145v862q-84 0 -156.5 32t-126 85t-85 126t-31.5 157zM754 -297v1663h147v-1663h-147z" />
<glyph unicode="&#xb7;" horiz-adv-x="694" d="M72 532l153 269h299l-155 -269h-297z" />
<glyph unicode="&#xb8;" horiz-adv-x="806" d="M145 -242l263 414h229l-260 -414h-232z" />
<glyph unicode="&#xb9;" horiz-adv-x="614" d="M86 1245l217 125h103v-680h-125v537l-140 -80z" />
<glyph unicode="&#xba;" horiz-adv-x="821" d="M72 1139q0 70 20.5 138.5t62.5 121.5t105.5 86t149.5 33t149.5 -33t105.5 -87.5t63.5 -123t21.5 -139.5q0 -72 -21.5 -139.5t-63.5 -122t-105.5 -87t-149.5 -32.5q-85 -1 -148 32q-94 53 -142 147.5t-48 205.5zM203 1139q0 -111 51 -191q27 -39 65.5 -61.5t90.5 -22.5 q51 0 90 22.5t65.5 61.5t39.5 87t13 102q0 51 -13 100t-39.5 87t-65.5 60.5t-90 22.5t-90 -22.5t-65 -60.5t-39 -86t-13 -99z" />
<glyph unicode="&#xbb;" horiz-adv-x="1853" d="M0 313l150 289l452 199l-315 182l116 193l517 -322l-105 -192zM815 313l150 289l452 199l-315 182l116 193l517 -322l-105 -192z" />
<glyph unicode="&#xbc;" horiz-adv-x="1515" d="M53 57l1307 1315l90 -94l-1319 -1311zM86 1245l217 125h103v-680h-125v537l-140 -80zM895 180v96l330 398h98v-404h84v-90h-84v-178h-125v178h-303zM1016 270h182v228z" />
<glyph unicode="&#xbd;" horiz-adv-x="1515" d="M25 57l1306 1315l90 -94l-1319 -1311zM66 1245l217 125h102v-680h-125v537l-139 -80zM891 532q47 78 104.5 118t149.5 40q98 0 157.5 -52t59.5 -138q0 -70 -36 -129.5t-81 -112.5l-139 -152h272v-106h-458v74q61 66 114 122t96 107q51 61 76 101t25 85t-25.5 68t-64.5 23 q-41 0 -76 -21.5t-72 -81.5z" />
<glyph unicode="&#xbe;" horiz-adv-x="1515" d="M51 819l101 58q33 -53 70.5 -73t74.5 -20q53 0 91 29t38 76q0 49 -41 75.5t-113 30.5v92q66 4 104 30t38 67q0 39 -32 63.5t-77 24.5q-86 0 -131 -88l-100 57q41 72 105.5 104.5t133.5 32.5q43 0 84 -12t73 -36.5t52.5 -59.5t20.5 -80q0 -47 -21.5 -84t-58.5 -62 q41 -23 65.5 -58.5t24.5 -94.5q0 -53 -22.5 -92t-58.5 -65.5t-82 -40t-91 -13.5q-70 0 -135.5 31.5t-112.5 107.5zM76 57l1306 1315l91 -94l-1319 -1311zM907 180v96l330 398h98v-404h84v-90h-84v-178h-125v178h-303zM1028 270h182v228z" />
<glyph unicode="&#xbf;" horiz-adv-x="1636" d="M-119 231q0 88 60 189l92 149q37 61 72.5 101.5t73.5 65t79 38.5t90 23l297 53q53 10 106.5 30.5t88.5 80.5l34 61h269l-86 -152q-31 -53 -66 -86.5t-74.5 -55t-85 -35t-94.5 -23.5l-270 -56q-41 -8 -73 -17t-56.5 -23.5t-45 -35t-38.5 -51.5l-51 -81q-20 -33 -31.5 -62 t-11.5 -53q0 -43 40 -68.5t130 -25.5h391q152 0 230.5 36.5t125.5 114.5l49 84h267l-66 -115q-47 -84 -101.5 -143t-127 -98t-170 -57.5t-230.5 -18.5h-473q-90 0 -155.5 17.5t-107.5 49t-61.5 73.5t-19.5 91zM915 1167l154 269h297l-152 -269h-299z" />
<glyph unicode="&#xc0;" horiz-adv-x="1875" d="M-428 0l1683 1436h168l41 -1436h-252l-8 369h-653q-109 0 -195 -18.5t-163 -86.5l-316 -264h-305zM485 522q49 23 109.5 34t146.5 11h459l-8 537zM985 1688l98 155l625 -192l-93 -146z" />
<glyph unicode="&#xc1;" horiz-adv-x="1875" d="M-428 0l1683 1436h168l41 -1436h-252l-8 369h-653q-109 0 -195 -18.5t-163 -86.5l-316 -264h-305zM485 522q49 23 109.5 34t146.5 11h459l-8 537zM1050 1505l101 170l684 168l-109 -182z" />
<glyph unicode="&#xc2;" horiz-adv-x="1875" d="M-428 0l1683 1436h168l41 -1436h-252l-8 369h-653q-109 0 -195 -18.5t-163 -86.5l-316 -264h-305zM485 522q49 23 109.5 34t146.5 11h459l-8 537zM867 1505l110 187l510 151l475 -184l-98 -154l-440 170z" />
<glyph unicode="&#xc3;" horiz-adv-x="1875" d="M-428 0l1683 1436h168l41 -1436h-252l-8 369h-653q-109 0 -195 -18.5t-163 -86.5l-316 -264h-305zM485 522q49 23 109.5 34t146.5 11h459l-8 537zM837 1532l97 154q47 72 114.5 103.5t163.5 31.5q70 0 122 -23.5t94 -53.5t81 -53.5t84 -23.5q41 0 66.5 14.5t48.5 51.5 l53 88h188l-86 -142q-47 -78 -116.5 -112.5t-171.5 -34.5q-76 0 -128.5 23.5t-93.5 53t-77.5 53.5t-81.5 24q-41 0 -68 -15.5t-49 -52.5l-51 -86h-189z" />
<glyph unicode="&#xc4;" horiz-adv-x="1875" d="M-428 0l1683 1436h168l41 -1436h-252l-8 369h-653q-109 0 -195 -18.5t-163 -86.5l-316 -264h-305zM485 522q49 23 109.5 34t146.5 11h459l-8 537zM1083 1581l132 221h221l-129 -221h-224zM1481 1581l131 221h221l-129 -221h-223z" />
<glyph unicode="&#xc5;" horiz-adv-x="1875" d="M-428 0l1683 1436h-28q-76 0 -120 28.5t-44 79.5q0 41 31 90l39 62q29 45 57.5 73.5t62 45t74.5 22.5t96 6h193q76 0 119 -28.5t43 -79.5q0 -39 -29 -90l-39 -62q-27 -47 -54.5 -75.5t-61 -44t-75.5 -21.5t-96 -6l41 -1436h-252l-8 369h-653q-109 0 -195 -18.5 t-163 -86.5l-316 -264h-305zM485 522q49 23 109.5 34t146.5 11h459l-8 537zM1255 1587q0 -35 64 -35h121q53 0 76.5 23.5t50.5 66.5q27 45 19.5 64.5t-62.5 19.5h-121q-53 0 -76.5 -20.5t-50.5 -63.5q-20 -33 -21 -55z" />
<glyph unicode="&#xc6;" horiz-adv-x="2881" d="M-276 2l1959 1434h1547l-115 -197h-1106l-242 -420q57 27 129 39t158 12h715l-113 -198h-639q-59 0 -119.5 -2t-116 -14.5t-100.5 -38t-73 -74.5l-201 -344h1196l-115 -199h-1462l211 369h-487q-109 0 -195 -18.5t-164 -86.5l-350 -262h-317zM743 522q49 23 109.5 34 t146.5 11h353l407 705z" />
<glyph unicode="&#xc7;" horiz-adv-x="1675" d="M-164 272q0 150 127 355l205 338q88 143 163 235t162 144.5t198.5 72t273.5 19.5h880l-125 -197h-774q-98 0 -168.5 -12.5t-128 -46t-109 -94t-110.5 -156.5l-213 -344q-51 -82 -74.5 -143.5t-23.5 -108.5q0 -72 59.5 -103.5t175.5 -31.5h834l-125 -199h-379l-152 -242 h-231l154 242h-217q-197 0 -299.5 69.5t-102.5 202.5z" />
<glyph unicode="&#xc8;" horiz-adv-x="1648" d="M-276 0l827 1436h1376l-115 -197h-1105l-242 -420q57 27 129 39t158 12h714l-112 -198h-639q-59 0 -119.5 -2t-116 -14.5t-100.5 -38t-74 -74.5l-201 -344h1196l-114 -199h-1462zM955 1688l98 155l625 -192l-93 -146z" />
<glyph unicode="&#xc9;" horiz-adv-x="1648" d="M-276 0l827 1436h1376l-115 -197h-1105l-242 -420q57 27 129 39t158 12h714l-112 -198h-639q-59 0 -119.5 -2t-116 -14.5t-100.5 -38t-74 -74.5l-201 -344h1196l-114 -199h-1462zM968 1505l101 170l684 168l-109 -182z" />
<glyph unicode="&#xca;" horiz-adv-x="1648" d="M-276 0l827 1436h1376l-115 -197h-1105l-242 -420q57 27 129 39t158 12h714l-112 -198h-639q-59 0 -119.5 -2t-116 -14.5t-100.5 -38t-74 -74.5l-201 -344h1196l-114 -199h-1462zM783 1505l110 187l510 151l475 -184l-98 -154l-440 170z" />
<glyph unicode="&#xcb;" horiz-adv-x="1648" d="M-276 0l827 1436h1376l-115 -197h-1105l-242 -420q57 27 129 39t158 12h714l-112 -198h-639q-59 0 -119.5 -2t-116 -14.5t-100.5 -38t-74 -74.5l-201 -344h1196l-114 -199h-1462zM952 1581l132 221h221l-129 -221h-224zM1350 1581l131 221h221l-129 -221h-223z" />
<glyph unicode="&#xcc;" horiz-adv-x="548" d="M-276 0l827 1436h268l-827 -1436h-268zM267 1688l98 155l625 -192l-93 -146z" />
<glyph unicode="&#xcd;" horiz-adv-x="548" d="M-276 0l827 1436h268l-827 -1436h-268zM493 1505l101 170l684 168l-109 -182z" />
<glyph unicode="&#xce;" horiz-adv-x="548" d="M-276 0l827 1436h268l-827 -1436h-268zM234 1505l110 187l510 151l475 -184l-98 -154l-440 170z" />
<glyph unicode="&#xcf;" horiz-adv-x="548" d="M-276 0l827 1436h268l-827 -1436h-268zM430 1581l132 221h221l-129 -221h-224zM828 1581l131 221h221l-129 -221h-223z" />
<glyph unicode="&#xd0;" horiz-adv-x="1994" d="M-270 0l376 655h-169l108 199h176l336 582h891q150 0 256 -26t174 -73t99.5 -112.5t31.5 -145.5q0 -82 -30.5 -175t-90.5 -193l-121 -195q-86 -141 -175 -239.5t-212 -160t-294 -89t-418 -27.5h-938zM111 199h684q123 0 226 17t192.5 60t164 115t140.5 180l88 144 q123 193 123 311q0 113 -105.5 163t-310.5 50h-600l-224 -385h455l-113 -199h-456z" />
<glyph unicode="&#xd1;" horiz-adv-x="1918" d="M-276 0l827 1436h244l465 -1147l665 1147h258l-829 -1436h-234l-475 1147l-663 -1147h-258zM835 1532l97 154q47 72 114.5 103.5t163.5 31.5q70 0 122 -23.5t94 -53.5t81 -53.5t84 -23.5q41 0 66.5 14.5t48.5 51.5l53 88h188l-86 -142q-47 -78 -116.5 -112.5 t-171.5 -34.5q-76 0 -128.5 23.5t-93.5 53t-77.5 53.5t-81.5 24q-41 0 -68 -15.5t-49 -52.5l-51 -86h-189z" />
<glyph unicode="&#xd2;" d="M-72 272q0 150 127 355l205 338q90 141 167 233t166 144.5t200.5 73t273.5 20.5h592q199 0 300 -69t101 -202q0 -147 -127 -356l-204 -336q-90 -143 -167 -234.5t-166 -144.5t-202 -73.5t-272 -20.5h-592q-199 0 -300.5 69.5t-101.5 202.5zM209 334q0 -72 59.5 -103.5 t175.5 -31.5h496q100 0 172 11t131.5 44t111.5 93.5t111 160.5l213 344q100 162 101 252q0 72 -59.5 103.5t-176.5 31.5h-497q-98 0 -170 -12.5t-132.5 -46t-112.5 -94t-110 -156.5l-213 -344q-100 -162 -100 -252zM1037 1688l98 155l625 -192l-93 -146z" />
<glyph unicode="&#xd3;" d="M-72 272q0 150 127 355l205 338q90 141 167 233t166 144.5t200.5 73t273.5 20.5h592q199 0 300 -69t101 -202q0 -147 -127 -356l-204 -336q-90 -143 -167 -234.5t-166 -144.5t-202 -73.5t-272 -20.5h-592q-199 0 -300.5 69.5t-101.5 202.5zM209 334q0 -72 59.5 -103.5 t175.5 -31.5h496q100 0 172 11t131.5 44t111.5 93.5t111 160.5l213 344q100 162 101 252q0 72 -59.5 103.5t-176.5 31.5h-497q-98 0 -170 -12.5t-132.5 -46t-112.5 -94t-110 -156.5l-213 -344q-100 -162 -100 -252zM1091 1505l101 170l684 168l-109 -182z" />
<glyph unicode="&#xd4;" d="M-72 272q0 150 127 355l205 338q90 141 167 233t166 144.5t200.5 73t273.5 20.5h592q199 0 300 -69t101 -202q0 -147 -127 -356l-204 -336q-90 -143 -167 -234.5t-166 -144.5t-202 -73.5t-272 -20.5h-592q-199 0 -300.5 69.5t-101.5 202.5zM209 334q0 -72 59.5 -103.5 t175.5 -31.5h496q100 0 172 11t131.5 44t111.5 93.5t111 160.5l213 344q100 162 101 252q0 72 -59.5 103.5t-176.5 31.5h-497q-98 0 -170 -12.5t-132.5 -46t-112.5 -94t-110 -156.5l-213 -344q-100 -162 -100 -252zM877 1505l110 187l510 151l475 -184l-98 -154l-440 170z " />
<glyph unicode="&#xd5;" d="M-72 272q0 150 127 355l205 338q90 141 167 233t166 144.5t200.5 73t273.5 20.5h592q199 0 300 -69t101 -202q0 -147 -127 -356l-204 -336q-90 -143 -167 -234.5t-166 -144.5t-202 -73.5t-272 -20.5h-592q-199 0 -300.5 69.5t-101.5 202.5zM209 334q0 -72 59.5 -103.5 t175.5 -31.5h496q100 0 172 11t131.5 44t111.5 93.5t111 160.5l213 344q100 162 101 252q0 72 -59.5 103.5t-176.5 31.5h-497q-98 0 -170 -12.5t-132.5 -46t-112.5 -94t-110 -156.5l-213 -344q-100 -162 -100 -252zM878 1532l97 154q47 72 114.5 103.5t163.5 31.5 q70 0 122 -23.5t94 -53.5t81 -53.5t84 -23.5q41 0 66.5 14.5t48.5 51.5l53 88h188l-86 -142q-47 -78 -116.5 -112.5t-171.5 -34.5q-76 0 -128.5 23.5t-93.5 53t-77.5 53.5t-81.5 24q-41 0 -68 -15.5t-49 -52.5l-51 -86h-189z" />
<glyph unicode="&#xd6;" d="M-72 272q0 150 127 355l205 338q90 141 167 233t166 144.5t200.5 73t273.5 20.5h592q199 0 300 -69t101 -202q0 -147 -127 -356l-204 -336q-90 -143 -167 -234.5t-166 -144.5t-202 -73.5t-272 -20.5h-592q-199 0 -300.5 69.5t-101.5 202.5zM209 334q0 -72 59.5 -103.5 t175.5 -31.5h496q100 0 172 11t131.5 44t111.5 93.5t111 160.5l213 344q100 162 101 252q0 72 -59.5 103.5t-176.5 31.5h-497q-98 0 -170 -12.5t-132.5 -46t-112.5 -94t-110 -156.5l-213 -344q-100 -162 -100 -252zM1075 1581l132 221h221l-129 -221h-224zM1473 1581 l131 221h221l-129 -221h-223z" />
<glyph unicode="&#xd7;" horiz-adv-x="1331" d="M25 424l505 336l-159 346l243 68l134 -287l440 295l145 -150l-499 -332l165 -350l-243 -71l-138 294l-456 -303z" />
<glyph unicode="&#xd8;" horiz-adv-x="2002" d="M-150 -186l244 223q-164 66 -164 235q0 143 125 355l205 338q90 141 167 233t166 144.5t200.5 73t273.5 20.5h557l205 186h301l-242 -221q172 -66 172 -236q0 -143 -127 -356l-204 -336q-90 -143 -167 -234.5t-166 -144.5t-202 -73.5t-272 -20.5h-568l-202 -186h-302z M207 334q0 -84 88 -115l1114 1020h-362q-98 0 -170 -12.5t-132.5 -46t-112.5 -94t-110 -156.5l-213 -344q-102 -164 -102 -252zM571 199h369q100 0 172 11t131.5 44t111.5 93.5t111 160.5l213 344q100 162 101 250q0 86 -90 117z" />
<glyph unicode="&#xd9;" horiz-adv-x="1853" d="M-41 276q0 68 26.5 150t82.5 178l497 832h271l-514 -865q-45 -72 -65.5 -128t-20.5 -99q0 -78 62 -111.5t169 -33.5h348q90 0 156.5 12t123 47t107.5 97.5t109 160.5l551 920h270l-561 -947q-86 -139 -157 -233t-151.5 -151.5t-185 -81t-254.5 -23.5h-477 q-190 0 -288.5 71.5t-98.5 204.5zM979 1688l98 155l625 -192l-93 -146z" />
<glyph unicode="&#xda;" horiz-adv-x="1853" d="M-41 276q0 68 26.5 150t82.5 178l497 832h271l-514 -865q-45 -72 -65.5 -128t-20.5 -99q0 -78 62 -111.5t169 -33.5h348q90 0 156.5 12t123 47t107.5 97.5t109 160.5l551 920h270l-561 -947q-86 -139 -157 -233t-151.5 -151.5t-185 -81t-254.5 -23.5h-477 q-190 0 -288.5 71.5t-98.5 204.5zM1040 1505l101 170l684 168l-109 -182z" />
<glyph unicode="&#xdb;" horiz-adv-x="1853" d="M-41 276q0 68 26.5 150t82.5 178l497 832h271l-514 -865q-45 -72 -65.5 -128t-20.5 -99q0 -78 62 -111.5t169 -33.5h348q90 0 156.5 12t123 47t107.5 97.5t109 160.5l551 920h270l-561 -947q-86 -139 -157 -233t-151.5 -151.5t-185 -81t-254.5 -23.5h-477 q-190 0 -288.5 71.5t-98.5 204.5zM871 1505l110 187l510 151l475 -184l-98 -154l-440 170z" />
<glyph unicode="&#xdc;" horiz-adv-x="1853" d="M-41 276q0 68 26.5 150t82.5 178l497 832h271l-514 -865q-45 -72 -65.5 -128t-20.5 -99q0 -78 62 -111.5t169 -33.5h348q90 0 156.5 12t123 47t107.5 97.5t109 160.5l551 920h270l-561 -947q-86 -139 -157 -233t-151.5 -151.5t-185 -81t-254.5 -23.5h-477 q-190 0 -288.5 71.5t-98.5 204.5zM1071 1581l132 221h221l-129 -221h-224zM1469 1581l131 221h221l-129 -221h-223z" />
<glyph unicode="&#xdd;" horiz-adv-x="1810" d="M313 0l320 557l-244 879h248l201 -717l1036 717h332l-1317 -910l-307 -526h-269zM1003 1505l101 170l684 168l-109 -182z" />
<glyph unicode="&#xde;" horiz-adv-x="1767" d="M-270 0l827 1436h262l-114 -199h702q180 0 269 -59.5t89 -167.5q0 -106 -90 -252l-125 -199q-51 -80 -106 -137t-132 -93t-183.5 -53.5t-262.5 -17.5h-479q-123 0 -197.5 -21.5t-113.5 -91.5l-84 -145h-262zM217 391q51 35 120 46.5t146 11.5h422q88 0 149.5 6 t107.5 23.5t82 51t71 88.5l117 187q49 80 49 133t-43 81t-123 28h-721z" />
<glyph unicode="&#xdf;" horiz-adv-x="3420" d="M-270 0l125 199h976q66 0 115 6t87 23.5t66.5 48t53.5 79.5q41 72 41 119q0 78 -137 109l-557 108q-145 29 -215 92.5t-70 153.5q0 78 55 174l39 66q43 76 94.5 125t118 78.5t152.5 42t200 12.5h1012l-125 -197h-938q-61 0 -105 -7t-75 -24.5t-54.5 -43t-45.5 -62.5 q-41 -66 -41 -109q0 -51 51 -79.5t147 -47.5l496 -94q283 -53 283 -235q0 -84 -66 -203l-63 -105q-41 -72 -92.5 -115.5t-120 -69.5t-158.5 -35t-213 -9h-1036zM1440 0l125 199h976q66 0 115 6t87 23.5t66.5 48t53.5 79.5q41 72 41 119q0 78 -137 109l-557 108 q-145 29 -215 92.5t-70 153.5q0 78 55 174l39 66q43 76 94.5 125t118 78.5t152.5 42t200 12.5h1012l-125 -197h-938q-61 0 -105 -7t-75 -24.5t-54.5 -43t-45.5 -62.5q-41 -66 -41 -109q0 -51 51 -79.5t147 -47.5l496 -94q283 -53 283 -235q0 -84 -66 -203l-63 -105 q-41 -72 -92.5 -115.5t-120 -69.5t-158.5 -35t-213 -9h-1036z" />
<glyph unicode="&#xe0;" horiz-adv-x="1892" d="M-102 270q0 49 16 100.5t45 104.5l37 66q49 86 107.5 145t131 94t161.5 50.5t202 15.5h752q117 0 179 27.5t107 105.5q51 84 52 137q0 59 -58.5 91t-193.5 32h-922l123 197h883q125 0 211 -18.5t139 -52.5t76.5 -81t23.5 -104q0 -72 -33.5 -157t-87.5 -177l-528 -846 h-983q-121 0 -204 21.5t-136 58.5t-76.5 86t-23.5 104zM176 317q0 -119 236 -118h759l322 510q-43 -33 -107.5 -47.5t-168.5 -14.5h-623q-76 0 -129 -7t-91 -22.5t-64.5 -41t-49.5 -64.5l-31 -51q-53 -88 -53 -144zM1026 1688l98 155l625 -192l-93 -146z" />
<glyph unicode="&#xe1;" horiz-adv-x="1892" d="M-102 270q0 49 16 100.5t45 104.5l37 66q49 86 107.5 145t131 94t161.5 50.5t202 15.5h752q117 0 179 27.5t107 105.5q51 84 52 137q0 59 -58.5 91t-193.5 32h-922l123 197h883q125 0 211 -18.5t139 -52.5t76.5 -81t23.5 -104q0 -72 -33.5 -157t-87.5 -177l-528 -846 h-983q-121 0 -204 21.5t-136 58.5t-76.5 86t-23.5 104zM176 317q0 -119 236 -118h759l322 510q-43 -33 -107.5 -47.5t-168.5 -14.5h-623q-76 0 -129 -7t-91 -22.5t-64.5 -41t-49.5 -64.5l-31 -51q-53 -88 -53 -144zM1050 1505l101 170l684 168l-109 -182z" />
<glyph unicode="&#xe2;" horiz-adv-x="1892" d="M-102 270q0 49 16 100.5t45 104.5l37 66q49 86 107.5 145t131 94t161.5 50.5t202 15.5h752q117 0 179 27.5t107 105.5q51 84 52 137q0 59 -58.5 91t-193.5 32h-922l123 197h883q125 0 211 -18.5t139 -52.5t76.5 -81t23.5 -104q0 -72 -33.5 -157t-87.5 -177l-528 -846 h-983q-121 0 -204 21.5t-136 58.5t-76.5 86t-23.5 104zM176 317q0 -119 236 -118h759l322 510q-43 -33 -107.5 -47.5t-168.5 -14.5h-623q-76 0 -129 -7t-91 -22.5t-64.5 -41t-49.5 -64.5l-31 -51q-53 -88 -53 -144zM846 1505l110 187l510 151l475 -184l-98 -154l-440 170z " />
<glyph unicode="&#xe3;" horiz-adv-x="1892" d="M-102 270q0 49 16 100.5t45 104.5l37 66q49 86 107.5 145t131 94t161.5 50.5t202 15.5h752q117 0 179 27.5t107 105.5q51 84 52 137q0 59 -58.5 91t-193.5 32h-922l123 197h883q125 0 211 -18.5t139 -52.5t76.5 -81t23.5 -104q0 -72 -33.5 -157t-87.5 -177l-528 -846 h-983q-121 0 -204 21.5t-136 58.5t-76.5 86t-23.5 104zM176 317q0 -119 236 -118h759l322 510q-43 -33 -107.5 -47.5t-168.5 -14.5h-623q-76 0 -129 -7t-91 -22.5t-64.5 -41t-49.5 -64.5l-31 -51q-53 -88 -53 -144zM837 1532l97 154q47 72 114.5 103.5t163.5 31.5 q70 0 122 -23.5t94 -53.5t81 -53.5t84 -23.5q41 0 66.5 14.5t48.5 51.5l53 88h188l-86 -142q-47 -78 -116.5 -112.5t-171.5 -34.5q-76 0 -128.5 23.5t-93.5 53t-77.5 53.5t-81.5 24q-41 0 -68 -15.5t-49 -52.5l-51 -86h-189z" />
<glyph unicode="&#xe4;" horiz-adv-x="1892" d="M-102 270q0 49 16 100.5t45 104.5l37 66q49 86 107.5 145t131 94t161.5 50.5t202 15.5h752q117 0 179 27.5t107 105.5q51 84 52 137q0 59 -58.5 91t-193.5 32h-922l123 197h883q125 0 211 -18.5t139 -52.5t76.5 -81t23.5 -104q0 -72 -33.5 -157t-87.5 -177l-528 -846 h-983q-121 0 -204 21.5t-136 58.5t-76.5 86t-23.5 104zM176 317q0 -119 236 -118h759l322 510q-43 -33 -107.5 -47.5t-168.5 -14.5h-623q-76 0 -129 -7t-91 -22.5t-64.5 -41t-49.5 -64.5l-31 -51q-53 -88 -53 -144zM1062 1581l132 221h221l-129 -221h-224zM1460 1581 l131 221h221l-129 -221h-223z" />
<glyph unicode="&#xe5;" horiz-adv-x="1892" d="M-102 270q0 49 16 100.5t45 104.5l37 66q49 86 107.5 145t131 94t161.5 50.5t202 15.5h752q117 0 179 27.5t107 105.5q51 84 52 137q0 59 -58.5 91t-193.5 32h-922l123 197h883q125 0 211 -18.5t139 -52.5t76.5 -81t23.5 -104q0 -72 -33.5 -157t-87.5 -177l-528 -846 h-983q-121 0 -204 21.5t-136 58.5t-76.5 86t-23.5 104zM176 317q0 -119 236 -118h759l322 510q-43 -33 -107.5 -47.5t-168.5 -14.5h-623q-76 0 -129 -7t-91 -22.5t-64.5 -41t-49.5 -64.5l-31 -51q-53 -88 -53 -144zM1022 1544q0 41 30 90l39 62q29 45 57.5 73.5t62.5 45 t75 22.5t96 6h193q76 0 119.5 -28.5t43.5 -79.5q0 -41 -30 -90l-39 -62q-29 -45 -57.5 -73.5t-62.5 -45t-75 -22.5t-96 -6h-193q-76 0 -119.5 28.5t-43.5 79.5zM1214 1587q0 -35 64 -35h120q53 0 77 23.5t50 66.5q27 45 20 64.5t-63 19.5h-120q-53 0 -76.5 -20.5 t-50.5 -63.5q-20 -33 -21 -55z" />
<glyph unicode="&#xe6;" horiz-adv-x="2988" d="M-102 270q0 49 16 100.5t45 104.5l37 66q49 86 107.5 145t131 94t161.5 50.5t202 15.5h752q117 0 179 27.5t107 105.5q51 84 52 137q0 59 -58.5 91t-193.5 32h-922l123 197h883q125 0 211 -19q74 -16 122 -43l37 62h1377l-115 -197h-1106l-242 -420q57 27 129 39t158 12 h715l-113 -198h-639q-59 0 -119.5 -2t-116 -14.5t-100.5 -38t-73 -74.5l-201 -344h1196l-115 -199h-2187q-121 0 -204 21.5t-136 58.5t-76.5 86t-23.5 104zM176 317q0 -119 236 -118h759l322 510q-43 -33 -107.5 -47.5t-168.5 -14.5h-623q-76 0 -129 -7t-91 -22.5t-64.5 -41 t-49.5 -64.5l-31 -51q-53 -88 -53 -144z" />
<glyph unicode="&#xe7;" horiz-adv-x="1675" d="M-164 272q0 150 127 355l205 338q88 143 163 235t162 144.5t198.5 72t273.5 19.5h880l-125 -197h-774q-98 0 -168.5 -12.5t-128 -46t-109 -94t-110.5 -156.5l-213 -344q-51 -82 -74.5 -143.5t-23.5 -108.5q0 -72 59.5 -103.5t175.5 -31.5h834l-125 -199h-379l-152 -242 h-231l154 242h-217q-197 0 -299.5 69.5t-102.5 202.5z" />
<glyph unicode="&#xe8;" horiz-adv-x="1648" d="M-276 0l827 1436h1376l-115 -197h-1105l-242 -420q57 27 129 39t158 12h714l-112 -198h-639q-59 0 -119.5 -2t-116 -14.5t-100.5 -38t-74 -74.5l-201 -344h1196l-114 -199h-1462zM955 1688l98 155l625 -192l-93 -146z" />
<glyph unicode="&#xe9;" horiz-adv-x="1648" d="M-276 0l827 1436h1376l-115 -197h-1105l-242 -420q57 27 129 39t158 12h714l-112 -198h-639q-59 0 -119.5 -2t-116 -14.5t-100.5 -38t-74 -74.5l-201 -344h1196l-114 -199h-1462zM968 1505l101 170l684 168l-109 -182z" />
<glyph unicode="&#xea;" horiz-adv-x="1648" d="M-276 0l827 1436h1376l-115 -197h-1105l-242 -420q57 27 129 39t158 12h714l-112 -198h-639q-59 0 -119.5 -2t-116 -14.5t-100.5 -38t-74 -74.5l-201 -344h1196l-114 -199h-1462zM783 1505l110 187l510 151l475 -184l-98 -154l-440 170z" />
<glyph unicode="&#xeb;" horiz-adv-x="1648" d="M-276 0l827 1436h1376l-115 -197h-1105l-242 -420q57 27 129 39t158 12h714l-112 -198h-639q-59 0 -119.5 -2t-116 -14.5t-100.5 -38t-74 -74.5l-201 -344h1196l-114 -199h-1462zM952 1581l132 221h221l-129 -221h-224zM1350 1581l131 221h221l-129 -221h-223z" />
<glyph unicode="&#xec;" horiz-adv-x="548" d="M-276 0l827 1436h268l-827 -1436h-268zM267 1688l98 155l625 -192l-93 -146z" />
<glyph unicode="&#xed;" horiz-adv-x="548" d="M-276 0l827 1436h268l-827 -1436h-268zM493 1505l101 170l684 168l-109 -182z" />
<glyph unicode="&#xee;" horiz-adv-x="548" d="M-276 0l827 1436h268l-827 -1436h-268zM234 1505l110 187l510 151l475 -184l-98 -154l-440 170z" />
<glyph unicode="&#xef;" horiz-adv-x="548" d="M-276 0l827 1436h268l-827 -1436h-268zM430 1581l132 221h221l-129 -221h-224zM828 1581l131 221h221l-129 -221h-223z" />
<glyph unicode="&#xf0;" horiz-adv-x="1994" d="M-270 0l376 655h-169l108 199h176l336 582h891q150 0 256 -26t174 -73t99.5 -112.5t31.5 -145.5q0 -82 -30.5 -175t-90.5 -193l-121 -195q-86 -141 -175 -239.5t-212 -160t-294 -89t-418 -27.5h-938zM111 199h684q123 0 226 17t192.5 60t164 115t140.5 180l88 144 q123 193 123 311q0 113 -105.5 163t-310.5 50h-600l-224 -385h455l-113 -199h-456z" />
<glyph unicode="&#xf1;" horiz-adv-x="1918" d="M-276 0l827 1436h244l465 -1147l665 1147h258l-829 -1436h-234l-475 1147l-663 -1147h-258zM835 1532l97 154q47 72 114.5 103.5t163.5 31.5q70 0 122 -23.5t94 -53.5t81 -53.5t84 -23.5q41 0 66.5 14.5t48.5 51.5l53 88h188l-86 -142q-47 -78 -116.5 -112.5 t-171.5 -34.5q-76 0 -128.5 23.5t-93.5 53t-77.5 53.5t-81.5 24q-41 0 -68 -15.5t-49 -52.5l-51 -86h-189z" />
<glyph unicode="&#xf2;" d="M-72 272q0 150 127 355l205 338q90 141 167 233t166 144.5t200.5 73t273.5 20.5h592q199 0 300 -69t101 -202q0 -147 -127 -356l-204 -336q-90 -143 -167 -234.5t-166 -144.5t-202 -73.5t-272 -20.5h-592q-199 0 -300.5 69.5t-101.5 202.5zM209 334q0 -72 59.5 -103.5 t175.5 -31.5h496q100 0 172 11t131.5 44t111.5 93.5t111 160.5l213 344q100 162 101 252q0 72 -59.5 103.5t-176.5 31.5h-497q-98 0 -170 -12.5t-132.5 -46t-112.5 -94t-110 -156.5l-213 -344q-100 -162 -100 -252zM1037 1688l98 155l625 -192l-93 -146z" />
<glyph unicode="&#xf3;" d="M-72 272q0 150 127 355l205 338q90 141 167 233t166 144.5t200.5 73t273.5 20.5h592q199 0 300 -69t101 -202q0 -147 -127 -356l-204 -336q-90 -143 -167 -234.5t-166 -144.5t-202 -73.5t-272 -20.5h-592q-199 0 -300.5 69.5t-101.5 202.5zM209 334q0 -72 59.5 -103.5 t175.5 -31.5h496q100 0 172 11t131.5 44t111.5 93.5t111 160.5l213 344q100 162 101 252q0 72 -59.5 103.5t-176.5 31.5h-497q-98 0 -170 -12.5t-132.5 -46t-112.5 -94t-110 -156.5l-213 -344q-100 -162 -100 -252zM1091 1505l101 170l684 168l-109 -182z" />
<glyph unicode="&#xf4;" d="M-72 272q0 150 127 355l205 338q90 141 167 233t166 144.5t200.5 73t273.5 20.5h592q199 0 300 -69t101 -202q0 -147 -127 -356l-204 -336q-90 -143 -167 -234.5t-166 -144.5t-202 -73.5t-272 -20.5h-592q-199 0 -300.5 69.5t-101.5 202.5zM209 334q0 -72 59.5 -103.5 t175.5 -31.5h496q100 0 172 11t131.5 44t111.5 93.5t111 160.5l213 344q100 162 101 252q0 72 -59.5 103.5t-176.5 31.5h-497q-98 0 -170 -12.5t-132.5 -46t-112.5 -94t-110 -156.5l-213 -344q-100 -162 -100 -252zM877 1505l110 187l510 151l475 -184l-98 -154l-440 170z " />
<glyph unicode="&#xf5;" d="M-72 272q0 150 127 355l205 338q90 141 167 233t166 144.5t200.5 73t273.5 20.5h592q199 0 300 -69t101 -202q0 -147 -127 -356l-204 -336q-90 -143 -167 -234.5t-166 -144.5t-202 -73.5t-272 -20.5h-592q-199 0 -300.5 69.5t-101.5 202.5zM209 334q0 -72 59.5 -103.5 t175.5 -31.5h496q100 0 172 11t131.5 44t111.5 93.5t111 160.5l213 344q100 162 101 252q0 72 -59.5 103.5t-176.5 31.5h-497q-98 0 -170 -12.5t-132.5 -46t-112.5 -94t-110 -156.5l-213 -344q-100 -162 -100 -252zM878 1532l97 154q47 72 114.5 103.5t163.5 31.5 q70 0 122 -23.5t94 -53.5t81 -53.5t84 -23.5q41 0 66.5 14.5t48.5 51.5l53 88h188l-86 -142q-47 -78 -116.5 -112.5t-171.5 -34.5q-76 0 -128.5 23.5t-93.5 53t-77.5 53.5t-81.5 24q-41 0 -68 -15.5t-49 -52.5l-51 -86h-189z" />
<glyph unicode="&#xf6;" d="M-72 272q0 150 127 355l205 338q90 141 167 233t166 144.5t200.5 73t273.5 20.5h592q199 0 300 -69t101 -202q0 -147 -127 -356l-204 -336q-90 -143 -167 -234.5t-166 -144.5t-202 -73.5t-272 -20.5h-592q-199 0 -300.5 69.5t-101.5 202.5zM209 334q0 -72 59.5 -103.5 t175.5 -31.5h496q100 0 172 11t131.5 44t111.5 93.5t111 160.5l213 344q100 162 101 252q0 72 -59.5 103.5t-176.5 31.5h-497q-98 0 -170 -12.5t-132.5 -46t-112.5 -94t-110 -156.5l-213 -344q-100 -162 -100 -252zM1075 1581l132 221h221l-129 -221h-224zM1473 1581 l131 221h221l-129 -221h-223z" />
<glyph unicode="&#xf7;" horiz-adv-x="1411" d="M82 621l117 210h1130l-121 -210h-1126zM248 158l153 268h299l-155 -268h-297zM717 1024l153 268h299l-155 -268h-297z" />
<glyph unicode="&#xf8;" horiz-adv-x="2002" d="M-150 -186l244 223q-164 66 -164 235q0 143 125 355l205 338q90 141 167 233t166 144.5t200.5 73t273.5 20.5h557l205 186h301l-242 -221q172 -66 172 -236q0 -143 -127 -356l-204 -336q-90 -143 -167 -234.5t-166 -144.5t-202 -73.5t-272 -20.5h-568l-202 -186h-302z M207 334q0 -84 88 -115l1114 1020h-362q-98 0 -170 -12.5t-132.5 -46t-112.5 -94t-110 -156.5l-213 -344q-102 -164 -102 -252zM571 199h369q100 0 172 11t131.5 44t111.5 93.5t111 160.5l213 344q100 162 101 250q0 86 -90 117z" />
<glyph unicode="&#xf9;" horiz-adv-x="1853" d="M-41 276q0 68 26.5 150t82.5 178l497 832h271l-514 -865q-45 -72 -65.5 -128t-20.5 -99q0 -78 62 -111.5t169 -33.5h348q90 0 156.5 12t123 47t107.5 97.5t109 160.5l551 920h270l-561 -947q-86 -139 -157 -233t-151.5 -151.5t-185 -81t-254.5 -23.5h-477 q-190 0 -288.5 71.5t-98.5 204.5zM979 1688l98 155l625 -192l-93 -146z" />
<glyph unicode="&#xfa;" horiz-adv-x="1853" d="M-41 276q0 68 26.5 150t82.5 178l497 832h271l-514 -865q-45 -72 -65.5 -128t-20.5 -99q0 -78 62 -111.5t169 -33.5h348q90 0 156.5 12t123 47t107.5 97.5t109 160.5l551 920h270l-561 -947q-86 -139 -157 -233t-151.5 -151.5t-185 -81t-254.5 -23.5h-477 q-190 0 -288.5 71.5t-98.5 204.5zM1040 1505l101 170l684 168l-109 -182z" />
<glyph unicode="&#xfb;" horiz-adv-x="1853" d="M-41 276q0 68 26.5 150t82.5 178l497 832h271l-514 -865q-45 -72 -65.5 -128t-20.5 -99q0 -78 62 -111.5t169 -33.5h348q90 0 156.5 12t123 47t107.5 97.5t109 160.5l551 920h270l-561 -947q-86 -139 -157 -233t-151.5 -151.5t-185 -81t-254.5 -23.5h-477 q-190 0 -288.5 71.5t-98.5 204.5zM871 1505l110 187l510 151l475 -184l-98 -154l-440 170z" />
<glyph unicode="&#xfc;" horiz-adv-x="1853" d="M-41 276q0 68 26.5 150t82.5 178l497 832h271l-514 -865q-45 -72 -65.5 -128t-20.5 -99q0 -78 62 -111.5t169 -33.5h348q90 0 156.5 12t123 47t107.5 97.5t109 160.5l551 920h270l-561 -947q-86 -139 -157 -233t-151.5 -151.5t-185 -81t-254.5 -23.5h-477 q-190 0 -288.5 71.5t-98.5 204.5zM1071 1581l132 221h221l-129 -221h-224zM1469 1581l131 221h221l-129 -221h-223z" />
<glyph unicode="&#xfd;" horiz-adv-x="1810" d="M313 0l320 557l-244 879h248l201 -717l1036 717h332l-1317 -910l-307 -526h-269zM1003 1505l101 170l684 168l-109 -182z" />
<glyph unicode="&#xfe;" horiz-adv-x="1767" d="M-270 0l827 1436h262l-114 -199h702q180 0 269 -59.5t89 -167.5q0 -106 -90 -252l-125 -199q-51 -80 -106 -137t-132 -93t-183.5 -53.5t-262.5 -17.5h-479q-123 0 -197.5 -21.5t-113.5 -91.5l-84 -145h-262zM217 391q51 35 120 46.5t146 11.5h422q88 0 149.5 6 t107.5 23.5t82 51t71 88.5l117 187q49 80 49 133t-43 81t-123 28h-721z" />
<glyph unicode="&#xff;" horiz-adv-x="1810" d="M313 0l320 557l-244 879h248l201 -717l1036 717h332l-1317 -910l-307 -526h-269zM964 1581l132 221h221l-129 -221h-224zM1362 1581l131 221h221l-129 -221h-223z" />
<glyph unicode="&#x152;" horiz-adv-x="3123" d="M-72 272q0 150 127 355l205 338q90 141 167 233t166 144.5t200.5 73t273.5 20.5h592q123 0 201.5 -28t117.5 -81l64 109h1360l-115 -197h-1106l-242 -420q57 27 129 39t158 12h715l-113 -198h-639q-59 0 -119.5 -2t-116 -14.5t-100.5 -38t-73 -74.5l-201 -344h1196 l-115 -199h-1378l61 106q-84 -53 -185 -79.5t-236 -26.5h-592q-199 0 -300.5 69.5t-101.5 202.5zM209 334q0 -72 59.5 -103.5t175.5 -31.5h496q100 0 176 14t139.5 49t116.5 94.5t109 151.5l26 47l228 395q45 90 45 154q0 72 -59.5 103.5t-176.5 31.5h-497q-98 0 -170 -12.5 t-132.5 -46t-112.5 -94t-110 -156.5l-213 -344q-100 -162 -100 -252z" />
<glyph unicode="&#x153;" horiz-adv-x="3123" d="M-72 272q0 150 127 355l205 338q90 141 167 233t166 144.5t200.5 73t273.5 20.5h592q123 0 201.5 -28t117.5 -81l64 109h1360l-115 -197h-1106l-242 -420q57 27 129 39t158 12h715l-113 -198h-639q-59 0 -119.5 -2t-116 -14.5t-100.5 -38t-73 -74.5l-201 -344h1196 l-115 -199h-1378l61 106q-84 -53 -185 -79.5t-236 -26.5h-592q-199 0 -300.5 69.5t-101.5 202.5zM209 334q0 -72 59.5 -103.5t175.5 -31.5h496q100 0 176 14t139.5 49t116.5 94.5t109 151.5l26 47l228 395q45 90 45 154q0 72 -59.5 103.5t-176.5 31.5h-497q-98 0 -170 -12.5 t-132.5 -46t-112.5 -94t-110 -156.5l-213 -344q-100 -162 -100 -252z" />
<glyph unicode="&#x178;" horiz-adv-x="1810" d="M313 0l320 557l-244 879h248l201 -717l1036 717h332l-1317 -910l-307 -526h-269zM964 1581l132 221h221l-129 -221h-224zM1362 1581l131 221h221l-129 -221h-223z" />
<glyph unicode="&#x2c6;" horiz-adv-x="1361" d="M201 1505l110 187l510 151l475 -184l-98 -154l-440 170z" />
<glyph unicode="&#x2dc;" horiz-adv-x="1273" d="M98 1532l97 154q47 72 114.5 103.5t163.5 31.5q70 0 122 -23.5t94 -53.5t81 -53.5t84 -23.5q41 0 66.5 14.5t48.5 51.5l53 88h188l-86 -142q-47 -78 -116.5 -112.5t-171.5 -34.5q-76 0 -128.5 23.5t-93.5 53t-77.5 53.5t-81.5 24q-41 0 -68 -15.5t-49 -52.5l-51 -86h-189 z" />
<glyph unicode="&#x2000;" horiz-adv-x="921" />
<glyph unicode="&#x2001;" horiz-adv-x="1843" />
<glyph unicode="&#x2002;" horiz-adv-x="921" />
<glyph unicode="&#x2003;" horiz-adv-x="1843" />
<glyph unicode="&#x2004;" horiz-adv-x="614" />
<glyph unicode="&#x2005;" horiz-adv-x="460" />
<glyph unicode="&#x2006;" horiz-adv-x="307" />
<glyph unicode="&#x2007;" horiz-adv-x="307" />
<glyph unicode="&#x2008;" horiz-adv-x="230" />
<glyph unicode="&#x2009;" horiz-adv-x="368" />
<glyph unicode="&#x200a;" horiz-adv-x="102" />
<glyph unicode="&#x2010;" horiz-adv-x="1105" d="M78 621l133 210h817l-131 -210h-819z" />
<glyph unicode="&#x2011;" horiz-adv-x="1105" d="M78 621l133 210h817l-131 -210h-819z" />
<glyph unicode="&#x2012;" horiz-adv-x="1105" d="M78 621l133 210h817l-131 -210h-819z" />
<glyph unicode="&#x2013;" horiz-adv-x="1024" d="M-74 621l133 210h1024l-133 -210h-1024z" />
<glyph unicode="&#x2014;" horiz-adv-x="2048" d="M-74 621l133 210h2048l-133 -210h-2048z" />
<glyph unicode="&#x2018;" horiz-adv-x="481" d="M180 870l346 566h248l-325 -566h-269z" />
<glyph unicode="&#x2019;" horiz-adv-x="481" d="M180 870l326 566h268l-346 -566h-248z" />
<glyph unicode="&#x201a;" horiz-adv-x="624" d="M-426 -342l326 565h268l-346 -565h-248z" />
<glyph unicode="&#x201c;" horiz-adv-x="964" d="M123 870l346 566h248l-326 -566h-268zM606 870l346 566h248l-326 -566h-268z" />
<glyph unicode="&#x201d;" horiz-adv-x="964" d="M133 870l326 566h268l-346 -566h-248zM616 870l326 566h268l-346 -566h-248z" />
<glyph unicode="&#x201e;" horiz-adv-x="1107" d="M-426 -342l326 565h268l-346 -565h-248zM57 -342l326 565h268l-346 -565h-248z" />
<glyph unicode="&#x2022;" horiz-adv-x="948" d="M113 633q0 41 30 90l39 61q29 45 57.5 74t62.5 45.5t75 22.5t96 6h193q76 0 118.5 -29t42.5 -80q0 -39 -28 -90l-39 -61q-27 -47 -54.5 -76t-62.5 -44t-77 -21.5t-97 -6.5h-193q-76 0 -119.5 29t-43.5 80z" />
<glyph unicode="&#x2026;" horiz-adv-x="1972" d="M-225 0l153 268h299l-155 -268h-297zM432 0l153 268h299l-155 -268h-297zM1090 0l153 268h299l-155 -268h-297z" />
<glyph unicode="&#x202f;" horiz-adv-x="368" />
<glyph unicode="&#x2039;" horiz-adv-x="1038" d="M119 623l104 192l815 348l-149 -289l-453 -198l316 -182l-117 -193z" />
<glyph unicode="&#x203a;" horiz-adv-x="1038" d="M0 313l150 289l452 199l-315 182l116 193l517 -322l-105 -192z" />
<glyph unicode="&#x205f;" horiz-adv-x="460" />
<glyph unicode="&#x20ac;" horiz-adv-x="1898" d="M18 449l109 198h238l108 178h-233l108 199h246q82 123 153.5 203t155.5 126t190.5 64.5t260.5 18.5h704l-125 -197h-598q-84 0 -148.5 -9t-116.5 -32.5t-97 -65.5t-92 -108h657l-113 -199h-671l-111 -178h674l-113 -198h-669q-27 -66 -27 -115q0 -72 59.5 -103.5 t175.5 -31.5h703l-125 -199h-694q-199 0 -300.5 69.5t-101.5 202.5q0 78 37 177h-244z" />
<glyph unicode="&#x2122;" horiz-adv-x="2437" d="M260 627l385 665h-371l84 144h947l-82 -144h-369l-385 -665h-209zM958 627l465 809h226l59 -611l686 611h305l-465 -809h-209l338 590l-661 -590h-150l-53 579l-332 -579h-209z" />
<glyph unicode="&#xe000;" horiz-adv-x="1433" d="M0 0v1434h1434v-1434h-1434z" />
<glyph unicode="&#xfb01;" horiz-adv-x="2148" d="M-276 0l827 1436h1364l-115 -197h-1093l-279 -481q57 27 135 39t154 12h743l-114 -199h-670q-55 0 -115.5 -1t-116 -13t-100.5 -39t-72 -76l-280 -481h-268zM1323 0l827 1436h268l-827 -1436h-268z" />
<glyph unicode="&#xfb02;" horiz-adv-x="3090" d="M-276 0l827 1436h1364l-115 -197h-1093l-279 -481q57 27 135 39t154 12h743l-114 -199h-670q-55 0 -115.5 -1t-116 -13t-100.5 -39t-72 -76l-280 -481h-268zM1323 0l827 1436h268l-715 -1237h1108l-112 -199h-1376z" />
</font>
</defs>
</svg>
