<?xml version="1.0" standalone="no"?>
<!DOCTYPE svg PUBLIC "-//W3C//DTD SVG 1.1//EN" "http://www.w3.org/Graphics/SVG/1.1/DTD/svg11.dtd" >
<svg xmlns="http://www.w3.org/2000/svg">
<metadata></metadata>
<defs>
<font id="aritasbregular" horiz-adv-x="1160" >
<font-face units-per-em="2048" ascent="1758" descent="-290" />
<missing-glyph horiz-adv-x="632" />
<glyph horiz-adv-x="2048" />
<glyph horiz-adv-x="2048" />
<glyph unicode="&#xd;" horiz-adv-x="2048" />
<glyph unicode=" "  horiz-adv-x="632" />
<glyph unicode="&#x09;" horiz-adv-x="632" />
<glyph unicode="&#xa0;" horiz-adv-x="632" />
<glyph unicode="!" horiz-adv-x="816" d="M286 30v282h268v-282h-268zM306 1574h232l-26 -1144h-182z" />
<glyph unicode="&#x22;" horiz-adv-x="844" d="M176 1180v518h174v-518h-174zM494 1180v518h174v-518h-174z" />
<glyph unicode="#" horiz-adv-x="1550" d="M196 498v190h234q10 70 19 128t21 134h-222v190h250q12 94 28 199t26 197h190l-58 -396h296q14 94 29 199t27 197h188l-60 -396h190v-190h-214q-10 -70 -18 -128t-18 -134h198v-190h-226q-16 -98 -31 -205t-27 -205h-190l58 410h-296q-16 -100 -32 -206t-32 -204h-188 l62 410h-204zM616 688h298q10 72 19 129t19 133h-296q-10 -72 -20 -129t-20 -133z" />
<glyph unicode="$" d="M62 218l28 218q76 -56 180 -107t228 -59v482q-78 20 -152 48t-134 72q-58 44 -93 110t-35 162q0 94 33 164t89 116q58 48 133 74t159 34v144h178v-144q84 -10 162 -33t146 -47l-32 -194q-22 10 -55 24t-71 26q-36 14 -75 25t-75 17v-464q80 -22 157 -48t137 -68t97 -106 t37 -162q0 -108 -35 -181t-93 -119t-136 -70t-164 -34v-164h-178v154q-60 2 -123 14t-121 30t-108 40t-84 46zM292 1162q0 -92 58 -143t148 -81v412q-40 -8 -77 -23t-65 -39q-28 -22 -46 -53t-18 -73zM676 276q90 20 155 71t65 141q0 44 -16 78t-44 58t-64 42t-78 30l6 -2 q-8 0 -24 8v-426z" />
<glyph unicode="%" horiz-adv-x="2088" d="M200 1154q0 80 23 155t67 131q46 58 111 92t149 34t149 -34t109 -92q46 -56 69 -131t23 -155t-23 -154t-69 -132q-44 -56 -109 -90t-149 -34t-149 34t-111 90q-44 58 -67 132t-23 154zM384 1154q0 -42 8 -85t28 -79q20 -34 51 -57t79 -23t79 23t51 57q20 36 28 79t8 85 t-8 85t-28 77q-20 36 -51 59t-79 23t-79 -23t-51 -59q-20 -34 -28 -77t-8 -85zM522 88l816 1478h204l-814 -1478h-206zM1188 470q0 80 23 155t67 131q46 58 111 92t147 34q84 0 149 -34t109 -92q46 -56 70 -131t24 -155t-24 -154t-70 -132q-44 -56 -109 -90t-149 -34 q-82 0 -147 34t-111 90q-44 58 -67 132t-23 154zM1372 470q0 -42 8 -85t26 -79q20 -34 52 -56t78 -22t78 22t52 56q20 36 29 79t9 85t-9 85t-29 79t-52 59t-78 23t-78 -23t-52 -59q-18 -36 -26 -79t-8 -85z" />
<glyph unicode="&#x26;" horiz-adv-x="1508" d="M112 498q0 84 30 151t78 121q50 56 111 101t121 87q-32 36 -63 75t-55 83t-39 92t-15 102q0 74 30 130t78 92q50 38 113 56t129 18t129 -17t113 -53q52 -34 83 -89t31 -131q0 -64 -22 -118t-58 -102q-34 -46 -79 -86t-89 -76q48 -52 91 -98t85 -92q44 -46 88 -93t94 -99 q20 52 34 115t22 129t10 133t0 127h214q-2 -14 -4 -47t-4 -47l-16 -144t-22 -144q-14 -70 -36 -138t-56 -132q34 -36 74 -80t80 -90q42 -44 81 -87t71 -77h-276l-154 172q-90 -98 -196 -150t-244 -52q-118 0 -220 32t-178 90q-76 60 -120 145t-44 191zM320 526 q0 -70 28 -125t74 -93q48 -38 109 -58t127 -20q104 0 182 40t148 108l-404 440q-36 -24 -82 -59t-88 -75q-40 -38 -67 -79t-27 -79zM490 1308q0 -60 39 -123t81 -113q6 4 11 8t11 8v-2q26 24 51 49t45 51q22 28 35 58t13 64q0 56 -44 81t-96 25q-58 0 -102 -24t-44 -82z" />
<glyph unicode="'" horiz-adv-x="582" d="M204 1180v518h174v-518h-174z" />
<glyph unicode="(" horiz-adv-x="884" d="M250 728q0 258 60 492t156 478h218q-106 -264 -164 -503t-58 -467q0 -122 18 -245t48 -245q30 -120 70 -240t84 -234h-218q-46 122 -85 239t-69 233q-28 118 -44 239t-16 253z" />
<glyph unicode=")" horiz-adv-x="884" d="M200 1698h218q96 -244 156 -478t60 -492q0 -132 -16 -253t-46 -239q-28 -116 -67 -233t-85 -239h-218q44 114 84 234t70 240q30 122 48 245t18 245q0 228 -58 467t-164 503z" />
<glyph unicode="*" horiz-adv-x="1170" d="M204 678v190l252 -18q-40 54 -82 111t-78 107l174 92l120 -238q30 60 60 123t56 117l170 -92l-158 -222q62 6 129 11t123 9v-190l-252 20q38 -58 80 -119t76 -113l-172 -88l-112 240q-28 -60 -62 -127t-60 -119l-164 96l156 228q-66 -4 -132 -9t-124 -9z" />
<glyph unicode="+" horiz-adv-x="1366" d="M152 742v190h436v438h192v-438h434v-190h-434v-440h-192v440h-436z" />
<glyph unicode="," horiz-adv-x="544" d="M156 -26v258h286v-232q-14 -58 -50 -127t-84 -127h-148q52 58 82 123t46 105h-132z" />
<glyph unicode="-" horiz-adv-x="1040" d="M144 742v190h752v-190h-752z" />
<glyph unicode="." horiz-adv-x="468" d="M100 -66v278h268v-278h-268z" />
<glyph unicode="/" horiz-adv-x="800" d="M30 -62l540 1696h200l-542 -1696h-198z" />
<glyph unicode="0" d="M88 842q0 138 20 271t74 237q56 106 152 170t248 64t248 -64t150 -170q54 -104 74 -237t20 -271t-20 -272t-74 -240q-54 -104 -150 -168t-248 -64t-248 64t-152 168q-54 106 -74 240t-20 272zM298 842q0 -48 3 -108t13 -122t28 -121t50 -105q32 -44 78 -72t112 -28 t112 28t76 72q32 46 50 105t28 121t13 122t3 108t-3 108t-13 122t-28 120t-50 102q-30 46 -77 74t-111 28q-66 0 -112 -28t-78 -74q-32 -44 -50 -102t-28 -120t-13 -122t-3 -108z" />
<glyph unicode="1" horiz-adv-x="1114" d="M180 1260l354 294h160v-1444h-196v1176q-48 -42 -100 -87t-96 -83z" />
<glyph unicode="2" d="M92 110v184q44 40 114 106t148 146q80 80 159 168t143 174t104 163t40 135q0 52 -20 91t-54 65q-32 28 -76 41t-94 13q-78 0 -180 -41t-198 -99l-38 202q42 20 91 42t103 40q54 20 111 32t115 12q90 0 172 -24t142 -74q62 -48 98 -121t36 -171q0 -112 -63 -231t-157 -235 t-201 -221t-197 -189q-6 -4 -12 -11t-10 -11h658v-186h-934z" />
<glyph unicode="3" d="M132 166l30 202q102 -50 199 -75t181 -25q62 0 116 16t94 48q42 34 66 82t24 114q0 72 -33 118t-85 72q-52 28 -117 38t-131 10h-162v190h162q60 0 122 10t110 34q50 26 81 70t31 112q0 50 -21 90t-59 66q-36 28 -84 43t-102 17q-34 2 -80 -4t-98 -18q-50 -12 -102 -30 t-96 -38l-16 196q90 34 185 57t185 23q94 0 184 -23t160 -73t112 -128t42 -188q0 -112 -56 -191t-150 -121q102 -46 165 -135t63 -213q0 -106 -44 -187t-116 -137q-72 -54 -163 -82t-185 -28q-92 0 -204 24t-208 64z" />
<glyph unicode="4" horiz-adv-x="1120" d="M36 430v166l580 960h226v-952h220v-174h-220v-342h-200v342h-606zM246 604h396v656q-52 -84 -100 -164l-96 -160q-48 -78 -97 -160t-103 -172z" />
<glyph unicode="5" d="M142 686l38 870h824v-190h-632q-2 -56 -4 -99t-6 -85q-2 -42 -5 -87t-5 -103q114 92 268 92q104 0 189 -40t143 -108q60 -66 92 -156t32 -190q0 -106 -33 -199t-95 -163t-151 -110t-199 -40q-132 0 -234 30t-182 62l8 210q42 -22 92 -42t102 -36q54 -16 106 -25t96 -9 q72 0 124 26t86 70q36 46 53 106t17 126q0 134 -68 217t-206 83q-88 0 -158 -55t-92 -155h-200z" />
<glyph unicode="6" d="M82 760q0 92 10 189t34 189t66 173t106 141q64 62 152 97t206 35q100 0 190 -21t156 -41l-36 -200q-28 14 -66 28t-80 24q-40 10 -81 16t-77 6q-96 0 -162 -39t-108 -103t-64 -145t-28 -167q60 68 142 99t180 31q110 0 196 -37t144 -103t88 -156t30 -196t-32 -198 t-94 -160q-60 -66 -147 -105t-197 -39q-154 0 -256 58t-162 152q-60 96 -85 219t-25 253zM316 562q0 -58 21 -112t57 -94t87 -64t111 -24q134 0 207 86t73 218q0 62 -14 119t-46 101q-30 44 -79 71t-117 27q-74 0 -130 -25t-94 -69t-57 -104t-19 -130z" />
<glyph unicode="7" horiz-adv-x="1086" d="M80 1366v190h946v-162l-546 -1284h-226l550 1256h-724z" />
<glyph unicode="8" d="M78 518q0 68 21 123t55 97q36 42 82 73t94 51q-50 14 -93 45t-75 71q-30 42 -47 93t-17 109q0 104 42 180t110 126t155 74t177 24q88 0 174 -24t154 -74t110 -126t42 -180q0 -114 -55 -194t-153 -126q108 -48 169 -133t61 -209q0 -114 -44 -197t-116 -137 q-70 -54 -160 -80t-182 -26q-94 0 -184 26t-162 80q-70 54 -114 137t-44 197zM288 518q0 -66 24 -113t64 -77q42 -30 95 -45t111 -15q56 0 110 15t94 45t65 77t25 113q0 64 -25 111t-65 77t-94 45t-110 15q-58 0 -111 -15t-95 -45q-40 -30 -64 -77t-24 -111zM298 1180 q0 -112 79 -168t205 -56q122 0 202 56t80 168q0 60 -25 103t-65 69q-40 28 -91 41t-101 13q-52 0 -103 -13t-91 -41q-40 -26 -65 -69t-25 -103z" />
<glyph unicode="9" d="M82 1100q0 106 34 195t96 153t149 100t195 36q162 0 264 -61t160 -161t80 -229t22 -263q0 -146 -29 -285t-101 -247q-70 -108 -186 -174t-290 -66q-42 0 -89 7t-91 17q-44 12 -83 23t-65 21l32 194q24 -12 63 -26t85 -26t96 -19t96 -3q90 6 153 53t103 115q40 70 61 153 t27 161q-60 -64 -144 -97t-182 -33q-100 0 -184 35t-144 97t-94 146t-34 184zM292 1088q0 -120 69 -195t189 -75q66 0 120 21t92 59q40 40 62 93t22 117q0 62 -21 115t-61 91q-38 40 -91 61t-115 21q-68 0 -118 -24t-84 -66q-32 -40 -48 -96t-16 -122z" />
<glyph unicode=":" horiz-adv-x="578" d="M176 244v240h228v-240h-228zM176 1072v240h228v-240h-228z" />
<glyph unicode=";" horiz-adv-x="572" d="M102 -4l84 286v194h210v-206l-120 -274h-174zM172 1072v240h226v-240h-226z" />
<glyph unicode="&#x3c;" horiz-adv-x="882" d="M130 740l478 954h212l-466 -956l464 -972h-210z" />
<glyph unicode="=" horiz-adv-x="1362" d="M150 548v188h1062v-188h-1062zM150 934v190h1062v-190h-1062z" />
<glyph unicode="&#x3e;" horiz-adv-x="882" d="M62 1694h212l464 -930v-46l-464 -952h-210l462 974q-110 238 -231 478t-233 476z" />
<glyph unicode="?" horiz-adv-x="1044" d="M34 1460q38 24 84 49t96 47q52 22 110 36t122 14q92 0 175 -24t145 -74q62 -48 99 -122t37 -174q0 -64 -18 -117t-48 -99t-68 -88t-78 -80l-82 -82q-28 -26 -45 -44t-27 -36q-10 -16 -13 -36t1 -46v-158h-192v230q2 78 57 138t123 120q36 32 70 64t60 68q28 36 45 76 t17 86q0 60 -24 100t-64 64t-92 33t-108 9q-28 0 -63 -9t-73 -27q-38 -16 -76 -38t-74 -48zM288 30v282h268v-282h-268z" />
<glyph unicode="@" horiz-adv-x="1914" d="M120 820q0 184 69 347t187 283q120 122 280 193t340 71q170 0 318 -54t256 -152q110 -98 172 -235t62 -301q0 -136 -50 -262t-130 -224q-78 -96 -176 -155t-194 -59q-60 0 -118 40t-80 116q-44 -40 -108 -77t-146 -37q-66 0 -126 24t-108 68q-46 44 -74 106t-28 140 q0 120 38 243t110 221t174 160t228 62q152 0 234 -110l32 86h200l-246 -716q-4 -20 -8 -39t-4 -39q0 -32 15 -53t47 -21q58 0 119 46t109 120q50 76 82 171t32 195q0 132 -49 238t-133 180q-84 76 -198 116t-246 40q-152 0 -281 -59t-225 -159q-94 -100 -147 -233t-53 -283 q0 -162 56 -293t152 -225q96 -92 225 -142t277 -50q170 0 328 81t262 231h206q-64 -116 -152 -205t-192 -149t-220 -91t-232 -31q-190 0 -353 67t-281 183q-118 118 -185 278t-67 348zM674 664q0 -70 36 -118t106 -48q72 0 132 55t104 135q44 82 68 173t24 163q0 54 -35 93 t-89 39q-84 0 -149 -50t-109 -124q-42 -74 -65 -160t-23 -158z" />
<glyph unicode="A" horiz-adv-x="1260" d="M10 110l528 1406h180l532 -1406h-218l-138 386h-534q-34 -102 -70 -198t-70 -188h-210zM428 684h396l-198 556q-48 -134 -97 -274t-101 -282z" />
<glyph unicode="B" horiz-adv-x="1290" d="M212 110v1406h454q86 0 165 -22t139 -68q60 -44 95 -114t35 -164q0 -102 -50 -176t-140 -120q104 -44 176 -133t72 -217q0 -78 -25 -149t-79 -125t-142 -86t-214 -32h-486zM412 296h184h30q66 0 120 7q66 9 110 33q46 26 69 70t23 114q0 74 -32 119t-90 67 q-56 24 -135 31t-173 7h-106v-448zM412 934h180q56 0 110 10t96 32q42 24 68 63t26 97q0 64 -26 102t-70 58t-99 27t-111 7h-174v-396z" />
<glyph unicode="C" horiz-adv-x="1214" d="M90 814q0 166 44 297t124 223q82 92 197 140t255 48q40 0 80 -1t84 -7q46 -6 97 -20t115 -38l-12 -208q-90 46 -185 65t-179 19q-198 0 -304 -137t-106 -381q0 -246 107 -383t323 -137q78 0 177 18t187 72l12 -204q-72 -42 -175 -58t-201 -16q-150 0 -269 48t-201 138 t-126 222t-44 300z" />
<glyph unicode="D" horiz-adv-x="1334" d="M212 110v1406h284q196 0 334 -46t226 -136q88 -88 128 -217t40 -293q0 -206 -53 -343t-153 -221q-100 -82 -243 -116t-323 -34h-240zM414 296h40q140 0 246 25t176 85q72 62 107 166t35 260t-42 253t-114 151t-169 73t-207 19h-72v-1032z" />
<glyph unicode="E" horiz-adv-x="1336" d="M212 110v1406h924v-188h-724v-396h696v-190h-696v-446h752v-186h-952z" />
<glyph unicode="F" horiz-adv-x="1262" d="M212 110v1406h882v-188h-682v-388h658v-190h-658v-640h-200z" />
<glyph unicode="G" horiz-adv-x="1350" d="M92 818q0 164 47 295t131 221q84 92 201 140t257 48q82 0 172 -19t180 -65l-26 -204q-52 30 -94 49t-80 29q-36 12 -73 16t-79 4q-96 0 -175 -35t-135 -101t-87 -162t-31 -216q0 -248 114 -386t314 -138q54 0 107 7t95 29v396h-262v190h468v-706q-56 -28 -105 -48 t-97 -32q-46 -12 -96 -18t-110 -6q-142 0 -259 48t-201 138q-84 92 -130 225t-46 301z" />
<glyph unicode="H" horiz-adv-x="1360" d="M212 110v1406h200v-584h536v584h200v-1406h-200v632h-536v-632h-200z" />
<glyph unicode="I" horiz-adv-x="840" d="M320 110v1406h200v-1406h-200z" />
<glyph unicode="J" horiz-adv-x="1008" d="M30 180v204q16 -8 56 -27t90 -39q52 -18 108 -32t106 -14q48 0 86 18t64 48q26 32 40 73t14 85v1020h202v-1016q0 -86 -26 -162t-76 -132q-48 -56 -122 -89t-170 -33q-64 0 -122 12t-108 26q-50 16 -87 32t-55 26z" />
<glyph unicode="K" horiz-adv-x="1202" d="M212 110v1406h196l2 -526q120 132 243 265t241 261h246l-592 -638q76 -90 158 -188t166 -198q84 -98 166 -196t158 -186h-262l-524 636q0 -158 -1 -321t-1 -315h-196z" />
<glyph unicode="L" horiz-adv-x="1166" d="M212 110v1406h200v-1220h724v-186h-924z" />
<glyph unicode="M" horiz-adv-x="1638" d="M212 110v1406h268l338 -1052q86 262 176 527t176 525h256v-1406h-198l-4 1016l-168 -512t-166 -504h-140l-338 1014v-1014h-200z" />
<glyph unicode="N" horiz-adv-x="1370" d="M212 110v1406h204l544 -1052v1052h198v-1406h-218l-528 1026v-1026h-200z" />
<glyph unicode="O" horiz-adv-x="1356" d="M120 812q0 152 34 285t102 231q70 98 175 154t247 56q140 0 245 -56t175 -154t104 -231t34 -285q0 -154 -34 -286t-104 -230t-175 -153t-245 -55q-142 0 -247 55t-175 153q-68 98 -102 230t-34 286zM328 812q0 -96 16 -192t56 -172q42 -76 109 -124t169 -48t169 48 t107 124t56 172t16 192t-16 192t-56 172q-40 78 -107 125t-169 47t-169 -47t-109 -125q-40 -76 -56 -172t-16 -192z" />
<glyph unicode="P" horiz-adv-x="1250" d="M212 110v1406h336h29q95 0 192 -11q111 -13 199 -57q90 -44 146 -129t56 -225q0 -138 -56 -222t-146 -130q-88 -44 -199 -57q-85 -10 -169 -10q-26 0 -52 1h-136v-566h-200zM412 864h220q66 0 125 11t103 37q46 28 73 72t27 110q0 68 -27 113t-73 71q-44 28 -103 39 t-125 11h-220v-464z" />
<glyph unicode="Q" horiz-adv-x="1388" d="M120 812q0 152 34 285t102 231q70 98 175 154t247 56q140 0 245 -56t175 -154t104 -231t34 -285q0 -158 -36 -290t-106 -232q24 2 51 2t53 2q18 0 55 1t55 3v-188h-270q-14 0 -26 1t-28 1q-16 2 -39 3t-43 1q-18 0 -37 -1t-31 -3q-36 -14 -76 -19t-80 -5q-142 0 -247 55 t-175 153q-68 98 -102 230t-34 286zM328 812q0 -96 16 -192t56 -172q42 -76 109 -124t169 -48t169 48t107 124t56 172t16 192t-16 192t-56 172q-40 78 -107 125t-169 47t-169 -47t-109 -125q-40 -76 -56 -172t-16 -192z" />
<glyph unicode="R" horiz-adv-x="1428" d="M212 110v1406h486q98 0 192 -18t166 -64q74 -44 118 -119t44 -189q0 -92 -57 -167t-147 -121q90 -46 124 -128t46 -174v2q6 -40 9 -76t7 -68q4 -40 8 -74t12 -68q10 -32 25 -67t43 -75h-238q-16 42 -25 75t-15 61q-6 30 -9 59t-7 63v-4q-2 8 -2 16t-2 16q-12 100 -25 166 t-41 104q-26 38 -75 53t-135 15h-302v-624h-200zM412 924h222q64 0 131 6t121 26q54 22 89 62t35 108q0 76 -34 118t-86 60q-50 20 -107 22t-105 2h-266v-404z" />
<glyph unicode="S" horiz-adv-x="1202" d="M80 230l30 218q82 -62 200 -109t258 -51h20q55 0 108 9q62 11 110 35q50 26 79 68t29 100q0 44 -16 76t-44 54q-26 24 -63 40t-79 28q-34 14 -63 22t-61 16q-84 24 -171 53t-157 75t-114 116t-44 176q0 94 43 166t111 120q70 48 159 72t179 24q114 0 219 -29t189 -57 l-32 -196q-30 14 -72 30t-92 30q-48 14 -99 23t-95 9q-50 0 -103 -9t-97 -31q-44 -20 -72 -56t-28 -90q0 -60 32 -102t82 -72t113 -51t127 -39q84 -22 165 -50t145 -72q66 -42 106 -108t40 -166q0 -112 -46 -189t-126 -125q-78 -46 -181 -67t-217 -21q-60 0 -128 11t-134 29 q-64 18 -119 42t-91 48z" />
<glyph unicode="T" horiz-adv-x="1064" d="M10 1328v188h1044v-188h-416q0 -300 -2 -610t-2 -608h-196l-2 1218h-426z" />
<glyph unicode="U" horiz-adv-x="1430" d="M212 648v868h200v-864q2 -90 20 -161t54 -121q36 -48 93 -75t137 -27t136 27t92 75q36 50 53 121t21 161v864h200v-868q-2 -124 -28 -228t-84 -180t-154 -119t-236 -43q-142 0 -237 43t-155 119q-58 76 -84 180t-28 228z" />
<glyph unicode="V" horiz-adv-x="1256" d="M20 1516h218l398 -1122q96 278 197 562t197 560h206l-506 -1406h-200z" />
<glyph unicode="W" horiz-adv-x="1634" d="M30 1516h210l198 -1062q68 264 138 532t136 530h206l292 -1062q48 266 98 533t96 529h200l-278 -1406h-232l-282 1080l-270 -1080h-238z" />
<glyph unicode="X" horiz-adv-x="1216" d="M30 110l456 718l-105 168t-111 176q-54 90 -109 177t-103 167h254l308 -532q78 132 162 268t162 264h226l-442 -690q54 -84 112 -176t118 -186q60 -92 118 -182t110 -172h-248l-340 552l-336 -552h-232z" />
<glyph unicode="Y" horiz-adv-x="1250" d="M20 1516h224l382 -604q98 154 192 302t192 302h220l-514 -796v-610h-198v608q-58 92 -122 194t-130 204q-64 104 -127 205t-119 195z" />
<glyph unicode="Z" horiz-adv-x="1446" d="M212 110v162l686 1056h-686v188h922v-162l-686 -1058h704v-186h-940z" />
<glyph unicode="[" horiz-adv-x="832" d="M290 -234v1930h342v-168h-142v-1594h142v-168h-342z" />
<glyph unicode="\" horiz-adv-x="852" d="M10 1616h204l624 -1818h-204z" />
<glyph unicode="]" horiz-adv-x="832" d="M200 -66h142v1594h-142v168h342v-1930h-342v168z" />
<glyph unicode="^" horiz-adv-x="1070" d="M108 1274l426 432l426 -432l-138 -112l-292 294q-70 -72 -142 -148t-138 -146z" />
<glyph unicode="_" horiz-adv-x="1080" d="M10 12v180h1060v-180h-1060z" />
<glyph unicode="`" horiz-adv-x="582" d="M36 1698h252l222 -370h-162z" />
<glyph unicode="a" horiz-adv-x="1020" d="M60 404q0 138 59 217t151 117q92 40 204 49t216 9v4q0 114 -44 171t-152 57q-74 0 -156 -26t-178 -88v210q34 16 78 31t88 25q46 12 89 19t79 7q208 0 299 -98t91 -316v-436q0 -58 2 -110t14 -136h-198l-2 90q-58 -58 -134 -87t-156 -29q-120 0 -189 36t-105 86t-46 105 t-10 93zM268 410q0 -82 42 -115t112 -33q98 0 152 37t80 89q26 54 31 110t5 94v28h-2q-74 0 -149 -6t-135 -28t-98 -63t-38 -113z" />
<glyph unicode="b" horiz-adv-x="1122" d="M140 110q0 8 1 34t1 36q4 44 6 92t2 96v1244h192l4 -516q106 110 268 110q122 0 203 -48t131 -128q50 -78 71 -179t21 -205q0 -100 -21 -201t-71 -183q-48 -82 -128 -133t-200 -51q-94 0 -160 32t-122 96l-4 -96h-194zM342 662q0 -78 9 -151t37 -129q30 -56 82 -90 t140 -34q74 0 120 38t70 96q26 60 34 130t8 134q0 66 -11 132t-39 120t-77 87t-123 33q-76 0 -125 -31t-77 -83q-28 -50 -38 -116t-10 -136z" />
<glyph unicode="c" horiz-adv-x="972" d="M76 642q0 126 33 230t95 178q64 76 158 117t216 41q126 0 201 -19t109 -29l-14 -198q-68 30 -136 50t-144 20q-82 0 -141 -29t-99 -81q-38 -52 -57 -123t-19 -157q0 -78 19 -149t55 -125q38 -52 95 -83t135 -31q86 0 152 18t136 46l18 -188q-40 -14 -77 -24t-75 -18 q-38 -6 -81 -9t-95 -3q-132 0 -224 46t-150 124t-84 181t-26 215z" />
<glyph unicode="d" horiz-adv-x="1122" d="M82 646q0 104 21 205t69 179q50 80 132 128t204 48q160 0 272 -112v518h192v-1244q0 -48 2 -96t6 -92q0 -10 1 -36t1 -34h-194l-4 96q-56 -64 -121 -96t-155 -32q-122 0 -204 51t-132 133q-48 82 -69 183t-21 201zM282 660q0 -64 7 -135t31 -131q24 -58 69 -97t121 -39 q86 0 138 34t80 90q28 58 38 132t10 152q0 70 -10 135t-38 115q-28 52 -77 82t-125 30q-74 0 -122 -33t-76 -85q-26 -52 -36 -118t-10 -132z" />
<glyph unicode="e" horiz-adv-x="1078" d="M70 640q0 124 36 228t100 178q66 76 154 118t190 42q116 0 202 -41t142 -113q58 -72 86 -168t28 -206v-98h-732q4 -72 27 -132t63 -104q42 -42 99 -67t131 -25q42 0 88 12t92 30q46 20 86 42t70 40v-214q-68 -34 -164 -61t-182 -27q-136 0 -234 43t-162 119 q-62 76 -91 179t-29 225zM278 760h522q-6 52 -23 101t-47 85q-30 38 -73 61t-99 23q-58 0 -106 -23t-84 -61t-60 -87t-30 -99z" />
<glyph unicode="f" horiz-adv-x="696" d="M22 998v178h200v180q0 146 66 215t214 69q22 0 43 -7t47 -13l20 -4t19 -4t17 -2v-164q-30 4 -59 8t-49 4q-82 0 -105 -35t-23 -95q0 -16 1 -30t1 -28v-94h226v-178h-226v-888h-192v888h-200z" />
<glyph unicode="g" horiz-adv-x="1102" d="M88 644q0 124 25 227t77 177q54 76 135 117t195 41q76 0 135 -16t113 -64v54h194v-908q0 -112 -27 -212t-89 -174q-60 -74 -157 -117t-237 -43q-52 0 -103 7t-97 17t-83 20t-61 16l14 212q76 -38 165 -64t167 -26q84 0 140 21t90 61q36 40 53 95t23 125q-46 -50 -108 -75 t-126 -25q-124 0 -208 49t-136 127q-50 78 -72 173t-22 185zM292 648q0 -68 11 -132t39 -114t74 -80t116 -30q74 0 121 32t73 82q26 52 36 115t10 127q0 84 -8 154t-34 120q-24 50 -70 78t-120 28q-78 0 -127 -34t-77 -88q-26 -54 -35 -122t-9 -136z" />
<glyph unicode="h" horiz-adv-x="1100" d="M140 110v1502h194l2 -514q112 108 270 108q90 0 153 -24t103 -62q42 -38 65 -86t33 -98q12 -48 15 -93t3 -75v-658h-194v678q0 114 -51 177t-155 63q-66 0 -112 -26t-76 -68q-28 -42 -42 -98t-14 -116v-610h-194z" />
<glyph unicode="i" horiz-adv-x="512" d="M150 1396v216h212v-216h-212zM158 110v1066h194v-1066h-194z" />
<glyph unicode="j" horiz-adv-x="588" d="M30 -74q28 -10 61 -16t49 -6q36 0 57 13t31 33q10 22 13 51t3 61v1114h192v-1130q0 -68 -11 -127t-41 -103q-28 -42 -79 -66t-129 -24q-44 0 -83 6t-63 10v184zM238 1396v216h210v-216h-210z" />
<glyph unicode="k" horiz-adv-x="1010" d="M140 110v1502h194v-790q86 86 179 178t177 176h248l-488 -468q58 -70 125 -147t135 -155q70 -78 136 -154t124 -142h-238l-398 476v-476h-194z" />
<glyph unicode="l" horiz-adv-x="494" d="M150 110v1502h194v-1502h-194z" />
<glyph unicode="m" horiz-adv-x="1544" d="M140 1140v22v14h192l2 -64q82 94 206 94q104 0 172 -46t102 -112q44 74 110 116t150 42q120 0 186 -45t98 -109t39 -137t7 -127v-678h-192v678q0 114 -33 177t-137 63q-84 0 -126 -76t-42 -194v-648h-194v678q0 114 -40 177t-130 63q-74 0 -121 -71t-47 -191v-656h-194 v806q0 48 -2 95t-4 91v16t-2 22z" />
<glyph unicode="n" horiz-adv-x="1124" d="M140 1176h194l4 -86q52 52 126 84t150 32q134 0 209 -51t111 -123q36 -70 43 -144t7 -120v-658h-192v678q0 114 -51 177t-159 63q-64 0 -110 -26t-76 -68q-28 -42 -42 -98t-14 -116v-610h-192v848q-2 44 -4 108t-4 110z" />
<glyph unicode="o" horiz-adv-x="1064" d="M80 642q0 106 25 207t79 181t140 128t208 48t208 -48t140 -128t79 -181t25 -207t-25 -207t-79 -181q-54 -78 -140 -127t-208 -49t-208 49t-140 127q-54 80 -79 181t-25 207zM280 642q0 -64 12 -131t40 -125q30 -56 79 -92t121 -36t121 36t79 92q30 58 42 125t12 131 q0 62 -12 131t-42 125t-79 93t-121 37t-121 -37t-79 -93q-28 -56 -40 -125t-12 -131z" />
<glyph unicode="p" horiz-adv-x="1122" d="M140 1176h196l2 -90q52 58 123 89t153 31q122 0 203 -48t131 -128q50 -78 71 -179t21 -205q0 -100 -21 -201t-71 -183q-48 -82 -128 -133t-200 -51q-92 0 -157 31t-121 89v-472h-192v1190q1 21 1 42.5t-1 43.5q-2 44 -6 84v-2q-2 14 -3 32t-1 60zM342 666q0 -78 9 -152 t37 -132q30 -56 82 -90t140 -34q74 0 120 39t70 97q26 60 34 131t8 135q0 66 -11 132t-39 118t-77 85t-123 33q-76 0 -125 -30t-77 -82q-28 -50 -38 -115t-10 -135z" />
<glyph unicode="q" horiz-adv-x="1124" d="M82 646q0 104 21 205t69 179q50 80 132 128t204 48q170 0 276 -120l4 90h196v-14t-2 -22v-22v-16q-4 -44 -6 -91t-2 -95v-1188h-194l-4 468q-54 -58 -118 -88t-156 -30q-120 0 -200 51t-130 133q-48 82 -69 183t-21 201zM282 660q0 -64 8 -135t32 -131q26 -58 71 -97 t119 -39q86 0 139 34t81 90q28 58 38 132t10 152q0 70 -10 135t-38 115q-28 52 -77 82t-125 30q-74 0 -122 -33t-76 -85t-39 -118t-11 -132z" />
<glyph unicode="r" horiz-adv-x="722" d="M140 1176h196l2 -70q40 46 90 72t106 28q32 0 72 -1t86 -3v-184q-30 0 -48 2t-26 4q-10 2 -18 3t-16 1q-116 0 -177 -78t-65 -206v-634h-192v806q1 21 1 42.5t-1 43.5q-2 44 -6 84v-2q-2 14 -3 32t-1 60z" />
<glyph unicode="s" horiz-adv-x="968" d="M94 182l36 152q6 -4 29 -1t31 -1q52 -24 119 -49t161 -25h16q83 0 133 38q55 42 55 116q0 60 -66 100t-188 84q-60 24 -115 51t-97 63q-40 36 -64 83t-24 109q0 80 29 138t79 94q50 38 116 55t138 17q68 0 147 -23t159 -53l-18 -186q-70 30 -146 57t-154 27 q-66 0 -109 -29t-43 -99q0 -26 13 -47t45 -43q34 -22 92 -48t146 -62q54 -22 101 -48t81 -62q36 -34 57 -77t21 -97q0 -94 -33 -159t-89 -105t-132 -57t-162 -17q-98 0 -177 28t-137 54v-2q-6 4 -25 12t-25 12z" />
<glyph unicode="t" horiz-adv-x="690" d="M20 998v178h198v202l192 78v-280h228v-178h-228v-634v-7q0 -99 104 -99q24 0 57 4t79 18v-174q-40 -12 -81 -20t-73 -8q-108 0 -165 31t-83 79q-24 48 -27 107t-3 115v588h-198z" />
<glyph unicode="u" horiz-adv-x="1120" d="M140 518v658h194v-680q0 -114 50 -176t156 -62q64 0 110 25t74 67q30 44 44 100t14 116v610h192v-808q0 -52 5 -123t11 -135h-202l-2 82q-54 -52 -125 -83t-153 -31q-90 0 -152 24t-104 62q-40 38 -63 87t-35 97q-10 48 -12 93t-2 77z" />
<glyph unicode="v" horiz-adv-x="1002" d="M20 1176h208l280 -762q68 192 135 382t131 380h208l-380 -1066h-188z" />
<glyph unicode="w" horiz-adv-x="1378" d="M20 1176h204l182 -712q48 176 99 357t97 355h192l194 -700q40 172 82 352t82 348h206l-296 -1066h-162l-208 758q-52 -188 -107 -381t-103 -377h-174z" />
<glyph unicode="x" horiz-adv-x="1020" d="M20 112l368 542q-40 60 -86 127t-92 135q-46 70 -91 136t-83 124h244l236 -372l240 372h208l-340 -518q42 -64 90 -135t98 -143q50 -70 98 -140t90 -130h-244l-262 402q-64 -102 -129 -204t-127 -198z" />
<glyph unicode="y" horiz-adv-x="1008" d="M20 1176h220l274 -764q66 188 135 383t133 381h206l-420 -1150q-20 -52 -47 -106t-65 -98q-36 -42 -83 -69t-107 -27q-38 0 -82 6t-90 16l20 182q30 -10 61 -18t63 -8q66 0 100 66q16 42 35 86t35 88q-96 250 -195 516t-193 516z" />
<glyph unicode="z" horiz-adv-x="836" d="M60 110v152l484 736h-484v178h716v-152l-482 -738h482v-176h-716z" />
<glyph unicode="{" horiz-adv-x="724" d="M58 660v170q46 4 74 22t42 46q16 30 21 70t5 88v388q0 56 19 101t49 77t67 50t71 22h138v-168h-96q-22 -8 -35 -36t-13 -78v-384q0 -58 -11 -104t-29 -82q-16 -34 -36 -59t-36 -41q16 -16 35 -40t35 -58q18 -34 30 -78t12 -100v-418q0 -52 13 -80t35 -36h96v-166h-138 q-34 2 -71 21t-67 49q-30 32 -49 77t-19 101v420q0 48 -5 87t-21 67q-14 30 -42 48t-74 24z" />
<glyph unicode="|" horiz-adv-x="540" d="M172 -258v1972h198v-1972h-198z" />
<glyph unicode="}" horiz-adv-x="724" d="M180 -68h96q22 8 35 36t13 80v412q0 56 11 102t27 80q18 34 37 59t35 41q-16 16 -35 40t-37 58q-16 36 -27 81t-11 101v422q0 50 -13 62t-35 20h-96v168h138q34 -4 71 -17t67 -39t49 -66t19 -96v-426q0 -46 5 -85t19 -69q16 -28 45 -46t75 -22v-170q-46 -6 -75 -24 t-45 -48q-14 -30 -19 -70t-5 -88v-414q0 -56 -19 -102t-49 -78t-67 -50t-71 -18h-138v166z" />
<glyph unicode="~" horiz-adv-x="1386" d="M148 766q26 38 58 80t70 78q40 36 88 59t108 23q56 0 120 -23t126 -51q58 -28 108 -48t86 -20q28 0 54 19t50 47t45 63t37 65l134 -114q-26 -48 -59 -95t-73 -85q-40 -36 -87 -59t-103 -23q-30 0 -69 9t-79 23q-38 14 -74 29t-62 25q-12 4 -23 9t-21 13h2q-28 12 -57 25 t-55 13q-32 0 -61 -22t-57 -56q-26 -32 -49 -71t-41 -73z" />
<glyph horiz-adv-x="0" />
<glyph unicode="&#xa1;" horiz-adv-x="804" d="M294 -42l22 1228h172l22 -1228h-216zM294 1328v242h216v-242h-216z" />
<glyph unicode="&#xa4;" horiz-adv-x="1776" d="M96 1454l130 124l290 -284q72 52 159 77t197 25q226 0 374 -108l300 306l138 -128l-306 -302q60 -80 89 -176t29 -196q0 -98 -27 -193t-85 -175l296 -294l-122 -136l-304 304q-74 -52 -168 -83t-214 -31q-112 0 -199 27t-159 79q-68 -70 -143 -143t-139 -137l-128 126 l280 284q-58 82 -86 177t-28 195q0 102 28 197t86 177q-70 70 -145 147t-143 141zM450 786q0 -82 27 -159t79 -139t131 -99t185 -37q108 0 191 37t137 99q56 62 84 139t28 159t-28 161t-84 139q-54 62 -137 99t-191 37q-106 0 -185 -37t-131 -99q-52 -60 -79 -139t-27 -161z " />
<glyph unicode="&#xa7;" horiz-adv-x="1404" d="M336 816q0 60 28 118q22 42 57 68t69 36q-42 48 -74 109t-30 139q0 76 25 137t67 103t95 67t111 29q76 4 135 -16t99 -56q42 -34 63 -76t21 -80q0 -56 -38 -92q-20 -22 -44 -31t-48 -9q-50 0 -87 36t-37 94q0 32 16 70q4 10 -18 15t-62 1q-16 -2 -33 -10t-33 -24 q-16 -14 -26 -38t-10 -58q0 -66 33 -109t91 -95q60 -52 123 -110t113 -120q52 -60 85 -126t33 -134q0 -22 -3 -45t-13 -47q-16 -48 -48 -84t-84 -50q36 -46 62 -104t26 -128q0 -50 -14 -100q-22 -70 -55 -115t-75 -73q-42 -26 -88 -36t-92 -10q-34 0 -60 4t-50 8 q-92 18 -146 75t-54 119q0 32 17 62t43 54q40 28 80 28q54 0 92 -37t38 -91q0 -42 -20 -74q-4 -4 18 -7t44 1q36 4 63 21t43 63q6 30 6 52q0 38 -16 74t-44 68q-26 34 -59 65t-65 61l-68 64q-36 36 -72 75t-66 81q-28 44 -46 91t-18 97zM524 852q0 -42 32 -92t74 -90 q126 -114 186 -114q16 0 32 10q24 18 24 46q0 40 -34 88t-80 94v2q-48 46 -94 79t-84 33q-20 0 -34 -10q-22 -18 -22 -46z" />
<glyph unicode="&#xa8;" horiz-adv-x="1316" d="M264 1260v260h258v-260h-258zM748 1260v260h256v-260h-256z" />
<glyph unicode="&#xaa;" horiz-adv-x="1380" d="M128 48v164h1074v-164h-1074zM240 714q0 136 61 213t151 113q92 38 201 48t205 10v6q0 108 -40 158t-140 50q-70 0 -149 -24t-179 -82v204q74 38 166 60t162 22q200 0 288 -93t88 -301v-426q0 -56 2 -108t18 -132h-204v76q-58 -54 -131 -79t-145 -25q-112 0 -182 34 t-108 82q-38 50 -51 103t-13 91zM446 718q0 -70 48 -100t116 -30q90 0 140 37t74 89t29 106t5 88v24q-58 0 -130 -7t-136 -29q-62 -22 -104 -64t-42 -114z" />
<glyph unicode="&#xad;" horiz-adv-x="1426" d="M174 716v178h1026v-178h-1026z" />
<glyph unicode="&#xae;" horiz-adv-x="2118" d="M140 786q0 190 72 358t196 292q124 126 292 198t358 72t358 -72t292 -198q126 -124 198 -292t72 -358t-72 -358t-198 -292q-124 -124 -292 -196t-358 -72t-358 72t-292 196t-196 292t-72 358zM272 786q0 -162 61 -306t167 -250q108 -106 251 -168t307 -62q162 0 304 62 q128 54 224 146h-224q-38 58 -48 112t-16 130q-6 48 -18 89t-40 73t-78 50t-132 18h-200v-472h-188v1168h466q194 0 300 -84t106 -272q0 -102 -54 -162t-124 -88q38 -20 64 -45t42 -53q18 -28 27 -56t13 -52l14 -112q4 -30 8 -59t14 -59t26 -62q16 -30 44 -64l24 22 q108 106 169 250t61 306t-61 306t-169 250q-106 106 -249 168t-305 62q-164 0 -307 -62t-251 -168q-106 -106 -167 -250t-61 -306zM830 860h122q62 0 126 3t116 17q54 16 88 49t34 91q0 66 -26 103t-68 53q-40 16 -88 19t-92 3h-212v-338z" />
<glyph unicode="&#xb0;" horiz-adv-x="738" d="M106 1366q0 52 20 97t52 79q34 34 79 54t97 20t98 -20t80 -54t54 -79t20 -97t-20 -97t-54 -79t-80 -54t-98 -20t-97 20t-79 54q-32 34 -52 79t-20 97zM264 1366q0 -40 26 -67t66 -27t67 27t27 67t-27 66t-67 26t-66 -26t-26 -66z" />
<glyph unicode="&#xb1;" horiz-adv-x="1800" d="M238 140v178h1274v-178h-1274zM238 842v184h540v420h200v-420h534v-184h-534v-422h-200v422h-540z" />
<glyph unicode="&#xb2;" horiz-adv-x="660" d="M80 990v128q20 18 52 49t68 67q38 38 76 79t68 79q30 40 49 73t19 57q0 32 -33 52t-67 20q-32 0 -83 -18t-109 -50l-22 154q48 24 103 42t113 18q46 0 92 -15t82 -43q36 -26 58 -66t22 -90q0 -48 -25 -100t-63 -106q-38 -52 -83 -100t-85 -86h264v-144h-496z" />
<glyph unicode="&#xb3;" horiz-adv-x="728" d="M116 1006l12 162q70 -34 118 -44t80 -10q44 0 83 19t39 77q0 38 -14 58t-38 28q-22 8 -49 8h-51h-100v148h100q46 0 80 10t46 60q8 36 -23 54t-67 20q-28 2 -84 -14t-110 -40l-14 152q52 22 105 35t95 13q48 0 93 -14t81 -42q36 -26 58 -69t22 -99q0 -42 -21 -78t-49 -62 q18 -10 36 -25t32 -37q14 -20 22 -49t6 -67q-4 -68 -30 -113t-66 -71q-38 -26 -86 -36t-94 -10t-104 7t-108 29z" />
<glyph unicode="&#xb4;" horiz-adv-x="714" d="M168 1164l124 410h204l-164 -410h-164z" />
<glyph unicode="&#xb6;" horiz-adv-x="1600" d="M266 1126q0 172 114 250t302 78h546v-122q-44 -6 -70 -11t-40 -15q-12 -8 -15 -23t-3 -41v-856q0 -24 3 -39t15 -25q14 -8 39 -13t71 -7v-134h-328v1152h-92v-1152h-326v134q48 2 74 7t38 15q12 12 14 30t2 48v378q-72 6 -135 33t-111 71q-46 46 -72 106t-26 136z M480 1122q0 -44 13 -78t33 -58t43 -40t41 -24v390q-20 -6 -43 -19t-43 -35q-18 -22 -31 -55t-13 -81zM605 1313q-1 -1 5 -1q6 2 4 2h-6q-2 0 -3 -1z" />
<glyph unicode="&#xb7;" horiz-adv-x="610" d="M164 676v258h258v-258h-258z" />
<glyph unicode="&#xb8;" horiz-adv-x="770" d="M150 -12l54 114q42 -24 65 -36t37 -10q24 2 52 10t28 40q0 14 -11 20t-45 6q-12 0 -25 -1t-31 -7l-58 30l80 234h146l-38 -116q6 0 14 -1t14 -1q64 -4 106 -41t42 -119q0 -84 -57 -137t-193 -53q-54 0 -90 16t-90 52z" />
<glyph unicode="&#xb9;" horiz-adv-x="502" d="M60 1578l182 154h114v-746h-150v530q-16 -14 -35 -29t-29 -25z" />
<glyph unicode="&#xba;" horiz-adv-x="1310" d="M128 48v164h1074v-164h-1074zM236 946q0 102 24 199t74 171q52 76 131 121t187 45t187 -45t129 -121q50 -74 74 -171t24 -199q0 -114 -24 -213t-74 -171t-129 -114t-187 -42t-187 42t-131 114q-50 72 -74 171t-24 213zM426 946q0 -172 58 -275t168 -103q112 0 169 103 t57 275q0 168 -58 271t-168 103t-168 -103t-58 -271z" />
<glyph unicode="&#xbc;" horiz-adv-x="1866" d="M132 1242l274 230h134v-1102h-170v870q-34 -32 -70 -64t-64 -56zM466 -28l624 1288h180l-628 -1288h-176zM1016 120v140l440 724h184v-710h164v-154h-164v-252h-172v252h-452zM1206 274h262v438z" />
<glyph unicode="&#xbd;" horiz-adv-x="2100" d="M134 1242l272 230h136v-1102h-172v870q-34 -32 -69 -64t-63 -56zM486 -28l624 1288h180l-628 -1288h-176zM1116 62q34 30 86 79t110 109q60 60 119 125t107 129t78 121t30 99q0 72 -50 109t-120 37q-58 0 -137 -33t-155 -77l-32 174q66 32 148 65t178 33q70 0 133 -19 t109 -57q48 -38 76 -95t28 -133q0 -84 -47 -173t-117 -177q-68 -86 -149 -165t-147 -143h472v-162h-720v154z" />
<glyph unicode="&#xbe;" horiz-adv-x="2126" d="M148 438l22 174q168 -82 294 -82q90 0 152 45t62 139q0 50 -24 83t-62 51q-38 20 -85 27t-93 7h-132v162h132q44 0 88 7t78 25q36 18 58 49t22 79q0 70 -55 107t-131 41q-26 2 -62 -3t-76 -15q-38 -8 -78 -22t-76 -28l-14 168q70 28 145 45t143 17q72 0 141 -18t123 -56 t87 -99t33 -145t-40 -141t-102 -93q68 -40 113 -106t45 -154q0 -82 -34 -144t-90 -104q-54 -42 -124 -63t-142 -21q-70 0 -156 18t-162 50zM656 -28l622 1288h180l-626 -1288h-176zM1168 120v140l440 724h182v-710h166v-154h-166v-252h-170v252h-452zM1356 274h264v438z" />
<glyph unicode="&#xbf;" horiz-adv-x="1012" d="M134 450q0 66 14 117t38 93t54 77t62 69q34 36 64 71t52 69q28 50 35 105t7 133h202q0 -84 -10 -147t-30 -115q-20 -50 -53 -96t-77 -94q-32 -34 -59 -65t-47 -65q-20 -32 -31 -69t-11 -83q0 -86 57 -133t147 -47q72 0 148 20t158 48l8 -210q-82 -26 -163 -43t-157 -17 q-82 0 -156 23t-130 69t-89 118t-33 172zM444 1268v242h234v-242h-234z" />
<glyph unicode="&#xc6;" horiz-adv-x="1628" d="M-6 150l526 1332h944v-192h-532v-354h472v-190h-472v-402h546v-194h-754v412h-344l-160 -412h-226zM456 752h268v538h-70z" />
<glyph unicode="&#xd0;" horiz-adv-x="1490" d="M78 714v192h182v578h352q178 0 304 -49t206 -137t117 -210t37 -268q0 -182 -57 -309t-159 -207q-100 -80 -239 -117t-303 -37h-258v564h-182zM466 342h62q124 0 225 26t171 82q72 58 111 150t39 226q0 132 -37 221t-101 143q-62 56 -147 79t-183 23h-140v-386h270v-192 h-270v-372z" />
<glyph unicode="&#xd7;" horiz-adv-x="1600" d="M148 328l484 472l-460 460l132 136l456 -462l454 454l132 -126l-452 -456l492 -484l-130 -138l-494 492l-476 -478z" />
<glyph unicode="&#xd8;" horiz-adv-x="1572" d="M174 728q-2 134 34 258t110 220t186 153t262 57q152 0 262 -58l6 -6l100 180l152 -76l-114 -204l40 -46q72 -96 107 -220t35 -258q-2 -154 -40 -280t-112 -218q-72 -90 -182 -140t-254 -50q-138 0 -244 44l-96 -172l-142 84l98 176q-32 26 -56 58q-74 92 -112 218 t-40 280zM380 728q0 -92 23 -182t71 -162l14 -20l452 818l-4 4q-72 44 -170 44q-100 0 -172 -44t-120 -116q-48 -70 -71 -160t-23 -182zM618 256q64 -30 148 -30q98 0 171 44t119 114q48 72 71 162t23 182t-24 182q-20 82 -64 146z" />
<glyph unicode="&#xde;" horiz-adv-x="1376" d="M212 144v1356h206v-182h212q156 0 257 -40t159 -106t80 -153t20 -183q-4 -254 -156 -370t-434 -116h-138v-206h-206zM418 532h144q204 0 297 72t93 236q0 154 -85 224t-241 70h-208v-602z" />
<glyph unicode="&#xdf;" horiz-adv-x="1364" d="M238 262v914q0 78 26 142t78 110q54 48 131 74t179 26q204 0 318 -90t114 -234q0 -146 -112 -242q-4 -4 -5 -3t1 1q-2 0 -4 -1t-4 -1q48 -24 82 -56t54 -70q22 -36 32 -75t10 -75q0 -118 -34 -202t-94 -138t-142 -80t-178 -26q-24 0 -38 1t-26 3q-4 2 -13 2h-37v178 q32 -4 59 -6t39 -2q130 0 199 57t69 175q0 60 -20 101t-56 65q-36 26 -85 36t-107 10q-14 0 -27 -1t-59 -5v172h60q68 0 115 14t73 36q28 24 40 54t12 64q0 76 -61 123t-175 47q-66 0 -109 -16t-69 -46q-24 -30 -34 -71t-10 -89v-876h-192z" />
<glyph unicode="&#xe6;" horiz-adv-x="1980" d="M246 636q0 32 7 79t37 93q30 48 88 85t160 49l248 32q20 4 39 18t19 64q0 62 -49 93t-139 31q-52 0 -86 -17t-54 -43t-30 -56t-16 -56h-178q8 186 111 266t281 80q54 0 95 -7t73 -23q34 -14 62 -36t58 -54q58 60 123 90t177 30q198 0 299 -154t107 -420h-654 q8 -120 67 -186t167 -66q46 0 83 17t65 43t45 58t23 60h204q-24 -70 -57 -134t-83 -112q-48 -48 -121 -76t-179 -28q-70 0 -122 15t-92 37q-38 24 -66 54t-48 60q-74 -94 -162 -130t-202 -36q-134 0 -217 76t-83 204zM450 656q0 -62 32 -97t106 -35q46 0 91 14t81 38 q36 26 58 61t22 77v112q-34 -14 -84 -23t-140 -21q-22 -2 -50 -8t-54 -20t-44 -38t-18 -60zM1024 946h446q-6 46 -20 86t-40 70t-66 47t-96 17q-86 0 -148 -64t-76 -156z" />
<glyph unicode="&#xf0;" horiz-adv-x="1540" d="M296 700q0 90 27 177t79 155q54 68 131 110t179 42q28 0 71 -5t95 -27q-28 40 -60 73t-66 61q-52 -26 -110 -53t-106 -53l-106 106l194 92q-34 22 -74 44l-80 44l170 86q46 -18 88 -39t78 -45l184 86l116 -104l-186 -86q64 -68 112 -146t78 -156q32 -78 47 -152t15 -134 q0 -162 -39 -270t-101 -172t-136 -91t-144 -27q-120 0 -206 42t-142 110q-56 70 -82 156t-26 176zM496 700q0 -30 9 -82t35 -102t73 -87t123 -37q78 0 125 37t73 87t35 102t9 82q0 32 -9 84t-35 102t-73 87t-125 37q-76 0 -123 -37t-73 -87t-35 -102t-9 -84z" />
<glyph unicode="&#xf7;" horiz-adv-x="1600" d="M118 706v192h1306v-192h-1306zM612 320q0 66 47 113t113 47q64 0 111 -47t47 -113q0 -64 -47 -111t-111 -47q-66 0 -113 47t-47 111zM612 1292q0 64 47 111t113 47q64 0 111 -47t47 -111q0 -66 -47 -113t-111 -47q-66 0 -113 47t-47 113z" />
<glyph unicode="&#xf8;" horiz-adv-x="1442" d="M236 878q0 98 27 189t83 161t142 113t206 43q68 0 126 -16l84 174l152 -80l-82 -170q38 -28 68 -64q58 -70 85 -161t27 -189q0 -100 -27 -192t-83 -162t-143 -113t-205 -43q-88 0 -156 22l-76 -158l-152 76l80 168q-26 22 -46 48q-56 70 -83 162t-27 192zM438 878 q0 -72 16 -134q10 -42 30 -78l260 542q-24 6 -48 6q-64 0 -112 -26t-80 -72t-49 -107t-17 -131zM616 550q36 -10 78 -10q62 0 110 26t80 72t49 107t17 133q0 70 -16 130t-48 104z" />
<glyph unicode="&#xfe;" horiz-adv-x="1296" d="M234 194v1358h194v-206q46 40 109 61t127 21q110 0 188 -34t126 -96q50 -60 73 -144t23 -186q0 -96 -25 -180t-77 -146q-50 -60 -127 -96t-179 -36q-154 0 -238 78v-394h-194zM428 940q2 -46 15 -94t39 -86q28 -38 69 -62t97 -24q68 0 112 27t70 69t36 94t10 104 q0 54 -10 107t-36 95t-70 69t-110 27q-58 0 -99 -25t-69 -65q-26 -38 -39 -85t-15 -93q-4 -30 0 -58z" />
<glyph unicode="&#x152;" horiz-adv-x="2074" d="M186 816q0 64 10 140t34 152q26 76 66 148t102 126q62 56 147 89t197 33t182 -33t116 -79v80h804v-190h-612v-352h586v-184h-586v-386h616v-190h-810v88q-50 -52 -122 -85t-198 -33q-128 0 -227 50t-167 138q-68 90 -103 214t-35 274zM392 786q0 -78 13 -141t35 -117 q42 -104 115 -156t211 -52q40 0 88 15t90 47t70 84t28 128v462q0 62 -24 111t-64 83t-94 52t-116 18q-82 0 -140 -29t-98 -75q-38 -46 -61 -105t-35 -119q-12 -58 -15 -113t-3 -93z" />
<glyph unicode="&#x153;" horiz-adv-x="2062" d="M246 904q0 90 26 178t78 156q54 70 135 113t191 43q100 0 181 -39t145 -123q132 162 340 162q194 0 294 -149t104 -415h-638q10 -118 67 -180t163 -62q44 0 80 17t62 41q28 26 46 56t24 58h196q-22 -68 -54 -131t-82 -111t-121 -76t-169 -28q-90 0 -171 32t-153 122 q-38 -54 -83 -85t-89 -45q-42 -14 -80 -17t-62 -3q-110 0 -191 42t-135 110q-52 68 -78 155t-26 179zM446 904q0 -38 9 -92t33 -104q26 -48 71 -83t117 -35t117 35t69 83q24 50 33 104t9 92q0 40 -9 94t-33 102q-24 50 -69 84t-117 34t-117 -34t-71 -84q-24 -48 -33 -102 t-9 -94zM1104 996h434q-10 92 -58 155t-158 63q-42 0 -79 -17t-67 -47q-28 -30 -47 -70t-25 -84z" />
<glyph unicode="&#x2000;" horiz-adv-x="875" />
<glyph unicode="&#x2001;" horiz-adv-x="1750" />
<glyph unicode="&#x2002;" horiz-adv-x="875" />
<glyph unicode="&#x2003;" horiz-adv-x="1750" />
<glyph unicode="&#x2004;" horiz-adv-x="583" />
<glyph unicode="&#x2005;" horiz-adv-x="437" />
<glyph unicode="&#x2006;" horiz-adv-x="291" />
<glyph unicode="&#x2007;" horiz-adv-x="291" />
<glyph unicode="&#x2008;" horiz-adv-x="218" />
<glyph unicode="&#x2009;" horiz-adv-x="350" />
<glyph unicode="&#x200a;" horiz-adv-x="97" />
<glyph unicode="&#x2010;" horiz-adv-x="1040" d="M144 742v190h752v-190h-752z" />
<glyph unicode="&#x2011;" horiz-adv-x="1040" d="M144 742v190h752v-190h-752z" />
<glyph unicode="&#x2012;" horiz-adv-x="1040" d="M144 742v190h752v-190h-752z" />
<glyph unicode="&#x2013;" horiz-adv-x="1312" d="M144 742v190h1024v-190h-1024z" />
<glyph unicode="&#x2014;" horiz-adv-x="2336" d="M144 742v190h2048v-190h-2048z" />
<glyph unicode="&#x2018;" horiz-adv-x="534" d="M130 1234v212q0 76 44 155t134 149l74 -60q-14 -10 -31 -31t-33 -49q-16 -26 -29 -56t-15 -58h140v-262h-284z" />
<glyph unicode="&#x2019;" horiz-adv-x="554" d="M130 1356v262h284v-212q0 -76 -44 -155t-134 -149l-74 60q14 10 31 31t33 47q16 28 28 58t16 58h-140z" />
<glyph unicode="&#x201c;" horiz-adv-x="934" d="M120 1234v212q0 76 44 155t134 149l74 -60q-14 -10 -31 -31t-33 -49q-16 -26 -29 -56t-15 -58h140v-262h-284zM540 1234v212q0 76 44 155t134 149l74 -60q-14 -10 -31 -31t-33 -49q-16 -26 -29 -56t-15 -58h140v-262h-284z" />
<glyph unicode="&#x201d;" horiz-adv-x="932" d="M116 1356v262h284v-212q0 -76 -44 -155t-134 -149l-74 60q14 10 31 31t33 47q16 28 28 58t16 58h-140zM536 1356v262h284v-212q0 -76 -44 -155t-134 -149l-74 60q14 10 31 31t33 47q16 28 28 58t16 58h-140z" />
<glyph unicode="&#x2026;" horiz-adv-x="1680" d="M160 676v258h258v-258h-258zM680 676v258h258v-258h-258zM1200 676v258h258v-258h-258z" />
<glyph unicode="&#x202f;" horiz-adv-x="350" />
<glyph unicode="&#x205f;" horiz-adv-x="437" />
<glyph unicode="&#x20ac;" horiz-adv-x="1508" d="M158 472v182h218q-6 62 -6 130v50h-212v182h238l16 52q44 128 122 214q78 88 188 135t244 47q38 0 77 -1t81 -7q44 -6 94 -19t110 -37l-12 -210q-88 48 -179 66t-171 18q-188 0 -288 -130q-44 -56 -68 -128h346v-182h-378v-50q0 -70 8 -130h370v-182h-312q16 -28 34 -50 q102 -130 306 -130q74 0 168 17t180 71l14 -204q-70 -40 -168 -57t-194 -17q-144 0 -258 46t-194 132q-72 80 -112 192h-262z" />
<glyph unicode="&#x2122;" horiz-adv-x="2538" d="M62 1270v188h1004v-188h-398q0 -284 -2 -583t-2 -581h-194l-2 1164h-406zM1142 106v1352h262l320 -996l334 996h252v-1352h-198l-4 952q-78 -240 -157 -479t-155 -473h-138l-318 950v-950h-198z" />
<glyph unicode="&#xe000;" horiz-adv-x="1180" d="M0 0v1180h1180v-1180h-1180z" />
</font>
</defs>
</svg>
