<?xml version="1.0" standalone="no"?>
<!DOCTYPE svg PUBLIC "-//W3C//DTD SVG 1.1//EN" "http://www.w3.org/Graphics/SVG/1.1/DTD/svg11.dtd" >
<svg xmlns="http://www.w3.org/2000/svg">
<metadata>
This is a custom SVG webfont generated by Font Squirrel.
Copyright   : Copyright c The Font Bureau Inc 2003 All rights reserved
Designer    : Tobias FrereJones
Foundry     : The Font Bureau Inc
Foundry URL : httpwwwfontbureaucom
</metadata>
<defs>
<font id="InterstateBlackCondensed" horiz-adv-x="1521" >
<font-face units-per-em="2048" ascent="1638" descent="-410" />
<missing-glyph horiz-adv-x="530" />
<glyph unicode=" "  horiz-adv-x="530" />
<glyph unicode="&#x09;" horiz-adv-x="530" />
<glyph unicode="&#xa0;" horiz-adv-x="530" />
<glyph unicode="!" horiz-adv-x="559" d="M94 160q0 80 52.5 131t132.5 51q82 0 133 -51t51 -131q0 -78 -51.5 -130.5t-132.5 -52.5q-80 0 -132.5 52.5t-52.5 130.5zM111 842v592h335v-592l-53 -396h-227z" />
<glyph unicode="&#x22;" horiz-adv-x="1052" d="M92 1434h371l-68 -670h-233zM588 1434h370l-67 -670h-234z" />
<glyph unicode="#" horiz-adv-x="1294" d="M78 279v264h164v348h-164v264h164v279h307v-279h196v279h308v-279h164v-264h-164v-348h164v-264h-164v-279h-308v279h-196v-279h-307v279h-164zM537 530h221v373h-221v-373z" />
<glyph unicode="$" horiz-adv-x="1060" d="M49 238l223 200q145 -174 254 -174q55 0 89 29t34 86q0 66 -34.5 107.5t-149.5 93.5q-217 96 -303 194t-86 264q0 139 75.5 242.5t210.5 142.5v181h328v-179q147 -41 281 -206l-228 -203q-76 90 -122 121.5t-111 31.5q-47 0 -74.5 -29.5t-27.5 -72.5q0 -57 37.5 -96 t144.5 -86q219 -96 307 -201.5t88 -284.5q0 -152 -79 -251t-216 -138v-180h-328v176q-172 46 -313 232z" />
<glyph unicode="%" horiz-adv-x="1855" d="M53 1008q0 215 95.5 331.5t259 116.5t258 -114.5t94.5 -329.5t-96.5 -332t-260 -117t-257 115t-93.5 330zM324 1012q0 -133 19 -183.5t65 -50.5q47 0 64 47t17 183q0 133 -19 183t-64 50q-47 0 -64.5 -47t-17.5 -182zM412 0l753 1434h279l-754 -1434h-278zM1096 422 q0 215 95 331.5t259 116.5t258 -114.5t94 -329.5t-96 -332t-260 -117t-257 115t-93 330zM1366 426q0 -133 19.5 -183t64.5 -50q47 0 64.5 47t17.5 182q0 133 -19.5 183t-64.5 50q-47 0 -64.5 -47t-17.5 -182z" />
<glyph unicode="&#x26;" horiz-adv-x="1130" d="M41 356q0 227 238 445l-37 57q-94 147 -95 258q0 162 109 251t285 89q135 0 218 -40t173 -130l-189 -233q-84 80 -122.5 101.5t-85.5 21.5q-31 0 -49.5 -19.5t-18.5 -44.5q0 -59 43 -131l213 -336q14 35 78 197l258 -103q-92 -229 -164 -366l238 -373h-351l-65 104 q-119 -127 -309 -127q-182 0 -274.5 97.5t-92.5 281.5zM350 389q0 -141 103 -141q61 0 118 84l-145 231q-76 -78 -76 -174z" />
<glyph unicode="'" horiz-adv-x="577" d="M98 1434h381l-69 -670h-244z" />
<glyph unicode="(" horiz-adv-x="696" d="M78 618q0 252 84 453t246 402l223 -132q-197 -319 -197 -714q0 -401 197 -721l-223 -131q-160 199 -245 398t-85 445z" />
<glyph unicode=")" horiz-adv-x="696" d="M63 -94q199 317 199 712q0 406 -199 723l224 132q160 -199 244.5 -400t84.5 -446q0 -252 -83.5 -452t-245.5 -400z" />
<glyph unicode="*" horiz-adv-x="962" d="M45 911l291 99l-291 100l135 227l221 -194l-53 291h266l-55 -289l221 194l135 -227l-292 -100l292 -101l-135 -229l-221 195l55 -291h-266l53 293l-221 -193z" />
<glyph unicode="+" horiz-adv-x="1048" d="M78 557v295h289v315h315v-315h289v-295h-289v-315h-315v315h-289z" />
<glyph unicode="," horiz-adv-x="534" d="M88 -240l31 594h346l-174 -594h-203z" />
<glyph unicode="-" horiz-adv-x="759" d="M98 580v323h561v-323h-561z" />
<glyph unicode="." horiz-adv-x="534" d="M70 174q0 86 56 140.5t142 54.5t141.5 -54.5t55.5 -140.5t-55.5 -141.5t-141.5 -55.5t-142 55.5t-56 141.5z" />
<glyph unicode="/" horiz-adv-x="808" d="M-31 -184l545 1802h326l-545 -1802h-326z" />
<glyph unicode="0" horiz-adv-x="1120" d="M63 714.5q0 366.5 130.5 554t368 187.5t366.5 -186.5t129 -550.5q0 -367 -130 -554.5t-370 -187.5q-238 0 -366 185.5t-128 552zM408 719q0 -254 36.5 -351.5t116.5 -97.5t116 95.5t36 349.5t-37 351t-117 97t-115.5 -95t-35.5 -349z" />
<glyph unicode="1" horiz-adv-x="681" d="M47 1051v211q111 10 165 48t77 124h282v-1434h-335v1051h-189z" />
<glyph unicode="2" horiz-adv-x="1085" d="M74 0q6 221 59 376.5t137 255t232 206.5q88 66 120.5 111.5t32.5 103.5q0 51 -29.5 83.5t-74.5 32.5q-68 0 -121 -31.5t-129 -127.5l-223 184q100 135 207.5 198.5t269.5 63.5q203 0 313.5 -101.5t110.5 -273.5q0 -129 -55.5 -227t-196.5 -199q-156 -115 -219.5 -196.5 t-77.5 -173.5h555v-285h-911z" />
<glyph unicode="3" horiz-adv-x="1073" d="M49 252l234 176q104 -168 237 -168q74 0 113 43t39 121q0 104 -42 147t-141 43h-120v273h123q78 0 111.5 38t33.5 115q0 63 -32 100.5t-91 37.5q-61 0 -112.5 -34t-110.5 -112l-215 185q86 115 190.5 177t257.5 62q207 0 324 -96t117 -277q0 -227 -179 -315 q92 -29 152.5 -112t60.5 -228q0 -221 -128 -336t-355 -115q-156 0 -264.5 68t-202.5 207z" />
<glyph unicode="4" horiz-adv-x="1124" d="M49 283v235l576 916h321v-881h127v-277h-127v-276h-295v283h-602zM383 549q53 4 184 4h86v186q0 188 9 293q-49 -125 -125 -248l-27 -43q-82 -129 -127 -192z" />
<glyph unicode="5" horiz-adv-x="1105" d="M66 223l217 203q135 -166 254 -166q88 0 126.5 53.5t38.5 171.5q0 221 -145 222q-100 0 -168 -91l-278 72l39 746h819v-283h-543l-12 -229q92 61 223 61q186 0 288.5 -125t102.5 -364q0 -248 -128 -382.5t-372 -134.5q-265 0 -462 246z" />
<glyph unicode="6" horiz-adv-x="1085" d="M63 520q0 367 184.5 623t557.5 319l82 -260q-373 -84 -496 -362q102 80 256 80q176 0 277.5 -113t101.5 -336q0 -236 -131 -365t-363 -129q-217 0 -343 139.5t-126 403.5zM387 446q0 -197 156 -196q158 0 157 199q0 209 -153 208q-84 0 -122 -50t-38 -161z" />
<glyph unicode="7" horiz-adv-x="1067" d="M61 1149v285h922v-265q-236 -276 -308.5 -522t-72.5 -647h-328q2 350 79 628.5t261 520.5h-553z" />
<glyph unicode="8" horiz-adv-x="1120" d="M66 436q0 227 178 338q-139 98 -140 281q0 180 126 290.5t331 110.5q209 0 332 -111.5t123 -289.5q0 -174 -142 -277q178 -109 179 -342q0 -219 -132.5 -339t-363.5 -120q-227 0 -359 121t-132 338zM391 444q0 -197 170 -196q84 0 126 46t42 148q0 197 -172 197 q-166 0 -166 -195zM424 1049q0 -152 137 -152q135 0 135 147q0 154 -137 154q-135 1 -135 -149z" />
<glyph unicode="9" horiz-adv-x="1085" d="M57 963q0 236 132.5 364.5t363.5 128.5q215 0 341 -139t126 -404q0 -238 -74 -429t-244 -330.5t-421 -182.5l-82 260q375 84 493 363q-102 -80 -254 -80q-178 0 -279.5 113t-101.5 336zM385 985q0 -209 152 -209q84 0 122.5 50.5t38.5 160.5q0 197 -157 197 q-156 0 -156 -199z" />
<glyph unicode=":" horiz-adv-x="534" d="M74 170q0 84 55 138t139 54t138.5 -54t54.5 -138t-54.5 -138.5t-138.5 -54.5t-139 54.5t-55 138.5zM74 907q0 84 55 137.5t139 53.5t138.5 -53.5t54.5 -137.5t-54.5 -139t-138.5 -55t-139 55t-55 139z" />
<glyph unicode=";" horiz-adv-x="534" d="M72 -238l28 586h340l-170 -586h-198zM74 907q0 84 54 137.5t140 53.5q84 0 138.5 -53.5t54.5 -137.5t-54.5 -139t-138.5 -55q-86 0 -140 55t-54 139z" />
<glyph unicode="&#x3c;" horiz-adv-x="802" d="M82 580v260l627 520v-414l-316 -233l316 -232v-420z" />
<glyph unicode="=" horiz-adv-x="1075" d="M125 305v316h825v-316h-825zM125 788v316h825v-316h-825z" />
<glyph unicode="&#x3e;" horiz-adv-x="802" d="M94 61v414l316 232l-316 233v420l627 -520v-260z" />
<glyph unicode="?" horiz-adv-x="960" d="M31 1208q96 127 204.5 187.5t258.5 60.5q197 0 309 -102.5t112 -268.5q0 -115 -45 -195.5t-143 -160.5q-76 -61 -104.5 -122.5t-28.5 -160.5h-303q0 154 43 247t151 179q106 86 107 187q0 47 -31 78.5t-76 31.5q-61 0 -114.5 -36.5t-116.5 -118.5zM256 160q0 80 52 131 t132 51q82 0 133.5 -51t51.5 -131q0 -78 -52.5 -130.5t-132.5 -52.5t-132 52.5t-52 130.5z" />
<glyph unicode="@" horiz-adv-x="1349" d="M80 717q0 328 164 533.5t432 205.5q264 0 429 -204.5t165 -514.5q0 -225 -62.5 -323.5t-185.5 -98.5q-129 0 -199 88q-113 -90 -233 -90q-98 0 -151.5 70t-53.5 201q0 127 58.5 195.5t158.5 68.5q92 0 150 -37v74q0 51 -21.5 70.5t-75.5 19.5q-88 0 -172 -49l-63 141 q127 76 268 76q250 0 250 -252v-322q0 -129 86 -129q57 0 83 65.5t26 233.5q0 268 -127 428t-330 160q-215 0 -337 -165t-122 -443q0 -285 125 -449t336 -164q115 0 213 58l57 -115q-131 -72 -272 -72q-264 0 -430 204t-166 536zM569 586q0 -106 84 -107q49 0 99 33v158 q-39 23 -99 22q-43 0 -63.5 -23.5t-20.5 -82.5z" />
<glyph unicode="A" horiz-adv-x="1165" d="M37 0l371 1434h352l368 -1434h-352l-53 266h-283l-51 -266h-352zM496 545h170l-9 47q-70 401 -77 475q-12 -129 -76 -477z" />
<glyph unicode="B" horiz-adv-x="1120" d="M104 0v1434h512q416 0 416 -379q0 -201 -166 -293q188 -86 189 -322q0 -213 -112 -326.5t-335 -113.5h-504zM432 266h164q123 0 123 168q0 178 -127 178h-160v-346zM432 874h156q111 0 110 150q0 143 -114 143h-152v-293z" />
<glyph unicode="C" horiz-adv-x="1097" d="M66 715q0 367 133 554t376 187q213 0 314.5 -110.5t146.5 -335.5l-331 -90q-20 133 -46 187t-86 54q-84 0 -118.5 -99t-34.5 -343q0 -246 36 -346.5t122 -100.5q57 0 85.5 48.5t59.5 185.5l317 -109q-51 -209 -158.5 -314.5t-310.5 -105.5q-250 0 -377.5 188t-127.5 550z " />
<glyph unicode="D" horiz-adv-x="1142" d="M104 0v1434h416q281 0 417 -171t136 -536q0 -381 -143.5 -554t-440.5 -173h-385zM446 283h54q125 0 174 88t49 350q0 256 -46 342t-169 86h-62v-866z" />
<glyph unicode="E" horiz-adv-x="1030" d="M104 0v1434h840v-293h-500v-246h326v-291h-326v-311h514v-293h-854z" />
<glyph unicode="F" horiz-adv-x="1015" d="M104 0v1434h861v-295h-519v-250h338v-293h-338v-596h-342z" />
<glyph unicode="G" horiz-adv-x="1140" d="M66 717q0 360 129 549.5t387 189.5q213 0 315 -104.5t152 -323.5l-328 -94q-25 127 -52.5 177t-88.5 50q-90 0 -125 -98t-35 -346q0 -258 40 -354.5t136 -96.5q80 0 112.5 44t39.5 136v60h-166v262h489v-225q0 -268 -125 -417t-370.5 -149t-377.5 185.5t-132 554.5z" />
<glyph unicode="H" horiz-adv-x="1189" d="M104 0v1434h347v-535h288v535h346v-1434h-346v600h-288v-600h-347z" />
<glyph unicode="I" horiz-adv-x="569" d="M111 0v1434h346v-1434h-346z" />
<glyph unicode="J" horiz-adv-x="1087" d="M31 424l329 78q27 -123 58 -175.5t100 -52.5q123 0 123 183v977h346v-942q0 -250 -118.5 -382.5t-356.5 -132.5q-221 0 -333.5 116t-147.5 331z" />
<glyph unicode="K" horiz-adv-x="1150" d="M104 0v1434h347v-168q0 -197 -7 -361q47 119 185 373l84 156h387l-307 -521l333 -913h-383l-206 602l-86 -125v-477h-347z" />
<glyph unicode="L" horiz-adv-x="948" d="M104 0v1434h345v-1135h446v-299h-791z" />
<glyph unicode="M" horiz-adv-x="1355" d="M104 0v1434h312l127 -353q111 -305 135 -440q29 141 137 442l125 351h309v-1434h-309v317q0 252 8 416q-41 -150 -135 -420l-135 -358l-135 358q-90 252 -135 420q8 -238 8 -416v-317h-312z" />
<glyph unicode="N" horiz-adv-x="1191" d="M104 0v1434h299l183 -328q139 -250 190 -401q-12 117 -12 407v322h321v-1434h-274l-211 412q-147 287 -184 393q10 -102 10 -399v-406h-322z" />
<glyph unicode="O" horiz-adv-x="1157" d="M66 714.5q0 372.5 134 557t379.5 184.5t379 -183t133.5 -554q0 -373 -134.5 -557.5t-382.5 -184.5q-246 0 -377.5 182.5t-131.5 555zM418 719q0 -250 39 -348.5t123 -98.5t121.5 96.5t37.5 346.5t-38.5 348t-122.5 98t-122 -95t-38 -347z" />
<glyph unicode="P" horiz-adv-x="1077" d="M104 0v1434h484q444 0 444 -447q0 -244 -125 -355.5t-344 -111.5h-123v-520h-336zM440 799h111q74 0 107.5 42t33.5 138q0 94 -31.5 135t-103.5 41h-117v-356z" />
<glyph unicode="Q" horiz-adv-x="1157" d="M66 714.5q0 372.5 134 557t379.5 184.5t379 -183t133.5 -554q0 -295 -107 -490l113 -116l-187 -181l-102 109q-109 -63 -234 -64q-246 0 -377.5 182.5t-131.5 555zM418 719q0 -279 37 -368t125 -89h18l-104 111l184 180l57 -61q4 119 4 223q0 250 -38.5 348t-122.5 98 t-122 -95t-38 -347z" />
<glyph unicode="R" horiz-adv-x="1128" d="M104 0v1434h496q444 0 444 -437q0 -264 -188 -376l209 -621h-365l-168 549h-92v-549h-336zM440 811h129q72 0 104 43t32 133t-30 132t-100 42h-135v-350z" />
<glyph unicode="S" horiz-adv-x="1060" d="M59 227l234 211q145 -174 244 -174q55 0 88.5 29t33.5 86q0 66 -34.5 107.5t-149.5 93.5q-217 96 -303 194t-86 264q0 180 122 299t322 119q158 0 256.5 -54t194.5 -173l-238 -213q-80 94 -119.5 123.5t-103.5 29.5q-47 0 -74.5 -29.5t-27.5 -72.5q0 -57 38 -96t144 -86 q219 -96 307 -201.5t88 -284.5q0 -197 -130 -309.5t-335 -112.5q-160 0 -267.5 61.5t-203.5 188.5z" />
<glyph unicode="T" horiz-adv-x="1030" d="M53 1135v299h924v-299h-291v-1135h-342v1135h-291z" />
<glyph unicode="U" horiz-adv-x="1179" d="M98 494v940h346v-951q0 -209 148 -209q141 0 141 209v951h346v-932q0 -264 -129 -394.5t-364 -130.5q-229 0 -358.5 129.5t-129.5 387.5z" />
<glyph unicode="V" horiz-adv-x="1132" d="M37 1434h364l76 -420q70 -379 92 -604q16 190 88 604l74 420h363l-357 -1434h-342z" />
<glyph unicode="W" horiz-adv-x="1472" d="M49 1434h334l33 -263q43 -332 57 -602q16 201 76 600l39 265h297l41 -265q55 -342 75 -600q10 195 58 602l31 263h333l-247 -1434h-318l-45 283q-68 418 -78 581q-12 -195 -78 -581l-47 -283h-313z" />
<glyph unicode="X" horiz-adv-x="1124" d="M37 0l336 731l-324 703h373l47 -123q68 -176 96 -301q27 111 99 301l47 123h362l-323 -695l337 -739h-372l-58 156q-76 209 -98 305q-25 -109 -100 -305l-60 -156h-362z" />
<glyph unicode="Y" horiz-adv-x="1153" d="M20 1434h379l66 -191q94 -272 115 -414q16 127 114 414l66 191h373l-383 -879v-555h-344v549z" />
<glyph unicode="Z" horiz-adv-x="1067" d="M86 0v258l324 578q125 225 184 317q-152 -4 -293 -4h-186v285h858v-258l-324 -576q-131 -236 -184 -319q156 4 291 4h219v-285h-889z" />
<glyph unicode="[" horiz-adv-x="755" d="M113 -207v1641h530v-267h-211v-1108h211v-266h-530z" />
<glyph unicode="\" horiz-adv-x="808" d="M-31 1618h326l545 -1802h-326z" />
<glyph unicode="]" horiz-adv-x="755" d="M111 59h211v1108h-211v267h530v-1641h-530v266z" />
<glyph unicode="^" horiz-adv-x="972" d="M49 762l295 672h283l297 -672h-328l-111 362l-110 -362h-326z" />
<glyph unicode="_" horiz-adv-x="761" d="M0 -131h762v-250h-762v250z" />
<glyph unicode="`" horiz-adv-x="849" d="M133 1536h365l147 -328h-221z" />
<glyph unicode="a" horiz-adv-x="925" d="M53 340q0 174 82 264t234 90q96 0 170 -35v84q0 57 -26 82t-83 25q-115 0 -244 -82l-90 219q180 111 385 111q188 0 277.5 -84t89.5 -258v-756h-309v61q-94 -84 -207 -84q-279 1 -279 363zM348 344q0 -133 86 -133q63 0 105 35v213q-45 23 -107 22q-84 0 -84 -137z" />
<glyph unicode="b" horiz-adv-x="948" d="M84 0v1370l315 123v-481q92 86 201 86q139 0 215 -139.5t76 -415.5q0 -565 -299 -566q-98 0 -193 82v-59h-315zM399 283q43 -39 93 -39q47 0 66.5 56t19.5 235q0 182 -19.5 239t-69.5 57q-47 0 -90 -36v-512z" />
<glyph unicode="c" horiz-adv-x="878" d="M55 535q0 563 418 563q141 0 224 -80t132 -232l-249 -118q-23 94 -45.5 130t-65.5 36q-55 0 -77.5 -67t-22.5 -232q0 -162 24.5 -227.5t81.5 -65.5q39 0 66.5 35.5t58.5 136.5l236 -121q-59 -164 -145.5 -240t-223.5 -76q-197 0 -304.5 137.5t-107.5 420.5z" />
<glyph unicode="d" horiz-adv-x="948" d="M57 532q0 565 299 566q98 0 193 -82v354l315 123v-1493h-315v63q-90 -86 -201 -86q-139 0 -215 139.5t-76 415.5zM371 541q0 -182 19.5 -239.5t68.5 -57.5q47 0 90 37v512q-43 39 -92 38q-47 0 -66.5 -55t-19.5 -235z" />
<glyph unicode="e" horiz-adv-x="909" d="M55 532q0 274 104.5 420t301.5 146q193 0 293 -144.5t100 -431.5v-76h-504q6 -123 37 -172t88 -49q49 0 88 25.5t86 95.5l187 -147q-74 -109 -160 -165.5t-215 -56.5q-199 0 -302.5 146.5t-103.5 408.5zM350 653h217q-6 113 -31.5 160t-80.5 47q-49 0 -73 -46t-32 -161z " />
<glyph unicode="f" horiz-adv-x="636" d="M51 815v260h94v133q0 279 269 279q127 0 196 -29v-231q-43 16 -90 16q-68 0 -67 -69v-99h137v-260h-135v-815h-310v815h-94z" />
<glyph unicode="g" horiz-adv-x="948" d="M57 532q0 565 299 566q98 0 193 -82v59h315v-962q0 -252 -114.5 -360.5t-391.5 -147.5l-94 207q176 29 230.5 72.5t54.5 156.5v27q-90 -86 -201 -86q-291 -1 -291 550zM371 541q0 -182 19.5 -239.5t68.5 -57.5q47 0 90 37v512q-43 39 -92 38q-47 0 -66.5 -55t-19.5 -235z " />
<glyph unicode="h" horiz-adv-x="968" d="M84 0v1370l315 123v-479q98 84 219 84q272 0 273 -336v-762h-316v707q0 121 -77 120q-51 0 -99 -41v-786h-315z" />
<glyph unicode="i" horiz-adv-x="495" d="M70 1339q0 70 50 115t128 45q80 0 129 -44t49 -116q0 -74 -49 -118.5t-129 -44.5q-78 0 -128 44.5t-50 118.5zM90 0v1075h316v-1075h-316z" />
<glyph unicode="j" horiz-adv-x="495" d="M-98 -170q113 20 150.5 56t37.5 124v1065h316v-1040q0 -221 -95.5 -309t-328.5 -121zM70 1339q0 70 50 115t128 45q80 0 129 -44t49 -116q0 -74 -49 -118.5t-129 -44.5q-78 0 -128 44.5t-50 118.5z" />
<glyph unicode="k" horiz-adv-x="946" d="M84 0v1370l315 123v-494q0 -133 -8 -280q70 143 141 274l46 82h335l-221 -334l228 -741h-330l-127 459l-64 -107v-352h-315z" />
<glyph unicode="l" horiz-adv-x="495" d="M90 0v1370l316 123v-1493h-316z" />
<glyph unicode="m" horiz-adv-x="1445" d="M84 0v1075h315v-61q92 84 213 84q154 0 236 -101q115 100 250 101q270 0 270 -336v-762h-315v707q0 121 -74 120q-49 0 -96 -41v-786h-314v707q0 121 -73 120q-49 0 -97 -41v-786h-315z" />
<glyph unicode="n" horiz-adv-x="968" d="M84 0v1075h315v-61q98 84 219 84q272 0 273 -336v-762h-316v707q0 121 -77 120q-51 0 -99 -41v-786h-315z" />
<glyph unicode="o" horiz-adv-x="944" d="M55 535q0 274 106.5 418.5t311.5 144.5q201 0 308.5 -142.5t107.5 -414.5q0 -274 -108.5 -419t-311.5 -145q-197 0 -305.5 143t-108.5 415zM369 541q0 -166 23.5 -232.5t80.5 -66.5q55 0 78.5 66.5t23.5 228.5q0 168 -23.5 232.5t-80.5 64.5q-55 0 -78.5 -64.5 t-23.5 -228.5z" />
<glyph unicode="p" horiz-adv-x="948" d="M84 -395v1470h315v-63q92 86 201 86q139 0 215 -139.5t76 -415.5q0 -565 -299 -566q-98 0 -193 82v-331zM399 283q43 -39 93 -39q47 0 66.5 56t19.5 235q0 182 -19.5 239t-69.5 57q-47 0 -90 -36v-512z" />
<glyph unicode="q" horiz-adv-x="948" d="M57 532q0 565 299 566q98 0 193 -82v59h315v-1347l-315 -123v458q-90 -86 -201 -86q-139 0 -215 139.5t-76 415.5zM371 541q0 -182 19.5 -239.5t68.5 -57.5q47 0 90 37v512q-43 39 -92 38q-47 0 -66.5 -55t-19.5 -235z" />
<glyph unicode="r" horiz-adv-x="735" d="M84 0v1075h315v-65q82 88 181 88q74 0 131 -29l-56 -330q-68 63 -137 64q-102 0 -119 -105v-698h-315z" />
<glyph unicode="s" horiz-adv-x="866" d="M53 117l152 223q143 -113 223 -113q37 0 60.5 18.5t23.5 53.5q0 39 -19.5 59.5t-86.5 49.5q-186 76 -254 152.5t-68 213.5q0 150 92 237t264 87q109 0 187 -32t166 -97l-152 -224q-123 102 -201 103q-68 0 -67 -60q0 -39 20.5 -59t91.5 -51q180 -74 250 -154t70 -215 q0 -160 -102.5 -246t-276.5 -86q-106 0 -190.5 33t-182.5 107z" />
<glyph unicode="t" horiz-adv-x="724" d="M43 815v260h119v297l307 121v-418h182v-260h-182v-471q0 -90 72 -90q55 0 118 41l-34 -275q-98 -43 -211 -43q-252 0 -252 287v551h-119z" />
<glyph unicode="u" horiz-adv-x="968" d="M78 313v762h315v-706q0 -121 78 -121q51 0 98 41v786h316v-1075h-316v61q-98 -84 -221 -84q-270 0 -270 336z" />
<glyph unicode="v" horiz-adv-x="940" d="M23 1075h329l54 -274q47 -242 63 -475q14 215 66 475l53 274h330l-291 -1075h-316z" />
<glyph unicode="w" horiz-adv-x="1265" d="M29 1075h297l20 -151q37 -279 53 -500q20 215 72 500l27 151h274l27 -151q43 -246 71 -500q16 209 54 500l18 151h295l-221 -1075h-283l-33 184q-47 270 -69 502q-33 -299 -72 -504l-33 -182h-276z" />
<glyph unicode="x" horiz-adv-x="942" d="M20 0l285 555l-258 520h334l16 -43q57 -147 78 -254q27 115 78 254l16 43h326l-260 -508l287 -567h-334l-39 102q-70 184 -84 228q-33 -104 -80 -228l-39 -102h-326z" />
<glyph unicode="y" horiz-adv-x="960" d="M23 1075h329l54 -268q63 -319 75 -506q18 227 76 508l53 266h328l-408 -1454h-305l115 348z" />
<glyph unicode="z" horiz-adv-x="892" d="M70 0v233l221 340q98 152 168 246q-172 -6 -221 -6h-142v262h717v-233l-219 -340q-113 -170 -170 -246q172 6 221 6h168v-262h-743z" />
<glyph unicode="{" horiz-adv-x="823" d="M55 479v266h60q111 0 110 123v181q0 203 124 302t401 99v-231q-111 -12 -149 -54.5t-38 -142.5v-98q0 -156 -46 -219.5t-161 -90.5q115 -31 161 -94t46 -219v-98q0 -100 38 -142.5t149 -54.5v-231q-276 0 -400.5 99t-124.5 302v182q0 121 -110 121h-60z" />
<glyph unicode="|" horiz-adv-x="542" d="M115 -379v2017h313v-2017h-313z" />
<glyph unicode="}" horiz-adv-x="823" d="M74 6q111 12 148.5 54t37.5 143v98q0 156 46 219.5t161 91.5q-115 29 -161 92.5t-46 219.5v98q0 100 -38 142t-148 55v231q276 0 400 -99.5t124 -301.5v-181q0 -123 111 -123h59v-266h-59q-111 0 -111 -123v-180q0 -203 -124 -302t-400 -99v231z" />
<glyph unicode="~" horiz-adv-x="978" d="M59 633q57 178 121 249.5t160 71.5q41 0 73.5 -10t49 -21.5t57.5 -39.5q76 -51 100.5 -51.5t41 21t51.5 110.5l207 -68q-57 -178 -121 -251t-160 -73q-41 0 -74 10.5t-50 21.5t-56 42q-80 51 -101 51q-25 0 -41 -22.5t-51 -110.5z" />
<glyph unicode="&#xa1;" horiz-adv-x="559" d="M96 1274q0 78 52.5 130t132 52t132 -52t52.5 -130q0 -80 -52.5 -131t-131.5 -51q-82 0 -133.5 51t-51.5 131zM113 0v592l53 395h227l56 -395v-592h-336z" />
<glyph unicode="&#xa2;" horiz-adv-x="878" d="M55 725q0 434 248 532v199h309v-192q147 -59 217 -287l-249 -119q-23 94 -45.5 130t-65.5 36q-55 0 -77.5 -66.5t-22.5 -232.5q0 -162 24.5 -227.5t81.5 -65.5q39 0 66.5 36t58.5 136l236 -121q-84 -231 -224 -288v-218h-309v220q-248 100 -248 528z" />
<glyph unicode="&#xa3;" horiz-adv-x="1089" d="M106 0v244q72 76 107 140.5t45 158.5h-141v245h116q-12 35 -43 99q-53 100 -53 203q0 166 111.5 266t329.5 100q301 0 444 -274l-215 -160q-51 86 -105.5 120t-128.5 34q-109 0 -108 -111q0 -68 31 -129q41 -82 59 -148h240v-245h-228q-14 -133 -102 -269h534v-274h-893z " />
<glyph unicode="&#xa4;" horiz-adv-x="1067" d="M63 715q0 741 508 741q174 0 280.5 -84t162.5 -250l-295 -121q-33 94 -68 133.5t-88 39.5q-70 0 -107.5 -51.5t-52.5 -180.5h320v-194h-330v-72h330v-195h-317q16 -125 55 -172t106 -47q55 0 94 39t76 123l281 -139q-78 -166 -183.5 -237t-269.5 -71q-502 1 -502 738z " />
<glyph unicode="&#xa5;" horiz-adv-x="1132" d="M20 1434h379l66 -191q84 -270 104 -414q18 127 105 414l65 191h373l-381 -893v-66h250v-270h-250v-205h-328v205h-249v270h249v57z" />
<glyph unicode="&#xa6;" d="M25 725l317 272q47 37 80 15q35 -25 20 -86l-18 -74h209v233l-74 -16q-61 -14 -86 18q-25 35 14 80l273 318l274 -318q35 -45 15 -80q-25 -33 -86 -18l-76 16v-233h209l-17 74q-14 61 19 86q35 25 80 -15l317 -272l-317 -272q-45 -39 -80 -15q-33 25 -19 86l17 74h-209 v-250l76 17q61 14 86 -19q20 -35 -15 -80l-274 -317l-273 317q-39 45 -14 80q25 33 86 19l74 -17v250h-209l18 -74q14 -61 -20 -86q-33 -23 -80 15z" />
<glyph unicode="&#xa7;" horiz-adv-x="1159" d="M86 578q0 186 158 323q-53 88 -54 203q0 154 100.5 253t295.5 99q141 0 249.5 -68.5t157.5 -189.5l-190 -156q-96 147 -230 148q-82 0 -81 -74q0 -43 28.5 -75.5t116.5 -71.5q252 -100 343 -182t91 -244q0 -188 -158 -326q55 -88 56 -201q0 -154 -101.5 -253t-294.5 -99 q-141 0 -249.5 68.5t-159.5 189.5l190 156q100 -147 232 -148q82 0 82 74q0 43 -30 76t-118 72q-252 102 -343 183t-91 243zM397 610q0 -59 46 -99t173 -91q74 -25 99 -37q45 53 45 127q0 59 -46 99t-171 91q-72 23 -99 37q-47 -57 -47 -127z" />
<glyph unicode="&#xa8;" horiz-adv-x="849" d="M57 1368.5q0 65.5 48.5 112.5t114 47t113.5 -47t48 -113q0 -63 -48 -111.5t-113.5 -48.5t-114 47.5t-48.5 113zM469 1368.5q0 65.5 48 112.5t113.5 47t114 -47t48.5 -113q0 -63 -48.5 -111.5t-114 -48.5t-113.5 47.5t-48 113z" />
<glyph unicode="&#xa9;" horiz-adv-x="1349" d="M80 716.5q0 325.5 164 532.5t430 207q268 0 432 -207t164 -532.5t-164 -532.5t-432 -207q-266 0 -430 207t-164 532.5zM217 716.5q0 -274.5 123 -442.5t334 -168q213 0 336 168t123 442.5t-123 442.5t-336 168q-211 0 -334 -168t-123 -442.5zM389 721q0 209 75 314.5 t212 105.5q121 0 178 -62.5t84 -191.5l-180 -49q-14 80 -29.5 108.5t-52.5 28.5q-47 0 -66.5 -56.5t-19.5 -195.5t20.5 -195.5t67.5 -56.5q35 0 53.5 27.5t36.5 105.5l172 -61q-29 -119 -89 -178.5t-175 -59.5q-287 0 -287 416z" />
<glyph unicode="&#xaa;" horiz-adv-x="833" d="M88 846q0 141 66.5 214t187.5 73q80 0 137 -31v69q0 45 -20.5 64.5t-67.5 19.5q-94 0 -196 -65l-72 178q147 88 313 88q293 0 293 -276v-609h-250v50q-72 -66 -168 -66q-106 0 -164.5 74t-58.5 217zM326 850q0 -109 69 -109q51 0 84 29v172q-41 18 -86 19q-67 0 -67 -111 z" />
<glyph unicode="&#xab;" horiz-adv-x="1171" d="M43 537l233 538h324l-231 -536l231 -539h-324zM545 537l233 538h324l-232 -536l232 -539h-324z" />
<glyph unicode="&#xac;" horiz-adv-x="1064" d="M66 580v290h532l-18 82q-14 68 22 92q35 25 86 -14l350 -305l-350 -305q-51 -39 -86 -14q-37 27 -22 92l18 82h-532z" />
<glyph unicode="&#xad;" horiz-adv-x="759" d="M98 580v323h561v-323h-561z" />
<glyph unicode="&#xae;" horiz-adv-x="1349" d="M80 716.5q0 325.5 164 532.5t430 207q268 0 432 -207t164 -532.5t-164 -532.5t-432 -207q-266 0 -430 207t-164 532.5zM217 716.5q0 -274.5 123 -442.5t334 -168q213 0 336 168t123 442.5t-123 442.5t-336 168q-211 0 -334 -168t-123 -442.5zM428 330v811h281 q252 0 252 -246q0 -150 -107 -215l117 -350h-207l-94 311h-52v-311h-190zM618 788h72q78 0 78 101q0 98 -74 98h-76v-199z" />
<glyph unicode="&#xaf;" horiz-adv-x="849" d="M121 1239v213h606v-213h-606z" />
<glyph unicode="&#x2c9;" horiz-adv-x="849" d="M121 1239v213h606v-213h-606z" />
<glyph unicode="&#xb0;" horiz-adv-x="905" d="M72 1073q0 164 108.5 273.5t272 109.5t272.5 -109.5t109 -273.5q0 -168 -109 -277.5t-272.5 -109.5t-272 109.5t-108.5 277.5zM293 1073q0 -80 45 -129t115 -49q72 0 115.5 49t43.5 129q0 78 -44 126t-115 48q-70 0 -115 -48t-45 -126z" />
<glyph unicode="&#xb1;" d="M25 725l317 272q47 37 80 15q35 -25 20 -86l-18 -74h209v233l-74 -16q-61 -14 -86 18q-25 35 14 80l273 318l274 -318q35 -45 15 -80q-25 -33 -86 -18l-76 16v-233h209l-17 74q-14 61 19 86q35 25 80 -15l317 -272l-317 -272q-45 -39 -80 -15q-33 25 -19 86l17 74h-209 v-250l76 17q61 14 86 -19q20 -35 -15 -80l-274 -317l-273 317q-39 45 -14 80q25 33 86 19l74 -17v250h-209l18 -74q14 -61 -20 -86q-33 -23 -80 15z" />
<glyph unicode="&#xb2;" d="M25 725l317 272q47 37 80 15q35 -25 20 -86l-18 -74h209v233l-74 -16q-61 -14 -86 18q-25 35 14 80l273 318l274 -318q35 -45 15 -80q-25 -33 -86 -18l-76 16v-233h209l-17 74q-14 61 19 86q35 25 80 -15l317 -272l-317 -272q-45 -39 -80 -15q-33 25 -19 86l17 74h-209 v-250l76 17q61 14 86 -19q20 -35 -15 -80l-274 -317l-273 317q-39 45 -14 80q25 33 86 19l74 -17v250h-209l18 -74q14 -61 -20 -86q-33 -23 -80 15z" />
<glyph unicode="&#xb3;" d="M25 725l317 272q47 37 80 15q35 -25 20 -86l-18 -74h209v233l-74 -16q-61 -14 -86 18q-25 35 14 80l273 318l274 -318q35 -45 15 -80q-25 -33 -86 -18l-76 16v-233h209l-17 74q-14 61 19 86q35 25 80 -15l317 -272l-317 -272q-45 -39 -80 -15q-33 25 -19 86l17 74h-209 v-250l76 17q61 14 86 -19q20 -35 -15 -80l-274 -317l-273 317q-39 45 -14 80q25 33 86 19l74 -17v250h-209l18 -74q14 -61 -20 -86q-33 -23 -80 15z" />
<glyph unicode="&#xb4;" horiz-adv-x="849" d="M203 1208l147 328h365l-291 -328h-221z" />
<glyph unicode="&#xb5;" horiz-adv-x="1413" d="M25 725l352 305q49 37 86 14q33 -27 20 -92l-16 -82h479l-18 82q-14 68 22 92q35 25 86 -14l350 -305l-350 -305q-51 -39 -86 -14q-37 27 -22 92l18 82h-479l16 -82q14 -66 -20 -92q-37 -23 -86 14z" />
<glyph unicode="&#x3bc;" horiz-adv-x="1413" d="M25 725l352 305q49 37 86 14q33 -27 20 -92l-16 -82h479l-18 82q-14 68 22 92q35 25 86 -14l350 -305l-350 -305q-51 -39 -86 -14q-37 27 -22 92l18 82h-479l16 -82q14 -66 -20 -92q-37 -23 -86 14z" />
<glyph unicode="&#xb6;" horiz-adv-x="1253" d="M63 1008q0 201 120 313.5t300 112.5h645v-1813h-243v1604h-111v-1604h-244v959h-57q-178 0 -294 112.5t-116 315.5z" />
<glyph unicode="&#xb7;" horiz-adv-x="534" d="M70 752q0 86 56 140t142 54t141.5 -54t55.5 -140q0 -84 -55.5 -140.5t-141.5 -56.5t-142 56.5t-56 140.5z" />
<glyph unicode="&#x2219;" horiz-adv-x="534" d="M70 752q0 86 56 140t142 54t141.5 -54t55.5 -140q0 -84 -55.5 -140.5t-141.5 -56.5t-142 56.5t-56 140.5z" />
<glyph unicode="&#xb8;" horiz-adv-x="849" d="M180 -328l41 84q94 -47 170 -47q39 0 62.5 17.5t23.5 46.5q0 51 -49 51q-29 0 -68 -25l-73 49l49 152h108l-28 -92q33 18 86 18q63 0 103 -41t40 -110q0 -82 -57.5 -126t-157.5 -44q-127 -1 -250 67z" />
<glyph unicode="&#xb9;" d="M25 725l317 272q47 37 80 15q35 -25 20 -86l-18 -74h209v233l-74 -16q-61 -14 -86 18q-25 35 14 80l273 318l274 -318q35 -45 15 -80q-25 -33 -86 -18l-76 16v-233h209l-17 74q-14 61 19 86q35 25 80 -15l317 -272l-317 -272q-45 -39 -80 -15q-33 25 -19 86l17 74h-209 v-250l76 17q61 14 86 -19q20 -35 -15 -80l-274 -317l-273 317q-39 45 -14 80q25 33 86 19l74 -17v250h-209l18 -74q14 -61 -20 -86q-33 -23 -80 15z" />
<glyph unicode="&#xba;" horiz-adv-x="839" d="M84 1004q0 221 86 336.5t252 115.5q160 0 247 -114.5t87 -333.5q0 -221 -87 -337t-251 -116q-160 0 -247 115t-87 334zM336 1008q0 -135 18.5 -188.5t65.5 -53.5q45 0 64.5 54t19.5 186q0 133 -19.5 186t-64.5 53t-64.5 -53t-19.5 -184z" />
<glyph unicode="&#xbb;" horiz-adv-x="1171" d="M68 0l231 537l-231 538h325l232 -536l-232 -539h-325zM569 0l232 537l-232 538h326l231 -536l-231 -539h-326z" />
<glyph unicode="&#xbc;" d="M25 725l317 272q47 37 80 15q35 -25 20 -86l-18 -74h209v233l-74 -16q-61 -14 -86 18q-25 35 14 80l273 318l274 -318q35 -45 15 -80q-25 -33 -86 -18l-76 16v-233h209l-17 74q-14 61 19 86q35 25 80 -15l317 -272l-317 -272q-45 -39 -80 -15q-33 25 -19 86l17 74h-209 v-250l76 17q61 14 86 -19q20 -35 -15 -80l-274 -317l-273 317q-39 45 -14 80q25 33 86 19l74 -17v250h-209l18 -74q14 -61 -20 -86q-33 -23 -80 15z" />
<glyph unicode="&#xbd;" d="M25 725l317 272q47 37 80 15q35 -25 20 -86l-18 -74h209v233l-74 -16q-61 -14 -86 18q-25 35 14 80l273 318l274 -318q35 -45 15 -80q-25 -33 -86 -18l-76 16v-233h209l-17 74q-14 61 19 86q35 25 80 -15l317 -272l-317 -272q-45 -39 -80 -15q-33 25 -19 86l17 74h-209 v-250l76 17q61 14 86 -19q20 -35 -15 -80l-274 -317l-273 317q-39 45 -14 80q25 33 86 19l74 -17v250h-209l18 -74q14 -61 -20 -86q-33 -23 -80 15z" />
<glyph unicode="&#xbe;" d="M25 725l317 272q47 37 80 15q35 -25 20 -86l-18 -74h209v233l-74 -16q-61 -14 -86 18q-25 35 14 80l273 318l274 -318q35 -45 15 -80q-25 -33 -86 -18l-76 16v-233h209l-17 74q-14 61 19 86q35 25 80 -15l317 -272l-317 -272q-45 -39 -80 -15q-33 25 -19 86l17 74h-209 v-250l76 17q61 14 86 -19q20 -35 -15 -80l-274 -317l-273 317q-39 45 -14 80q25 33 86 19l74 -17v250h-209l18 -74q14 -61 -20 -86q-33 -23 -80 15z" />
<glyph unicode="&#xbf;" horiz-adv-x="960" d="M45 348q0 115 45 196t143 161q76 61 105 122.5t29 159.5h303q0 -154 -43 -247t-152 -179q-106 -86 -106 -186q0 -47 30.5 -79t75.5 -32q61 0 114.5 37t117.5 119l223 -195q-96 -127 -205 -187.5t-258 -60.5q-197 0 -309.5 102.5t-112.5 268.5zM336 1274q0 78 51 130 t133 52q80 0 132.5 -52t52.5 -130q0 -80 -52.5 -131t-132.5 -51q-82 0 -133 51t-51 131z" />
<glyph unicode="&#xc0;" horiz-adv-x="1165" d="M37 0l371 1434h352l368 -1434h-352l-53 266h-283l-51 -266h-352zM197 1843h364l148 -327h-222zM496 545h170l-9 47q-70 401 -77 475q-12 -129 -76 -477z" />
<glyph unicode="&#xc1;" horiz-adv-x="1165" d="M37 0l371 1434h352l368 -1434h-352l-53 266h-283l-51 -266h-352zM455 1516l147 327h365l-291 -327h-221zM496 545h170l-9 47q-70 401 -77 475q-12 -129 -76 -477z" />
<glyph unicode="&#xc2;" horiz-adv-x="1165" d="M37 0l371 1434h352l368 -1434h-352l-53 266h-283l-51 -266h-352zM242 1528l223 327h240l223 -327h-215l-131 135l-129 -135h-211zM496 545h170l-9 47q-70 401 -77 475q-12 -129 -76 -477z" />
<glyph unicode="&#xc3;" horiz-adv-x="1165" d="M37 0l371 1434h352l368 -1434h-352l-53 266h-283l-51 -266h-352zM211 1516q0 143 61.5 221t163.5 78q88 0 172 -56q72 -47 94 -47q53 0 62 96h192q0 -141 -61 -220t-164 -79q-88 0 -172 56q-72 47 -94 47q-53 0 -62 -96h-192zM496 545h170l-9 47q-70 401 -77 475 q-12 -129 -76 -477z" />
<glyph unicode="&#xc4;" horiz-adv-x="1165" d="M37 0l371 1434h352l368 -1434h-352l-53 266h-283l-51 -266h-352zM217 1675.5q0 65.5 48 112.5t113.5 47t114 -47t48.5 -113q0 -63 -48.5 -111t-114 -48t-113.5 47t-48 112.5zM496 545h170l-9 47q-70 401 -77 475q-12 -129 -76 -477zM629 1675.5q0 65.5 48 112.5t113.5 47 t113.5 -47t48 -113q0 -63 -48 -111t-113.5 -48t-113.5 47t-48 112.5z" />
<glyph unicode="&#xc5;" horiz-adv-x="1165" d="M37 0l348 1348q-53 70 -53 155q0 106 72.5 178t179.5 72q109 0 180.5 -71.5t71.5 -178.5q0 -90 -54 -155l346 -1348h-352l-53 266h-283l-51 -266h-352zM487 1503q0 -47 27 -75.5t70 -28.5t70.5 29.5t27.5 74.5q0 47 -27.5 77t-70.5 30t-70 -30t-27 -77zM496 545h170 l-9 47q-70 401 -77 475q-12 -129 -76 -477z" />
<glyph unicode="&#xc6;" horiz-adv-x="1644" d="M18 0l631 1434h910v-293h-480v-246h305v-291h-305v-311h494v-293h-807v217h-328l-73 -217h-347zM553 489h213v334q0 160 4 275q-23 -72 -108 -285z" />
<glyph unicode="&#xc7;" horiz-adv-x="1097" d="M66 715q0 367 133 554t376 187q213 0 314.5 -110.5t146.5 -335.5l-319 -90q-23 135 -51.5 188t-92.5 53q-84 0 -118.5 -99t-34.5 -343q0 -246 36 -346.5t122 -100.5q59 0 91.5 48.5t65.5 185.5l305 -109q-49 -201 -151.5 -306t-288.5 -114l-22 -69q33 18 86 18 q63 0 103 -41t40 -110q0 -82 -57.5 -126t-157.5 -44q-125 0 -250 67l41 84q94 -47 170 -47q39 0 62.5 17.5t23.5 46.5q0 51 -49 51q-29 0 -68 -25l-73 49l43 136q-211 27 -318.5 213t-107.5 518z" />
<glyph unicode="&#xc8;" horiz-adv-x="1030" d="M104 0v1434h840v-293h-500v-246h326v-291h-326v-311h514v-293h-854zM152 1843h364l148 -327h-222z" />
<glyph unicode="&#xc9;" horiz-adv-x="1030" d="M104 0v1434h840v-293h-500v-246h326v-291h-326v-311h514v-293h-854zM371 1516l147 327h365l-291 -327h-221z" />
<glyph unicode="&#xca;" horiz-adv-x="1030" d="M104 0v1434h840v-293h-500v-246h326v-291h-326v-311h514v-293h-854zM184 1516l224 327h239l223 -327h-215l-131 135l-129 -135h-211z" />
<glyph unicode="&#xcb;" horiz-adv-x="1030" d="M104 0v1434h840v-293h-500v-246h326v-291h-326v-311h514v-293h-854zM160 1675.5q0 65.5 48 112.5t113.5 47t113.5 -47t48 -113q0 -63 -48 -111t-113.5 -48t-113.5 47t-48 112.5zM571 1675.5q0 65.5 48.5 112.5t114 47t113.5 -47t48 -113q0 -63 -48 -111t-113.5 -48 t-114 47t-48.5 112.5z" />
<glyph unicode="&#xcc;" horiz-adv-x="569" d="M-106 1843h364l148 -327h-222zM111 0v1434h346v-1434h-346z" />
<glyph unicode="&#xcd;" horiz-adv-x="569" d="M111 0v1434h346v-1434h-346zM166 1516l147 327h365l-291 -327h-221z" />
<glyph unicode="&#xce;" horiz-adv-x="569" d="M-59 1503l223 328h239l224 -328h-215l-131 135l-129 -135h-211zM111 0v1434h346v-1434h-346z" />
<glyph unicode="&#xcf;" horiz-adv-x="569" d="M-84 1673.5q0 65.5 48 112.5t113.5 47t114 -47t48.5 -113q0 -63 -48.5 -111.5t-114 -48.5t-113.5 47.5t-48 113zM111 0v1434h346v-1434h-346zM328 1673.5q0 65.5 48 112.5t113.5 47t113.5 -47t48 -113q0 -63 -48 -111.5t-113.5 -48.5t-113.5 47.5t-48 113z" />
<glyph unicode="&#xd0;" horiz-adv-x="1179" d="M45 610v267h96v557h416q279 0 416 -171t137 -536q0 -381 -143.5 -554t-440.5 -173h-385v610h-96zM467 283h68q125 0 174 88t49 350q0 256 -46 342t-169 86h-76v-272h123v-267h-123v-327z" />
<glyph unicode="&#xd1;" horiz-adv-x="1191" d="M104 0v1434h299l183 -328q139 -250 190 -401q-12 117 -12 407v322h321v-1434h-274l-211 412q-147 287 -184 393q10 -102 10 -399v-406h-322zM231 1513q0 143 61.5 221t164.5 78q88 0 172 -55q72 -47 94 -47q53 0 61 96h193q0 -141 -61.5 -220t-163.5 -79q-88 0 -172 56 q-72 47 -95 47q-53 0 -61 -97h-193z" />
<glyph unicode="&#xd2;" horiz-adv-x="1157" d="M66 714.5q0 372.5 134 557t379.5 184.5t379 -183t133.5 -554q0 -373 -134.5 -557.5t-382.5 -184.5q-246 0 -377.5 182.5t-131.5 555zM180 1849h365l147 -327h-221zM418 719q0 -250 39 -348.5t123 -98.5t121.5 96.5t37.5 346.5t-38.5 348t-122.5 98t-122 -95t-38 -347z " />
<glyph unicode="&#xd3;" horiz-adv-x="1157" d="M66 714.5q0 372.5 134 557t379.5 184.5t379 -183t133.5 -554q0 -373 -134.5 -557.5t-382.5 -184.5q-246 0 -377.5 182.5t-131.5 555zM418 719q0 -250 39 -348.5t123 -98.5t121.5 96.5t37.5 346.5t-38.5 348t-122.5 98t-122 -95t-38 -347zM446 1522l148 327h364l-290 -327 h-222z" />
<glyph unicode="&#xd4;" horiz-adv-x="1157" d="M66 714.5q0 372.5 134 557t379.5 184.5t379 -183t133.5 -554q0 -373 -134.5 -557.5t-382.5 -184.5q-246 0 -377.5 182.5t-131.5 555zM238 1516l223 327h239l224 -327h-215l-131 135l-129 -135h-211zM418 719q0 -250 39 -348.5t123 -98.5t121.5 96.5t37.5 346.5t-38.5 348 t-122.5 98t-122 -95t-38 -347z" />
<glyph unicode="&#xd5;" horiz-adv-x="1157" d="M66 714.5q0 372.5 134 557t379.5 184.5t379 -183t133.5 -554q0 -373 -134.5 -557.5t-382.5 -184.5q-246 0 -377.5 182.5t-131.5 555zM201 1516q0 143 61.5 221t163.5 78q88 0 172 -56q72 -47 94 -47q53 0 62 96h192q0 -141 -61.5 -220t-163.5 -79q-88 0 -172 56 q-72 47 -94 47q-53 0 -62 -96h-192zM418 719q0 -250 39 -348.5t123 -98.5t121.5 96.5t37.5 346.5t-38.5 348t-122.5 98t-122 -95t-38 -347z" />
<glyph unicode="&#xd6;" horiz-adv-x="1157" d="M66 714.5q0 372.5 134 557t379.5 184.5t379 -183t133.5 -554q0 -373 -134.5 -557.5t-382.5 -184.5q-246 0 -377.5 182.5t-131.5 555zM213 1675.5q0 65.5 48 112.5t113.5 47t114 -47t48.5 -113q0 -63 -48.5 -111t-114 -48t-113.5 47t-48 112.5zM418 719q0 -250 39 -348.5 t123 -98.5t121.5 96.5t37.5 346.5t-38.5 348t-122.5 98t-122 -95t-38 -347zM625 1675.5q0 65.5 48 112.5t113.5 47t113.5 -47t48 -113q0 -63 -48 -111t-113.5 -48t-113.5 47t-48 112.5z" />
<glyph unicode="&#xd7;" d="M25 725l317 272q47 37 80 15q35 -25 20 -86l-18 -74h209v233l-74 -16q-61 -14 -86 18q-25 35 14 80l273 318l274 -318q35 -45 15 -80q-25 -33 -86 -18l-76 16v-233h209l-17 74q-14 61 19 86q35 25 80 -15l317 -272l-317 -272q-45 -39 -80 -15q-33 25 -19 86l17 74h-209 v-250l76 17q61 14 86 -19q20 -35 -15 -80l-274 -317l-273 317q-39 45 -14 80q25 33 86 19l74 -17v250h-209l18 -74q14 -61 -20 -86q-33 -23 -80 15z" />
<glyph unicode="&#xd8;" horiz-adv-x="1157" d="M37 -102l137 297q-109 180 -108 520q0 373 134 557t380 184q82 0 149 -18l47 98h342l-137 -295q111 -186 111 -522q0 -373 -134.5 -557.5t-382.5 -184.5q-84 0 -151 21l-45 -100h-342zM418 719q0 -250 39 -348.5t123 -98.5t121.5 96.5t37.5 346.5t-38.5 348t-122.5 98 t-122 -95t-38 -347z" />
<glyph unicode="&#xd9;" horiz-adv-x="1179" d="M98 494v940h346v-951q0 -209 148 -209q141 0 141 209v951h346v-932q0 -264 -129 -394.5t-364 -130.5q-229 0 -358.5 129.5t-129.5 387.5zM209 1831h364l148 -328h-221z" />
<glyph unicode="&#xda;" horiz-adv-x="1179" d="M98 494v940h346v-951q0 -209 148 -209q141 0 141 209v951h346v-932q0 -264 -129 -394.5t-364 -130.5q-229 0 -358.5 129.5t-129.5 387.5zM459 1503l147 328h365l-291 -328h-221z" />
<glyph unicode="&#xdb;" horiz-adv-x="1179" d="M98 494v940h346v-951q0 -209 148 -209q141 0 141 209v951h346v-932q0 -264 -129 -394.5t-364 -130.5q-229 0 -358.5 129.5t-129.5 387.5zM248 1516l223 327h240l223 -327h-215l-131 135l-129 -135h-211z" />
<glyph unicode="&#xdc;" horiz-adv-x="1179" d="M98 494v940h346v-951q0 -209 148 -209q141 0 141 209v951h346v-932q0 -264 -129 -394.5t-364 -130.5q-229 0 -358.5 129.5t-129.5 387.5zM223 1675.5q0 65.5 48 112.5t114 47t114 -47t48 -113q0 -63 -48 -111t-114 -48t-114 47t-48 112.5zM635 1675.5q0 65.5 48 112.5 t113.5 47t113.5 -47t48 -113q0 -63 -48 -111t-113.5 -48t-113.5 47t-48 112.5z" />
<glyph unicode="&#xdd;" horiz-adv-x="1153" d="M20 1434h379l66 -191q94 -272 115 -414q16 127 114 414l66 191h373l-383 -879v-555h-344v549zM461 1522l147 327h365l-291 -327h-221z" />
<glyph unicode="&#xde;" horiz-adv-x="1077" d="M104 0v1434h336v-236h148q444 0 444 -444q0 -244 -125 -356.5t-344 -112.5h-123v-285h-336zM440 557h117q74 0 104.5 44t30.5 144q0 96 -28.5 139.5t-100.5 43.5h-123v-371z" />
<glyph unicode="&#xdf;" horiz-adv-x="1011" d="M84 -395v1462q0 211 108.5 315.5t292.5 104.5q176 0 280.5 -96.5t104.5 -274.5q0 -111 -35.5 -176.5t-101.5 -114.5q223 -82 223 -354q0 -240 -110.5 -355.5t-343.5 -115.5h-21v258h19q72 0 102.5 44t30.5 159q0 127 -33 173t-108 46h-11v252h11q39 0 54 29.5t15 109.5 q0 86 -18.5 121t-63.5 35t-62.5 -34t-17.5 -114v-1351z" />
<glyph unicode="&#xe0;" horiz-adv-x="925" d="M53 340q0 174 82 264t234 90q96 0 170 -35v84q0 57 -26 82t-83 25q-115 0 -244 -82l-90 219q180 111 385 111q188 0 277.5 -84t89.5 -258v-756h-309v61q-94 -84 -207 -84q-279 1 -279 363zM125 1536h364l148 -328h-221zM348 344q0 -133 86 -133q63 0 105 35v213 q-45 23 -107 22q-84 0 -84 -137z" />
<glyph unicode="&#xe1;" horiz-adv-x="925" d="M53 340q0 174 82 264t234 90q96 0 170 -35v84q0 57 -26 82t-83 25q-115 0 -244 -82l-90 219q180 111 385 111q188 0 277.5 -84t89.5 -258v-756h-309v61q-94 -84 -207 -84q-279 1 -279 363zM307 1208l148 328h364l-291 -328h-221zM348 344q0 -133 86 -133q63 0 105 35v213 q-45 23 -107 22q-84 0 -84 -137z" />
<glyph unicode="&#xe2;" horiz-adv-x="925" d="M53 340q0 174 82 264t234 90q96 0 170 -35v84q0 57 -26 82t-83 25q-115 0 -244 -82l-90 219q180 111 385 111q188 0 277.5 -84t89.5 -258v-756h-309v61q-94 -84 -207 -84q-279 1 -279 363zM123 1198l223 328h240l223 -328h-215l-131 135l-129 -135h-211zM348 344 q0 -133 86 -133q63 0 105 35v213q-45 23 -107 22q-84 0 -84 -137z" />
<glyph unicode="&#xe3;" horiz-adv-x="925" d="M53 340q0 174 82 264t234 90q96 0 170 -35v84q0 57 -26 82t-83 25q-115 0 -244 -82l-90 219q180 111 385 111q188 0 277.5 -84t89.5 -258v-756h-309v61q-94 -84 -207 -84q-279 1 -279 363zM100 1208q0 143 61.5 221t164.5 78q88 0 172 -55q72 -47 94 -47q53 0 61 96h193 q0 -141 -61.5 -220t-163.5 -79q-88 0 -172 55q-72 47 -95 48q-53 0 -61 -97h-193zM348 344q0 -133 86 -133q63 0 105 35v213q-45 23 -107 22q-84 0 -84 -137z" />
<glyph unicode="&#xe4;" horiz-adv-x="925" d="M53 340q0 174 82 264t234 90q96 0 170 -35v84q0 57 -26 82t-83 25q-115 0 -244 -82l-90 219q180 111 385 111q188 0 277.5 -84t89.5 -258v-756h-309v61q-94 -84 -207 -84q-279 1 -279 363zM98 1357.5q0 65.5 48.5 113t114 47.5t113.5 -47.5t48 -112.5q0 -63 -48 -111.5 t-113.5 -48.5t-114 47t-48.5 112.5zM348 344q0 -133 86 -133q63 0 105 35v213q-45 23 -107 22q-84 0 -84 -137zM510 1357.5q0 65.5 48 113t113.5 47.5t114 -47.5t48.5 -112.5q0 -63 -48.5 -111.5t-114 -48.5t-113.5 47t-48 112.5z" />
<glyph unicode="&#xe5;" horiz-adv-x="925" d="M53 340q0 174 82 264t234 90q96 0 170 -35v84q0 57 -26 82t-83 25q-115 0 -244 -82l-90 219q180 111 385 111q188 0 277.5 -84t89.5 -258v-756h-309v61q-94 -84 -207 -84q-279 1 -279 363zM215 1454q0 106 72.5 178t179.5 72q109 0 180.5 -71.5t71.5 -178t-72 -176.5 t-180 -70q-106 0 -179 71t-73 175zM348 344q0 -133 86 -133q63 0 105 35v213q-45 23 -107 22q-84 0 -84 -137zM371 1454q0 -47 26.5 -75.5t69.5 -28.5t70.5 29.5t27.5 74.5q0 47 -27.5 77t-70.5 30t-69.5 -30t-26.5 -77z" />
<glyph unicode="&#xe6;" horiz-adv-x="1388" d="M53 340q0 174 82 264t234 90q96 0 170 -35v84q0 57 -26 82t-83 25q-115 0 -244 -82l-90 219q180 111 379 111q176 0 236 -117q82 117 241 117q182 0 282.5 -145.5t100.5 -430.5q0 -57 -2 -76h-502q4 -123 35 -172t88 -49q51 0 90 25.5t86 95.5l187 -147 q-76 -111 -162 -166.5t-215 -55.5q-174 0 -260 125q-115 -125 -297 -125q-174 0 -252 88.5t-78 274.5zM348 344q0 -133 90 -133q63 0 113 41q-12 49 -12 207q-45 23 -107 22q-84 0 -84 -137zM831 653h216q-8 115 -33 161t-80 46q-47 0 -72 -46t-31 -161z" />
<glyph unicode="&#xe7;" horiz-adv-x="878" d="M55 535q0 563 418 563q141 0 224 -80t132 -232l-249 -118q-23 94 -45.5 130t-65.5 36q-55 0 -77.5 -67t-22.5 -232q0 -162 24.5 -227.5t81.5 -65.5q39 0 66.5 35.5t58.5 136.5l236 -121q-57 -160 -140.5 -235.5t-212.5 -80.5l-22 -69q33 18 86 18q63 0 103 -41t40 -110 q0 -82 -57.5 -126t-157.5 -44q-127 0 -250 67l41 84q94 -47 170 -47q39 0 62.5 17.5t23.5 46.5q0 51 -49 51q-29 0 -67 -25l-74 49l43 138q-320 64 -320 549z" />
<glyph unicode="&#xe8;" horiz-adv-x="909" d="M55 532q0 274 104.5 420t301.5 146q193 0 293 -144.5t100 -431.5v-76h-504q6 -123 37 -172t88 -49q49 0 88 25.5t86 95.5l187 -147q-74 -109 -160 -165.5t-215 -56.5q-199 0 -302.5 146.5t-103.5 408.5zM84 1536h365l147 -328h-221zM350 653h217q-6 113 -31.5 160 t-80.5 47q-49 0 -73 -46t-32 -161z" />
<glyph unicode="&#xe9;" horiz-adv-x="909" d="M55 532q0 274 104.5 420t301.5 146q193 0 293 -144.5t100 -431.5v-76h-504q6 -123 37 -172t88 -49q49 0 88 25.5t86 95.5l187 -147q-74 -109 -160 -165.5t-215 -56.5q-199 0 -302.5 146.5t-103.5 408.5zM326 1208l147 328h365l-291 -328h-221zM350 653h217 q-6 113 -31.5 160t-80.5 47q-49 0 -73 -46t-32 -161z" />
<glyph unicode="&#xea;" horiz-adv-x="909" d="M55 532q0 274 104.5 420t301.5 146q193 0 293 -144.5t100 -431.5v-76h-504q6 -123 37 -172t88 -49q49 0 88 25.5t86 95.5l187 -147q-74 -109 -160 -165.5t-215 -56.5q-199 0 -302.5 146.5t-103.5 408.5zM117 1188l223 328h240l223 -328h-215l-131 135l-129 -135h-211z M350 653h217q-6 113 -31.5 160t-80.5 47q-49 0 -73 -46t-32 -161z" />
<glyph unicode="&#xeb;" horiz-adv-x="909" d="M55 532q0 274 104.5 420t301.5 146q193 0 293 -144.5t100 -431.5v-76h-504q6 -123 37 -172t88 -49q49 0 88 25.5t86 95.5l187 -147q-74 -109 -160 -165.5t-215 -56.5q-199 0 -302.5 146.5t-103.5 408.5zM92 1357.5q0 65.5 48 113t113.5 47.5t114 -47.5t48.5 -112.5 q0 -63 -48.5 -111.5t-114 -48.5t-113.5 47t-48 112.5zM350 653h217q-6 113 -31.5 160t-80.5 47q-49 0 -73 -46t-32 -161zM504 1357.5q0 65.5 48 113t113.5 47.5t113.5 -47.5t48 -112.5q0 -63 -48 -111.5t-113.5 -48.5t-113.5 47t-48 112.5z" />
<glyph unicode="&#xec;" horiz-adv-x="495" d="M-133 1536h364l148 -328h-221zM90 0v1075h316v-1075h-316z" />
<glyph unicode="&#xed;" horiz-adv-x="495" d="M90 0v1075h316v-1075h-316zM119 1208l147 328h365l-291 -328h-221z" />
<glyph unicode="&#xee;" horiz-adv-x="495" d="M-96 1178l223 327h240l223 -327h-215l-131 135l-129 -135h-211zM90 0v1075h316v-1075h-316z" />
<glyph unicode="&#xef;" horiz-adv-x="495" d="M-121 1364q0 66 48 113t113.5 47t114 -47t48.5 -113q0 -63 -48.5 -111.5t-114 -48.5t-113.5 47t-48 113zM90 0v1075h316v-1075h-316zM291 1364q0 66 48 113t113.5 47t113.5 -47t48 -113q0 -63 -48 -111.5t-113.5 -48.5t-113.5 47t-48 113z" />
<glyph unicode="&#xf0;" horiz-adv-x="944" d="M55 475q0 227 102.5 361.5t254.5 134.5q150 0 223 -92q-23 125 -96 211l-80 -84l-127 114l69 72q-70 35 -170 45v219q201 -6 338 -90l88 90l127 -113l-86 -90q190 -219 191 -706q0 -569 -420 -570q-186 0 -300 132.5t-114 365.5zM369 479q0 -131 24.5 -184t79.5 -53 q53 0 77.5 53t24.5 180q0 133 -25.5 184.5t-78.5 51.5t-77.5 -52.5t-24.5 -179.5z" />
<glyph unicode="&#xf1;" horiz-adv-x="968" d="M84 0v1075h315v-61q98 84 219 84q272 0 273 -336v-762h-316v707q0 121 -77 120q-51 0 -99 -41v-786h-315zM123 1208q0 143 61.5 221t163.5 78q88 0 172 -55q72 -47 94 -47q53 0 62 96h192q0 -141 -61.5 -220t-163.5 -79q-88 0 -172 55q-72 47 -94 48q-53 0 -62 -97h-192z " />
<glyph unicode="&#xf2;" horiz-adv-x="944" d="M55 535q0 274 106.5 418.5t311.5 144.5q201 0 308.5 -142.5t107.5 -414.5q0 -274 -108.5 -419t-311.5 -145q-197 0 -305.5 143t-108.5 415zM80 1536h364l148 -328h-221zM369 541q0 -166 23.5 -232.5t80.5 -66.5q55 0 78.5 66.5t23.5 228.5q0 168 -23.5 232.5t-80.5 64.5 q-55 0 -78.5 -64.5t-23.5 -228.5z" />
<glyph unicode="&#xf3;" horiz-adv-x="944" d="M55 535q0 274 106.5 418.5t311.5 144.5q201 0 308.5 -142.5t107.5 -414.5q0 -274 -108.5 -419t-311.5 -145q-197 0 -305.5 143t-108.5 415zM344 1208l148 328h364l-291 -328h-221zM369 541q0 -166 23.5 -232.5t80.5 -66.5q55 0 78.5 66.5t23.5 228.5q0 168 -23.5 232.5 t-80.5 64.5q-55 0 -78.5 -64.5t-23.5 -228.5z" />
<glyph unicode="&#xf4;" horiz-adv-x="944" d="M55 535q0 274 106.5 418.5t311.5 144.5q201 0 308.5 -142.5t107.5 -414.5q0 -274 -108.5 -419t-311.5 -145q-197 0 -305.5 143t-108.5 415zM129 1188l223 328h240l223 -328h-215l-131 135l-129 -135h-211zM369 541q0 -166 23.5 -232.5t80.5 -66.5q55 0 78.5 66.5 t23.5 228.5q0 168 -23.5 232.5t-80.5 64.5q-55 0 -78.5 -64.5t-23.5 -228.5z" />
<glyph unicode="&#xf5;" horiz-adv-x="944" d="M55 535q0 274 106.5 418.5t311.5 144.5q201 0 308.5 -142.5t107.5 -414.5q0 -274 -108.5 -419t-311.5 -145q-197 0 -305.5 143t-108.5 415zM100 1208q0 143 61.5 221t164.5 78q88 0 172 -55q72 -47 94 -47q53 0 61 96h193q0 -141 -61.5 -220t-163.5 -79q-88 0 -172 55 q-72 47 -95 48q-53 0 -61 -97h-193zM369 541q0 -166 23.5 -232.5t80.5 -66.5q55 0 78.5 66.5t23.5 228.5q0 168 -23.5 232.5t-80.5 64.5q-55 0 -78.5 -64.5t-23.5 -228.5z" />
<glyph unicode="&#xf6;" horiz-adv-x="944" d="M55 535q0 274 106.5 418.5t311.5 144.5q201 0 308.5 -142.5t107.5 -414.5q0 -274 -108.5 -419t-311.5 -145q-197 0 -305.5 143t-108.5 415zM104 1347.5q0 65.5 48.5 112.5t114 47t113.5 -47t48 -112q0 -63 -48 -111.5t-113.5 -48.5t-114 47t-48.5 112.5zM369 541 q0 -166 23.5 -232.5t80.5 -66.5q55 0 78.5 66.5t23.5 228.5q0 168 -23.5 232.5t-80.5 64.5q-55 0 -78.5 -64.5t-23.5 -228.5zM516 1347.5q0 65.5 48 112.5t113.5 47t114 -47t48.5 -112q0 -63 -48.5 -111.5t-114 -48.5t-113.5 47t-48 112.5z" />
<glyph unicode="&#xf7;" d="M25 725l317 272q47 37 80 15q35 -25 20 -86l-18 -74h209v233l-74 -16q-61 -14 -86 18q-25 35 14 80l273 318l274 -318q35 -45 15 -80q-25 -33 -86 -18l-76 16v-233h209l-17 74q-14 61 19 86q35 25 80 -15l317 -272l-317 -272q-45 -39 -80 -15q-33 25 -19 86l17 74h-209 v-250l76 17q61 14 86 -19q20 -35 -15 -80l-274 -317l-273 317q-39 45 -14 80q25 33 86 19l74 -17v250h-209l18 -74q14 -61 -20 -86q-33 -23 -80 15z" />
<glyph unicode="&#xf8;" horiz-adv-x="944" d="M25 -102l120 243q-90 143 -90 394q0 274 106.5 418.5t311.5 144.5q59 0 115 -13l43 93h284l-118 -242q92 -141 92 -395q0 -274 -108.5 -419t-311.5 -145q-66 0 -115 15l-45 -94h-284zM369 541q0 -166 23.5 -232.5t80.5 -66.5q55 0 78.5 66.5t23.5 228.5 q0 168 -23.5 232.5t-80.5 64.5q-55 0 -78.5 -64.5t-23.5 -228.5z" />
<glyph unicode="&#xf9;" horiz-adv-x="968" d="M78 313v762h315v-706q0 -121 78 -121q51 0 98 41v786h316v-1075h-316v61q-98 -84 -221 -84q-270 0 -270 336zM100 1536h365l147 -328h-221z" />
<glyph unicode="&#xfa;" horiz-adv-x="968" d="M78 313v762h315v-706q0 -121 78 -121q51 0 98 41v786h316v-1075h-316v61q-98 -84 -221 -84q-270 0 -270 336zM350 1208l148 328h364l-291 -328h-221z" />
<glyph unicode="&#xfb;" horiz-adv-x="968" d="M78 313v762h315v-706q0 -121 78 -121q51 0 98 41v786h316v-1075h-316v61q-98 -84 -221 -84q-270 0 -270 336zM139 1208l223 328h240l223 -328h-215l-131 135l-129 -135h-211z" />
<glyph unicode="&#xfc;" horiz-adv-x="968" d="M78 313v762h315v-706q0 -121 78 -121q51 0 98 41v786h316v-1075h-316v61q-98 -84 -221 -84q-270 0 -270 336zM117 1368.5q0 65.5 48 112.5t113.5 47t113.5 -47t48 -113q0 -63 -48 -111.5t-113.5 -48.5t-113.5 47.5t-48 113zM528 1368.5q0 65.5 48.5 112.5t114 47 t113.5 -47t48 -113q0 -63 -48 -111.5t-113.5 -48.5t-114 47.5t-48.5 113z" />
<glyph unicode="&#xfd;" horiz-adv-x="960" d="M23 1075h329l54 -268q63 -319 75 -506q18 227 76 508l53 266h328l-408 -1454h-305l115 348zM365 1188l147 328h365l-291 -328h-221z" />
<glyph unicode="&#xfe;" horiz-adv-x="948" d="M84 -395v1765l315 123v-481q92 86 201 86q139 0 215 -139.5t76 -415.5q0 -565 -299 -566q-98 0 -193 82v-331zM399 283q43 -39 93 -39q47 0 66.5 56t19.5 235q0 182 -19.5 239t-69.5 57q-47 0 -90 -36v-512z" />
<glyph unicode="&#xff;" horiz-adv-x="960" d="M23 1075h329l54 -268q63 -319 75 -506q18 227 76 508l53 266h328l-408 -1454h-305l115 348zM115 1347.5q0 65.5 48 112.5t113.5 47t113.5 -47t48 -112q0 -63 -48 -111.5t-113.5 -48.5t-113.5 47t-48 112.5zM526 1347.5q0 65.5 48.5 112.5t114 47t113.5 -47t48 -112 q0 -63 -48 -111.5t-113.5 -48.5t-114 47t-48.5 112.5z" />
<glyph unicode="&#x152;" horiz-adv-x="1638" d="M66 714.5q0 368.5 133 555t360 186.5q190 0 272 -135v113h721v-293h-489v-246h315v-291h-315v-311h504v-293h-736v115q-88 -137 -276 -138q-227 0 -358 184.5t-131 553zM418 719q0 -250 39 -348.5t123 -98.5t121.5 96.5t37.5 346.5t-38.5 348t-122.5 98t-122 -95 t-38 -347z" />
<glyph unicode="&#x153;" horiz-adv-x="1425" d="M55 535q0 274 106.5 418.5t307.5 144.5q176 0 260 -133q88 133 252 133q186 0 287.5 -145.5t101.5 -430.5q0 -57 -2 -76h-502q4 -123 35 -172t88 -49q51 0 90 25.5t86 95.5l187 -147q-76 -109 -162 -165.5t-209 -56.5q-172 0 -258 136q-98 -135 -258 -136 q-193 0 -301.5 144t-108.5 414zM369 541q0 -166 23.5 -232.5t80.5 -66.5q55 0 78.5 66.5t23.5 228.5q0 168 -23.5 232.5t-80.5 64.5q-55 0 -78.5 -64.5t-23.5 -228.5zM866 653h215q-8 115 -32.5 161t-79.5 46q-47 0 -72 -46t-31 -161z" />
<glyph unicode="&#x178;" horiz-adv-x="1153" d="M20 1434h379l66 -191q94 -272 115 -414q16 127 114 414l66 191h373l-383 -879v-555h-344v549zM211 1673.5q0 65.5 48 112.5t113.5 47t114 -47t48.5 -113q0 -63 -48.5 -111.5t-114 -48.5t-113.5 47.5t-48 113zM623 1673.5q0 65.5 48 112.5t113.5 47t113.5 -47t48 -113 q0 -63 -48 -111.5t-113.5 -48.5t-113.5 47.5t-48 113z" />
<glyph unicode="&#x2c6;" horiz-adv-x="849" d="M82 1208l223 328h240l223 -328h-215l-131 135l-129 -135h-211z" />
<glyph unicode="&#x2dc;" horiz-adv-x="849" d="M53 1208q0 143 61.5 221t164.5 78q88 0 172 -55q72 -47 94 -47q53 0 61 96h193q0 -141 -61.5 -220t-164.5 -79q-88 0 -172 55q-72 47 -94 48q-53 0 -61 -97h-193z" />
<glyph unicode="&#x2000;" horiz-adv-x="927" />
<glyph unicode="&#x2001;" horiz-adv-x="1855" />
<glyph unicode="&#x2002;" horiz-adv-x="927" />
<glyph unicode="&#x2003;" horiz-adv-x="1855" />
<glyph unicode="&#x2004;" horiz-adv-x="618" />
<glyph unicode="&#x2005;" horiz-adv-x="462" />
<glyph unicode="&#x2006;" horiz-adv-x="309" />
<glyph unicode="&#x2007;" horiz-adv-x="309" />
<glyph unicode="&#x2008;" horiz-adv-x="231" />
<glyph unicode="&#x2009;" horiz-adv-x="370" />
<glyph unicode="&#x200a;" horiz-adv-x="102" />
<glyph unicode="&#x2010;" horiz-adv-x="759" d="M98 580v323h561v-323h-561z" />
<glyph unicode="&#x2011;" horiz-adv-x="759" d="M98 580v323h561v-323h-561z" />
<glyph unicode="&#x2012;" horiz-adv-x="759" d="M98 580v323h561v-323h-561z" />
<glyph unicode="&#x2013;" horiz-adv-x="913" d="M98 588v307h717v-307h-717z" />
<glyph unicode="&#x2014;" horiz-adv-x="1087" d="M98 588v307h891v-307h-891z" />
<glyph unicode="&#x2018;" horiz-adv-x="550" d="M70 864l174 570h202l-30 -570h-346z" />
<glyph unicode="&#x2019;" horiz-adv-x="550" d="M104 864l31 570h346l-174 -570h-203z" />
<glyph unicode="&#x201a;" horiz-adv-x="550" d="M102 -215l29 569h346l-172 -569h-203z" />
<glyph unicode="&#x201c;" horiz-adv-x="1026" d="M70 864l174 570h202l-30 -570h-346zM545 864l174 570h203l-31 -570h-346z" />
<glyph unicode="&#x201d;" horiz-adv-x="1026" d="M104 864l31 570h346l-174 -570h-203zM580 864l30 570h346l-174 -570h-202z" />
<glyph unicode="&#x201e;" horiz-adv-x="1026" d="M102 -215l29 569h346l-172 -569h-203zM578 -215l28 569h346l-172 -569h-202z" />
<glyph unicode="&#x2022;" horiz-adv-x="972" d="M106 749.5q0 159.5 110 270t269.5 110.5t269 -110.5t109.5 -270t-108.5 -268t-270.5 -108.5q-160 0 -269.5 108.5t-109.5 268z" />
<glyph unicode="&#x2026;" horiz-adv-x="1603" d="M70 174q0 86 56 140.5t142 54.5t141.5 -54.5t55.5 -140.5t-55.5 -141.5t-141.5 -55.5t-142 55.5t-56 141.5zM604 174q0 86 56.5 140.5t142.5 54.5t141 -54.5t55 -140.5t-55 -141.5t-141 -55.5t-142.5 55.5t-56.5 141.5zM1139 174q0 86 56 140.5t142 54.5t141.5 -54.5 t55.5 -140.5t-55.5 -141.5t-141.5 -55.5t-142 55.5t-56 141.5z" />
<glyph unicode="&#x202f;" horiz-adv-x="370" />
<glyph unicode="&#x2039;" horiz-adv-x="669" d="M43 537l233 538h324l-231 -536l231 -539h-324z" />
<glyph unicode="&#x203a;" horiz-adv-x="669" d="M68 0l231 537l-231 538h325l232 -536l-232 -539h-325z" />
<glyph unicode="&#x205f;" horiz-adv-x="462" />
<glyph unicode="&#x20ac;" horiz-adv-x="1067" d="M63 715q0 741 508 741q174 0 280.5 -84t162.5 -250l-295 -121q-33 94 -68 133.5t-88 39.5q-70 0 -107.5 -51.5t-52.5 -180.5h320v-194h-330v-72h330v-195h-317q16 -125 55 -172t106 -47q55 0 94 39t76 123l281 -139q-78 -166 -183.5 -237t-269.5 -71q-502 1 -502 738z " />
<glyph unicode="&#x2122;" horiz-adv-x="1357" d="M35 1266v168h522v-168h-164v-643h-192v643h-166zM655 623v811h174l72 -199q59 -164 78 -250q14 86 76 252l69 197h176v-811h-176v180q0 131 6 235q-20 -70 -77 -237l-76 -203l-76 203q-59 170 -76 237q4 -135 4 -235v-180h-174z" />
<glyph unicode="&#xe000;" horiz-adv-x="1075" d="M0 1075h1075v-1075h-1075v1075z" />
<glyph unicode="&#xfb01;" horiz-adv-x="1126" d="M51 815v260h94v133q0 279 269 279q127 0 196 -29v-231q-43 16 -90 16q-68 0 -67 -69v-99h137v-260h-135v-815h-310v815h-94zM702 1339q0 70 49.5 115t127.5 45q80 0 130 -44t50 -116q0 -74 -50.5 -118.5t-129.5 -44.5q-78 0 -127.5 44.5t-49.5 118.5zM721 0v1075h315 v-1075h-315z" />
<glyph unicode="&#xfb02;" horiz-adv-x="1126" d="M51 815v260h94v133q0 279 269 279q127 0 196 -29v-231q-43 16 -90 16q-68 0 -67 -69v-99h137v-260h-135v-815h-310v815h-94zM721 0v1370l315 123v-1493h-315z" />
<glyph unicode="&#xfb03;" horiz-adv-x="1769" d="M1344 1339q0 70 50 115t128 45q80 0 129 -44t49 -116q0 -74 -49 -118.5t-129 -44.5q-78 0 -128 44.5t-50 118.5zM1364 0v1075h316v-1075h-316zM688 815v260h94v133q0 279 269 279q127 0 196 -29v-231q-43 16 -90 16q-68 0 -67 -69v-99h137v-260h-135v-815h-310v815h-94z M51 815v260h94v133q0 279 269 279q127 0 196 -29v-231q-43 16 -90 16q-68 0 -67 -69v-99h137v-260h-135v-815h-310v815h-94z" />
<glyph unicode="&#xfb04;" horiz-adv-x="1769" d="M1364 0v1370l316 123v-1493h-316zM688 815v260h94v133q0 279 269 279q127 0 196 -29v-231q-43 16 -90 16q-68 0 -67 -69v-99h137v-260h-135v-815h-310v815h-94zM51 815v260h94v133q0 279 269 279q127 0 196 -29v-231q-43 16 -90 16q-68 0 -67 -69v-99h137v-260h-135v-815 h-310v815h-94z" />
</font>
</defs>
</svg>
