<?xml version="1.0" encoding="utf-8" ?><svg version="1.1" xmlns = 'http://www.w3.org/2000/svg'><defs><font id='web' horiz-adv-x="1000">
<font-face font-family="web" descent="-410" cap-height="1434" units-per-em="2048" bbox="-345,-491,2724,2181" x-height="1075" ascent="1638" />
<missing-glyph horiz-adv-x="1024" d="" /><glyph horiz-adv-x="555" d="" unicode=" " />
<glyph horiz-adv-x="610" d="M 461 797 L 352 414 L 217 414 L 244 797 L 356 1434 L 573 1434 L 461 797 Z M 385 131 C 385 109 380 89 372 71 C 364 52 353 36 339 22 C 325 8 308 -3 290 -11 C 271 -19 251 -23 231 -23 C 209 -23 189 -19 171 -11 C 153 -3 137 8 123 22 C 109 36 98 52 90 71 C 82 89 78 109 78 131 C 78 151 82 171 90 190 C 98 209 109 226 123 240 C 137 254 153 266 171 274 C 189 282 209 287 231 287 C 251 287 271 282 290 274 C 308 266 325 254 339 240 C 353 226 364 209 372 190 C 380 171 385 151 385 131 Z" unicode="!" />
<glyph horiz-adv-x="1004" d="M 864 764 L 710 764 L 778 1434 L 1034 1434 L 864 764 Z M 411 764 L 258 764 L 325 1434 L 581 1434 L 411 764 Z" unicode="&#x22;" />
<glyph horiz-adv-x="1270" d="M 264 338 L 79 338 L 110 510 L 294 510 L 366 926 L 182 926 L 215 1098 L 399 1098 L 456 1434 L 634 1434 L 577 1098 L 847 1098 L 907 1434 L 1085 1434 L 1028 1098 L 1212 1098 L 1179 926 L 995 926 L 923 510 L 1107 510 L 1077 338 L 892 338 L 833 0 L 655 0 L 714 338 L 444 338 L 382 0 L 204 0 L 264 338 Z M 747 508 L 821 928 L 542 928 L 469 508 L 747 508 Z" unicode="#" />
<glyph horiz-adv-x="1270" d="M 560 180 C 602 180 641 184 675 194 C 709 204 739 218 763 237 C 787 256 806 279 819 307 C 832 335 839 367 839 403 C 839 422 836 441 830 460 C 824 479 814 498 799 516 C 783 534 762 551 735 569 C 708 586 674 603 632 620 C 565 646 508 673 461 703 C 414 732 376 764 346 798 C 316 832 294 869 280 909 C 266 948 260 990 260 1036 C 260 1096 270 1150 292 1197 C 313 1244 342 1284 380 1318 C 417 1351 461 1377 511 1397 C 561 1416 615 1428 673 1434 L 708 1628 L 907 1628 L 872 1427 C 937 1415 994 1397 1043 1372 C 1091 1346 1136 1314 1177 1274 L 1028 1124 C 1012 1140 994 1156 975 1172 C 955 1187 933 1201 909 1213 C 885 1225 857 1234 827 1241 C 797 1248 763 1252 726 1252 C 680 1252 641 1247 610 1237 C 578 1227 553 1214 534 1197 C 515 1180 501 1160 493 1137 C 485 1113 481 1088 481 1061 C 481 1036 484 1013 490 993 C 496 973 506 954 521 937 C 535 919 555 903 579 888 C 603 872 634 858 670 844 C 740 816 800 787 850 758 C 900 729 940 698 972 665 C 1004 632 1027 596 1042 557 C 1056 518 1064 475 1064 428 C 1064 364 1053 307 1032 257 C 1010 207 980 164 941 128 C 902 92 855 63 801 42 C 747 20 687 6 622 0 L 587 -195 L 389 -195 L 423 4 C 344 15 276 37 218 71 C 160 104 110 144 67 190 L 223 340 C 266 288 315 249 371 222 C 427 194 490 180 560 180 Z" unicode="$" />
<glyph horiz-adv-x="1270" d="M 317 647 C 278 647 245 656 218 675 C 190 694 169 722 154 758 C 139 794 130 837 128 889 C 125 941 129 999 141 1065 C 153 1131 169 1188 189 1237 C 209 1286 232 1327 258 1359 C 284 1391 312 1416 343 1432 C 374 1448 406 1456 440 1456 C 478 1456 511 1446 539 1428 C 567 1409 588 1382 604 1346 C 620 1310 629 1267 632 1215 C 635 1163 631 1104 620 1038 C 608 972 592 915 572 866 C 552 817 528 776 502 744 C 476 711 447 687 415 671 C 383 655 351 647 317 647 Z M 1030 1434 L 1161 1434 L 260 0 L 133 0 L 1030 1434 Z M 845 -23 C 807 -23 774 -13 746 5 C 718 23 697 51 682 87 C 666 123 657 166 655 218 C 652 270 657 329 669 395 C 681 460 696 517 716 566 C 736 615 759 656 785 688 C 811 720 839 745 870 761 C 901 777 934 786 968 786 C 1006 786 1039 776 1067 757 C 1095 738 1116 711 1132 675 C 1148 639 1157 596 1160 544 C 1162 492 1158 434 1146 369 C 1134 303 1119 245 1099 196 C 1079 146 1056 105 1030 73 C 1004 41 975 17 944 1 C 912 -15 879 -23 845 -23 Z M 333 774 C 347 774 361 777 374 785 C 387 793 399 807 411 828 C 423 848 434 876 444 912 C 454 948 465 993 475 1049 C 485 1103 490 1149 492 1185 C 494 1221 492 1249 487 1271 C 482 1292 474 1307 464 1316 C 454 1324 442 1329 428 1329 C 413 1329 399 1325 386 1317 C 373 1309 361 1295 349 1275 C 337 1255 326 1227 316 1192 C 306 1156 296 1111 286 1057 C 276 1002 270 956 269 920 C 267 884 269 855 274 833 C 279 811 287 796 297 787 C 307 778 319 774 333 774 Z M 860 104 C 874 104 887 108 900 116 C 913 124 926 138 938 158 C 950 178 961 206 972 242 C 982 277 993 322 1003 377 C 1013 431 1018 477 1020 513 C 1021 549 1019 578 1014 600 C 1009 621 1002 636 992 645 C 982 654 970 659 956 659 C 942 659 928 655 915 647 C 901 639 889 625 877 605 C 865 585 853 557 843 522 C 832 486 822 441 813 387 C 803 332 798 286 797 250 C 795 214 797 185 802 163 C 807 141 815 126 825 117 C 835 108 846 104 860 104 Z" unicode="%" />
<glyph horiz-adv-x="1384" d="M 1253 598 C 1193 468 1125 357 1047 264 L 1208 0 L 973 0 L 897 117 C 838 71 776 37 710 13 C 644 -11 574 -23 500 -23 C 436 -23 378 -15 326 0 C 274 16 230 38 194 68 C 157 98 129 134 109 177 C 89 219 80 268 80 322 C 80 378 89 429 107 477 C 125 524 150 567 184 606 C 217 645 257 681 305 713 C 352 745 405 775 465 801 L 434 850 C 419 873 406 895 396 917 C 386 938 377 959 371 980 C 365 1001 360 1022 358 1044 C 355 1066 354 1088 354 1112 C 354 1164 364 1212 384 1254 C 404 1296 433 1333 469 1363 C 505 1393 547 1416 597 1432 C 647 1448 701 1456 760 1456 C 849 1456 928 1441 996 1412 C 1064 1383 1125 1342 1180 1290 L 1044 1133 C 1000 1173 955 1205 908 1227 C 860 1249 809 1260 754 1260 C 696 1260 650 1246 616 1220 C 582 1193 565 1157 565 1112 C 565 1064 582 1012 616 956 L 946 428 C 970 462 994 499 1018 539 C 1041 579 1063 622 1085 666 L 1253 598 Z M 801 272 L 559 651 C 471 615 405 572 361 523 C 317 473 295 418 295 356 C 295 330 300 306 310 284 C 320 261 335 241 355 224 C 375 207 400 194 431 184 C 461 174 497 170 539 170 C 586 170 631 179 674 198 C 717 216 759 241 801 272 Z" unicode="&#x26;" />
<glyph horiz-adv-x="551" d="M 419 764 L 253 764 L 319 1434 L 587 1434 L 419 764 Z" unicode="'" />
<glyph horiz-adv-x="1270" d="M 684 -223 C 642 -183 600 -138 556 -87 C 512 -36 472 19 436 81 C 400 142 370 208 347 280 C 324 352 313 428 313 510 C 313 591 322 667 341 737 C 360 807 386 872 419 932 C 451 992 489 1048 533 1100 C 577 1152 623 1200 673 1244 C 722 1288 773 1329 825 1367 C 877 1405 928 1440 978 1473 L 1075 1360 C 1001 1306 932 1249 868 1191 C 804 1132 749 1068 702 998 C 654 928 617 852 590 770 C 563 688 550 596 550 496 C 550 428 556 365 570 307 C 583 249 601 195 624 145 C 647 94 674 46 705 2 C 735 -42 768 -86 802 -129 L 684 -223 Z" unicode="(" />
<glyph horiz-adv-x="1270" d="M 194 -111 C 268 -57 336 0 400 58 C 464 116 519 180 566 250 C 613 320 650 396 677 478 C 704 560 718 652 718 754 C 718 822 711 884 698 942 C 684 1000 666 1054 643 1104 C 620 1154 593 1202 563 1247 C 533 1291 500 1335 466 1378 L 585 1473 C 626 1433 669 1388 713 1337 C 757 1286 797 1230 833 1168 C 869 1106 898 1040 921 968 C 944 896 956 819 956 739 C 956 657 946 582 927 512 C 908 442 882 376 850 316 C 817 256 779 200 735 149 C 691 97 645 49 596 5 C 546 -38 495 -79 443 -117 C 391 -155 340 -190 290 -223 L 194 -111 Z" unicode=")" />
<glyph horiz-adv-x="1024" d="M 848 827 L 627 987 L 655 715 L 500 715 L 524 989 L 303 827 L 223 965 L 471 1075 L 223 1188 L 303 1323 L 524 1161 L 500 1434 L 655 1434 L 627 1163 L 848 1323 L 928 1188 L 674 1075 L 928 965 L 848 827 Z" unicode="*" />
<glyph horiz-adv-x="1270" d="M 536 602 L 153 602 L 153 807 L 536 807 L 536 1204 L 751 1204 L 751 807 L 1132 807 L 1132 602 L 751 602 L 751 205 L 536 205 L 536 602 Z" unicode="+" />
<glyph horiz-adv-x="635" d="M 184 -258 L 38 -258 L 165 285 L 434 285 L 184 -258 Z" unicode="," />
<glyph horiz-adv-x="737" d="M 643 645 L 131 645 L 168 854 L 680 854 L 643 645 Z" unicode="-" />
<glyph horiz-adv-x="635" d="M 499 139 C 499 116 494 95 486 75 C 478 55 466 38 452 24 C 437 9 420 -2 400 -10 C 380 -18 359 -23 337 -23 C 314 -23 293 -18 273 -10 C 253 -2 236 9 222 24 C 208 38 196 55 188 75 C 180 95 176 116 176 139 C 176 161 180 182 188 202 C 196 222 208 239 222 254 C 236 269 253 281 273 290 C 293 298 314 303 337 303 C 359 303 380 298 400 290 C 420 281 437 269 452 254 C 466 239 478 222 486 202 C 494 182 499 161 499 139 Z" unicode="." />
<glyph horiz-adv-x="913" d="M 117 -184 L -94 -184 L 862 1618 L 1073 1618 L 117 -184 Z" unicode="/" />
<glyph horiz-adv-x="1270" d="M 1210 901 C 1210 765 1194 641 1162 528 C 1130 415 1085 318 1027 236 C 969 154 901 91 821 45 C 741 0 653 -23 558 -23 C 484 -23 419 -10 361 13 C 303 37 253 73 213 121 C 173 169 142 228 121 298 C 99 368 89 448 89 540 C 89 673 105 796 137 908 C 169 1020 214 1117 272 1199 C 329 1280 397 1343 477 1388 C 556 1433 642 1456 736 1456 C 811 1456 878 1444 937 1420 C 995 1396 1045 1360 1085 1313 C 1125 1266 1156 1208 1178 1139 C 1199 1069 1210 990 1210 901 Z M 983 880 C 983 937 978 989 968 1035 C 958 1081 943 1121 921 1154 C 899 1187 872 1213 838 1231 C 804 1249 764 1257 716 1257 C 656 1257 601 1239 552 1203 C 503 1167 461 1118 426 1056 C 391 994 364 920 344 835 C 324 749 315 657 315 557 C 315 498 320 445 330 399 C 340 352 355 312 377 279 C 399 246 426 221 460 203 C 494 185 535 177 583 177 C 642 177 696 195 746 231 C 795 267 837 316 872 379 C 907 442 934 516 954 602 C 973 688 983 780 983 880 Z" unicode="0" />
<glyph horiz-adv-x="1270" d="M 200 178 L 484 178 L 644 1100 L 357 1100 L 384 1249 C 434 1251 478 1256 517 1264 C 556 1271 590 1282 620 1296 C 650 1310 675 1329 695 1351 C 715 1373 732 1401 746 1434 L 921 1434 L 699 178 L 998 178 L 966 0 L 167 0 L 200 178 Z" unicode="1" />
<glyph horiz-adv-x="1270" d="M 29 0 C 47 100 74 189 109 265 C 143 341 185 408 235 468 C 284 528 340 581 404 628 C 468 675 538 719 616 761 C 682 796 736 827 779 854 C 821 881 855 907 880 932 C 904 956 921 981 931 1006 C 941 1031 946 1060 946 1092 C 946 1146 925 1188 883 1218 C 841 1248 783 1263 708 1263 C 643 1263 582 1251 524 1229 C 466 1206 411 1175 359 1136 L 253 1294 C 318 1347 390 1387 470 1415 C 550 1442 640 1456 741 1456 C 807 1456 866 1448 919 1433 C 971 1417 1016 1395 1053 1366 C 1090 1337 1118 1302 1138 1260 C 1158 1218 1168 1170 1168 1117 C 1168 1065 1160 1017 1145 974 C 1130 931 1106 890 1072 851 C 1038 811 993 772 939 734 C 885 696 818 656 739 615 C 665 577 604 540 555 505 C 505 470 464 436 432 403 C 400 369 375 336 357 303 C 339 269 325 233 315 195 L 1043 195 L 1008 0 L 29 0 Z" unicode="2" />
<glyph horiz-adv-x="1270" d="M 1151 1115 C 1151 1061 1143 1015 1129 975 C 1115 935 1096 901 1072 873 C 1048 844 1020 820 990 800 C 959 780 927 764 895 751 C 953 729 999 694 1035 646 C 1071 598 1089 537 1089 463 C 1089 389 1075 323 1048 263 C 1020 203 982 152 932 110 C 882 67 823 34 753 11 C 683 -11 605 -23 521 -23 C 466 -23 415 -17 367 -5 C 319 7 276 23 236 44 C 196 64 161 89 129 117 C 97 145 71 176 50 208 L 214 337 C 253 282 298 241 350 213 C 402 185 468 172 550 172 C 601 172 646 178 686 192 C 725 206 758 225 785 250 C 812 275 832 305 846 340 C 860 375 867 414 867 458 C 867 520 846 569 806 603 C 765 637 703 654 620 654 L 491 654 L 524 840 L 651 840 C 695 840 734 845 768 857 C 802 869 830 885 854 907 C 878 928 896 953 908 983 C 920 1013 926 1046 926 1082 C 926 1140 907 1184 870 1216 C 832 1248 775 1264 699 1264 C 640 1264 585 1253 534 1231 C 482 1209 433 1179 385 1142 L 275 1288 C 301 1312 331 1334 364 1355 C 396 1375 432 1393 470 1408 C 508 1423 548 1435 592 1443 C 635 1451 681 1456 730 1456 C 796 1456 855 1448 907 1432 C 959 1416 1004 1393 1040 1363 C 1076 1333 1103 1298 1122 1256 C 1141 1214 1151 1167 1151 1115 Z" unicode="3" />
<glyph horiz-adv-x="1270" d="M 771 324 L 46 324 L 75 489 L 942 1434 L 1162 1434 L 998 502 L 1176 502 L 1144 322 L 966 322 L 909 0 L 714 0 L 771 324 Z M 803 502 L 919 1164 L 313 502 L 803 502 Z" unicode="4" />
<glyph horiz-adv-x="1270" d="M 1176 1241 L 513 1241 L 422 863 C 440 875 460 885 481 894 C 502 902 524 910 548 916 C 571 922 595 926 621 930 C 646 933 672 935 699 935 C 835 935 941 900 1016 830 C 1090 760 1128 658 1128 524 C 1128 439 1113 363 1083 295 C 1053 227 1012 170 960 123 C 908 76 846 40 776 15 C 705 -10 629 -23 548 -23 C 493 -23 441 -18 393 -9 C 345 0 300 11 259 27 C 217 43 179 62 144 84 C 109 106 77 130 49 156 L 189 313 C 243 265 299 230 357 206 C 415 182 483 170 561 170 C 618 170 668 178 712 195 C 755 212 791 236 820 266 C 849 296 871 331 886 372 C 900 412 908 456 908 504 C 908 584 886 645 843 686 C 800 726 734 747 646 747 C 590 747 539 738 495 720 C 450 702 410 677 375 645 L 192 717 L 357 1434 L 1207 1434 L 1176 1241 Z" unicode="5" />
<glyph horiz-adv-x="1270" d="M 1159 494 C 1159 416 1144 346 1115 283 C 1085 219 1045 165 994 120 C 943 74 883 39 815 14 C 747 -10 674 -23 596 -23 C 518 -23 449 -12 388 8 C 327 28 275 58 233 98 C 190 137 157 185 135 242 C 113 298 102 363 102 435 C 102 523 113 608 135 690 C 157 772 188 850 230 923 C 271 996 321 1064 380 1126 C 439 1188 506 1242 580 1288 C 654 1334 735 1372 823 1402 C 911 1431 1004 1449 1103 1457 L 1088 1265 C 1004 1255 925 1237 851 1212 C 777 1186 709 1153 647 1112 C 585 1071 530 1022 482 966 C 434 910 396 845 367 773 C 387 791 410 808 436 823 C 462 838 489 851 519 861 C 548 871 579 879 613 885 C 646 890 681 893 719 893 C 787 893 849 884 904 867 C 958 850 1004 825 1042 791 C 1080 757 1109 715 1129 665 C 1149 615 1159 558 1159 494 Z M 939 471 C 939 545 915 603 867 646 C 819 689 747 711 650 711 C 601 711 556 703 515 689 C 474 674 439 653 409 627 C 379 601 356 569 340 533 C 324 496 316 456 316 412 C 316 332 341 271 393 228 C 444 185 517 164 612 164 C 662 164 708 172 749 189 C 789 206 824 228 852 255 C 880 282 901 314 916 351 C 931 388 939 428 939 471 Z" unicode="6" />
<glyph horiz-adv-x="1270" d="M 1208 1245 C 1117 1159 1035 1071 961 981 C 887 890 821 794 763 693 C 705 591 655 484 613 370 C 571 256 537 132 511 0 L 284 0 C 310 127 345 248 388 363 C 430 477 480 586 536 688 C 592 790 655 887 725 979 C 794 1070 870 1157 954 1239 L 250 1239 L 282 1434 L 1243 1434 L 1208 1245 Z" unicode="7" />
<glyph horiz-adv-x="1270" d="M 1196 1099 C 1196 1054 1189 1014 1176 979 C 1163 943 1145 912 1123 884 C 1100 856 1073 832 1042 812 C 1011 792 978 775 942 761 C 970 749 997 733 1023 715 C 1048 696 1070 674 1089 648 C 1108 622 1123 592 1134 558 C 1144 524 1150 486 1150 444 C 1150 368 1135 302 1106 244 C 1077 186 1037 137 987 97 C 937 57 878 27 810 7 C 742 -12 670 -23 593 -23 C 510 -23 437 -13 374 5 C 310 23 257 50 214 84 C 170 118 137 160 115 209 C 93 257 82 312 82 372 C 82 426 90 474 106 518 C 122 562 145 600 173 634 C 201 667 235 696 273 720 C 311 744 353 763 397 778 C 345 804 306 839 278 885 C 250 931 237 984 237 1045 C 237 1103 249 1158 273 1208 C 297 1258 332 1302 376 1339 C 420 1375 472 1404 534 1425 C 595 1445 662 1456 736 1456 C 813 1456 880 1447 938 1429 C 996 1411 1044 1386 1082 1354 C 1120 1322 1148 1284 1167 1241 C 1186 1197 1196 1150 1196 1099 Z M 981 1082 C 981 1110 975 1136 965 1160 C 955 1183 939 1203 918 1220 C 896 1237 869 1250 837 1260 C 805 1269 767 1274 724 1274 C 677 1274 637 1268 603 1256 C 569 1244 540 1227 518 1207 C 495 1186 478 1162 467 1135 C 456 1108 451 1080 451 1051 C 451 1021 456 994 466 970 C 476 946 492 925 513 908 C 533 890 559 877 591 867 C 622 857 659 852 701 852 C 743 852 782 857 816 868 C 850 879 880 895 905 915 C 929 935 948 959 961 987 C 974 1015 981 1047 981 1082 Z M 933 437 C 933 470 926 501 914 530 C 902 559 883 584 858 605 C 833 626 802 643 764 655 C 726 667 681 673 629 673 C 576 673 529 666 488 652 C 446 638 411 619 383 595 C 355 571 333 541 318 507 C 303 473 296 435 296 394 C 296 357 303 324 317 296 C 331 268 351 244 378 224 C 405 204 437 189 474 179 C 510 169 553 164 601 164 C 655 164 702 170 743 183 C 784 196 819 215 847 240 C 875 265 897 294 911 328 C 925 361 933 397 933 437 Z" unicode="8" />
<glyph horiz-adv-x="1270" d="M 143 941 C 143 1018 157 1088 187 1152 C 216 1215 256 1269 307 1315 C 358 1360 418 1395 487 1420 C 555 1444 629 1457 707 1457 C 784 1457 853 1446 914 1426 C 975 1405 1027 1375 1069 1336 C 1111 1297 1144 1249 1166 1192 C 1188 1135 1200 1071 1200 999 C 1200 911 1189 826 1167 744 C 1145 662 1113 584 1072 511 C 1031 437 981 370 922 308 C 862 246 795 192 721 146 C 647 100 566 62 478 32 C 390 2 297 -15 199 -23 L 214 170 C 297 180 376 197 451 223 C 525 248 593 281 655 322 C 717 363 771 412 819 468 C 867 524 906 589 936 662 C 914 643 891 626 866 611 C 840 596 813 583 783 573 C 753 563 722 555 689 550 C 655 544 620 542 584 542 C 514 542 452 550 398 567 C 343 584 297 610 259 644 C 221 678 193 719 173 769 C 153 819 143 876 143 941 Z M 363 964 C 363 887 387 828 436 786 C 484 744 556 724 652 724 C 700 724 745 731 786 745 C 827 759 862 780 892 806 C 922 832 945 864 962 901 C 978 937 987 978 987 1023 C 987 1100 961 1160 910 1203 C 859 1245 786 1267 690 1267 C 639 1267 593 1259 553 1243 C 513 1227 478 1206 450 1179 C 422 1151 400 1119 385 1083 C 370 1046 363 1006 363 964 Z" unicode="9" />
<glyph horiz-adv-x="635" d="M 517 934 C 517 912 512 891 504 871 C 495 851 483 834 469 820 C 454 805 437 793 417 785 C 397 776 377 772 355 772 C 333 772 312 776 292 785 C 272 793 255 805 241 820 C 226 834 214 851 206 871 C 197 891 193 912 193 934 C 193 956 197 976 206 996 C 214 1016 226 1033 241 1048 C 255 1063 272 1075 292 1084 C 312 1093 333 1098 355 1098 C 377 1098 397 1093 417 1084 C 437 1075 454 1063 469 1048 C 483 1033 495 1016 504 996 C 512 976 517 956 517 934 Z M 375 139 C 375 117 370 96 362 76 C 353 56 341 39 327 25 C 312 10 295 -1 275 -10 C 255 -18 235 -23 213 -23 C 191 -23 170 -18 150 -10 C 130 -1 113 10 99 25 C 85 39 73 56 65 76 C 56 96 52 117 52 139 C 52 161 56 181 65 201 C 73 221 85 238 99 253 C 113 268 130 280 150 289 C 170 298 191 303 213 303 C 235 303 255 298 275 289 C 295 280 312 268 327 253 C 341 238 353 221 362 201 C 370 181 375 161 375 139 Z" unicode=":" />
<glyph horiz-adv-x="635" d="M 517 934 C 517 912 512 891 504 871 C 495 851 483 834 469 820 C 454 805 437 793 417 785 C 397 776 377 772 355 772 C 333 772 312 776 292 785 C 272 793 255 805 241 820 C 226 834 214 851 206 871 C 197 891 193 912 193 934 C 193 956 197 976 206 996 C 214 1016 226 1033 241 1048 C 255 1063 272 1075 292 1084 C 312 1093 333 1098 355 1098 C 377 1098 397 1093 417 1084 C 437 1075 454 1063 469 1048 C 483 1033 495 1016 504 996 C 512 976 517 956 517 934 Z M 132 -258 L -14 -258 L 113 285 L 381 285 L 132 -258 Z" unicode=";" />
<glyph horiz-adv-x="1270" d="M 186 610 L 186 807 L 1128 1380 L 1128 1149 L 393 711 L 1128 272 L 1128 35 L 186 610 Z" unicode="&#x3C;" />
<glyph horiz-adv-x="1270" d="M 184 840 L 184 1040 L 1126 1040 L 1126 840 L 184 840 Z M 184 369 L 184 569 L 1126 569 L 1126 369 L 184 369 Z" unicode="=" />
<glyph horiz-adv-x="1270" d="M 182 35 L 182 268 L 917 705 L 182 1143 L 182 1380 L 1124 807 L 1124 610 L 182 35 Z" unicode="&#x3E;" />
<glyph horiz-adv-x="1161" d="M 1137 1108 C 1137 1054 1130 1007 1118 967 C 1105 927 1086 891 1061 859 C 1036 827 1005 799 968 774 C 931 748 888 724 840 700 C 806 684 776 668 750 653 C 723 638 699 621 679 601 C 659 581 642 556 629 528 C 615 499 606 462 600 418 L 389 418 C 397 484 409 540 425 585 C 441 629 461 667 487 699 C 513 731 544 758 581 780 C 617 802 660 824 709 846 C 741 860 769 874 795 889 C 821 903 843 919 861 937 C 879 955 893 974 903 996 C 913 1017 918 1041 918 1069 C 918 1096 912 1120 901 1142 C 889 1163 873 1181 852 1196 C 831 1211 806 1223 776 1231 C 746 1239 712 1243 676 1243 C 609 1243 544 1230 480 1205 C 416 1180 353 1144 291 1096 L 180 1268 C 252 1326 332 1372 418 1406 C 504 1439 596 1456 696 1456 C 766 1456 828 1447 883 1429 C 938 1411 984 1387 1022 1356 C 1059 1324 1087 1287 1107 1245 C 1127 1203 1137 1157 1137 1108 Z M 602 131 C 602 109 598 89 590 71 C 582 52 571 36 557 22 C 543 8 526 -3 508 -11 C 489 -19 469 -23 449 -23 C 427 -23 407 -19 389 -11 C 370 -3 354 8 340 22 C 326 36 315 52 307 71 C 299 89 295 109 295 131 C 295 151 299 171 307 190 C 315 209 326 226 340 240 C 354 254 370 266 389 274 C 407 282 427 287 449 287 C 469 287 489 282 508 274 C 526 266 543 254 557 240 C 571 226 582 209 590 190 C 598 171 602 151 602 131 Z" unicode="?" />
<glyph horiz-adv-x="1712" d="M 1604 737 C 1604 659 1596 594 1580 540 C 1564 486 1543 443 1515 410 C 1487 376 1455 352 1417 337 C 1379 322 1337 315 1292 315 C 1269 315 1246 317 1224 323 C 1201 328 1179 337 1159 349 C 1139 361 1122 375 1108 391 C 1094 406 1082 423 1073 442 C 1043 404 1003 374 953 350 C 903 326 855 315 811 315 C 771 315 733 320 696 332 C 658 343 625 360 596 384 C 567 407 544 436 526 472 C 508 507 500 548 500 596 C 500 640 508 678 526 711 C 544 743 568 770 598 792 C 628 813 663 829 703 840 C 743 850 785 856 829 856 C 870 856 908 850 944 839 C 980 828 1009 816 1032 803 L 1032 907 C 1032 950 1015 981 983 1000 C 951 1018 904 1028 842 1028 C 804 1028 768 1024 736 1017 C 704 1010 673 997 643 979 L 586 1079 C 624 1101 665 1119 711 1131 C 756 1143 802 1149 850 1149 C 898 1149 941 1144 981 1134 C 1020 1124 1053 1108 1081 1088 C 1109 1068 1130 1042 1146 1011 C 1161 980 1169 944 1169 903 L 1169 559 C 1169 543 1171 527 1175 512 C 1179 496 1187 483 1199 471 C 1211 459 1225 450 1243 444 C 1261 438 1281 436 1305 436 C 1368 436 1414 462 1442 514 C 1470 566 1485 641 1485 739 C 1485 820 1469 897 1438 970 C 1406 1042 1363 1106 1308 1161 C 1252 1215 1187 1259 1111 1291 C 1035 1323 953 1339 864 1339 C 774 1339 692 1323 616 1292 C 540 1260 474 1217 419 1162 C 364 1107 321 1042 290 966 C 259 890 244 807 244 719 C 244 629 259 546 290 470 C 321 394 364 328 419 273 C 474 217 540 174 616 143 C 692 111 774 96 864 96 C 910 96 954 100 997 109 C 1039 117 1084 133 1130 156 L 1180 47 C 1150 33 1123 22 1097 13 C 1071 4 1046 -2 1022 -8 C 997 -13 972 -17 946 -19 C 920 -21 893 -23 864 -23 C 792 -23 724 -14 660 2 C 596 18 536 42 482 73 C 427 104 378 142 334 186 C 290 230 252 280 221 335 C 190 389 166 449 150 513 C 133 577 125 645 125 717 C 125 788 133 856 150 920 C 166 984 190 1044 221 1099 C 252 1153 290 1203 334 1247 C 378 1291 427 1328 482 1359 C 536 1390 596 1414 660 1431 C 724 1447 792 1456 864 1456 C 936 1456 1005 1447 1070 1430 C 1134 1412 1194 1388 1249 1356 C 1304 1324 1353 1286 1397 1242 C 1441 1198 1478 1149 1509 1096 C 1539 1042 1563 985 1579 925 C 1595 864 1604 801 1604 737 Z M 1032 678 C 1011 693 982 707 945 720 C 908 732 867 739 821 739 C 762 739 716 727 683 703 C 649 679 633 645 633 600 C 633 550 649 511 683 482 C 717 452 766 438 831 438 C 869 438 907 448 945 470 C 983 491 1012 519 1032 553 L 1032 678 Z" unicode="@" />
<glyph horiz-adv-x="1448" d="M 1030 0 L 971 342 L 414 342 L 236 0 L 2 0 L 772 1434 L 989 1434 L 1255 0 L 1030 0 Z M 837 1145 L 508 532 L 942 532 L 837 1145 Z" unicode="A" />
<glyph horiz-adv-x="1374" d="M 1282 1108 C 1282 1062 1276 1020 1265 984 C 1253 948 1237 915 1216 887 C 1195 859 1170 834 1141 814 C 1111 793 1079 776 1044 762 C 1104 735 1150 697 1182 648 C 1214 598 1231 539 1231 471 C 1231 395 1217 327 1191 269 C 1164 211 1126 162 1078 122 C 1029 82 971 51 904 31 C 836 10 762 0 682 0 L 92 0 L 346 1434 L 846 1434 C 913 1434 974 1426 1028 1412 C 1082 1397 1127 1376 1165 1348 C 1203 1320 1232 1285 1252 1245 C 1272 1205 1282 1159 1282 1108 Z M 1061 1075 C 1061 1124 1042 1163 1005 1193 C 968 1222 909 1237 827 1237 L 514 1237 L 449 866 L 823 866 C 899 866 957 885 999 923 C 1040 961 1061 1011 1061 1075 Z M 1010 465 C 1010 531 989 582 948 618 C 906 654 843 672 758 672 L 414 672 L 330 197 L 715 197 C 759 197 800 203 837 215 C 873 227 904 244 930 267 C 955 290 975 318 989 352 C 1003 385 1010 423 1010 465 Z" unicode="B" />
<glyph horiz-adv-x="1333" d="M 1112 1057 C 1096 1087 1080 1113 1064 1134 C 1048 1155 1028 1174 1005 1191 C 981 1208 955 1221 925 1231 C 895 1240 861 1245 823 1245 C 759 1245 698 1228 641 1196 C 584 1164 534 1119 492 1062 C 450 1004 416 936 391 857 C 366 778 354 692 354 598 C 354 532 361 474 376 424 C 390 373 411 330 439 295 C 466 260 499 233 538 215 C 576 197 620 188 668 188 C 736 188 798 204 853 238 C 907 272 959 318 1008 377 L 1163 242 C 1131 200 1099 163 1065 133 C 1031 102 992 74 948 50 C 903 25 857 7 809 -5 C 761 -17 709 -23 655 -23 C 579 -23 509 -10 445 14 C 381 39 326 76 280 126 C 234 175 198 236 172 310 C 146 384 133 469 133 567 C 133 656 141 740 159 818 C 176 896 200 969 232 1035 C 263 1101 300 1160 344 1212 C 388 1264 436 1308 489 1344 C 542 1380 599 1408 660 1427 C 720 1446 783 1456 848 1456 C 906 1456 960 1449 1009 1435 C 1058 1421 1102 1400 1141 1374 C 1180 1348 1214 1316 1243 1279 C 1272 1241 1296 1199 1315 1153 L 1112 1057 Z" unicode="C" />
<glyph horiz-adv-x="1382" d="M 1315 841 C 1315 761 1305 679 1287 597 C 1268 515 1238 439 1197 369 C 1155 299 1107 240 1053 194 C 999 147 940 109 878 81 C 815 52 753 31 692 19 C 630 6 567 0 502 0 L 92 0 L 346 1434 L 631 1434 C 745 1434 847 1420 936 1393 C 1024 1365 1097 1324 1155 1270 C 1213 1215 1254 1151 1278 1078 C 1302 1005 1315 926 1315 841 Z M 1092 822 C 1092 872 1085 921 1073 970 C 1060 1019 1035 1063 998 1103 C 960 1143 911 1173 849 1194 C 787 1214 711 1225 621 1225 L 524 1225 L 344 209 L 526 209 C 597 209 665 220 731 243 C 797 265 857 301 912 350 C 967 399 1011 464 1043 544 C 1075 624 1092 716 1092 822 Z" unicode="D" />
<glyph horiz-adv-x="1251" d="M 92 0 L 344 1434 L 1260 1434 L 1223 1225 L 522 1225 L 461 870 L 1026 870 L 989 662 L 424 662 L 344 209 L 1075 209 L 1038 0 L 92 0 Z" unicode="E" />
<glyph horiz-adv-x="1184" d="M 1225 1223 L 524 1223 L 459 848 L 862 848 L 825 637 L 422 637 L 309 0 L 94 0 L 346 1434 L 1262 1434 L 1225 1223 Z" unicode="F" />
<glyph horiz-adv-x="1380" d="M 1114 1040 C 1096 1077 1079 1106 1063 1128 C 1047 1150 1028 1170 1004 1189 C 980 1207 953 1221 923 1231 C 893 1240 860 1245 825 1245 C 761 1245 701 1229 644 1197 C 586 1165 536 1121 493 1063 C 449 1005 415 937 390 857 C 364 777 352 688 352 592 C 352 524 360 465 377 415 C 394 364 418 322 448 288 C 478 254 513 228 554 211 C 594 194 638 186 686 186 C 778 186 854 213 913 269 C 972 324 1013 404 1036 508 L 1038 520 L 801 520 L 836 727 L 1290 727 L 1266 592 C 1248 484 1221 392 1185 315 C 1149 237 1106 173 1055 123 C 1003 72 945 35 879 11 C 813 -13 742 -25 664 -25 C 585 -25 513 -11 448 15 C 383 41 327 80 281 132 C 234 184 198 247 172 323 C 146 399 133 486 133 584 C 133 671 141 753 159 830 C 177 907 201 978 233 1043 C 265 1107 303 1165 347 1216 C 391 1267 439 1310 492 1346 C 545 1382 602 1409 662 1428 C 722 1446 784 1456 848 1456 C 965 1456 1063 1428 1142 1374 C 1221 1319 1280 1238 1319 1130 L 1114 1040 Z" unicode="G" />
<glyph horiz-adv-x="1454" d="M 1174 0 L 958 0 L 1071 639 L 420 639 L 307 0 L 92 0 L 344 1434 L 559 1434 L 457 854 L 1108 854 L 1210 1434 L 1425 1434 L 1174 0 Z" unicode="H" />
<glyph horiz-adv-x="608" d="M 317 0 L 102 0 L 356 1434 L 571 1434 L 317 0 Z" unicode="I" />
<glyph horiz-adv-x="1239" d="M 1057 565 C 1033 429 998 318 952 232 C 906 146 846 82 772 40 C 695 -2 604 -23 498 -23 C 423 -23 358 -12 303 8 C 247 29 200 58 162 95 C 124 131 93 174 71 223 C 49 271 33 323 25 379 L 231 432 C 239 395 250 362 265 332 C 279 302 298 276 320 255 C 342 233 368 217 399 205 C 429 193 465 188 506 188 C 552 188 594 195 631 209 C 667 223 699 246 727 278 C 754 309 777 349 797 398 C 816 446 832 505 844 575 L 995 1434 L 1210 1434 L 1057 565 Z" unicode="J" />
<glyph horiz-adv-x="1395" d="M 870 913 L 1214 0 L 987 0 L 707 741 L 371 401 L 301 0 L 92 0 L 344 1434 L 553 1434 L 428 709 L 1120 1434 L 1374 1434 L 870 913 Z" unicode="K" />
<glyph horiz-adv-x="1210" d="M 1014 0 L 92 0 L 344 1434 L 559 1434 L 344 211 L 1051 211 L 1014 0 Z" unicode="L" />
<glyph horiz-adv-x="1647" d="M 1366 0 L 1155 0 L 1329 954 L 723 -35 L 474 954 L 303 0 L 92 0 L 344 1434 L 565 1434 L 800 439 L 1393 1434 L 1618 1434 L 1366 0 Z" unicode="M" />
<glyph horiz-adv-x="1454" d="M 1174 0 L 977 0 L 489 1071 L 303 0 L 92 0 L 346 1434 L 553 1434 L 1031 368 L 1217 1434 L 1427 1434 L 1174 0 Z" unicode="N" />
<glyph horiz-adv-x="1448" d="M 1382 875 C 1382 798 1373 719 1356 638 C 1339 556 1316 483 1286 418 C 1256 352 1222 295 1185 245 C 1147 195 1103 150 1051 109 C 999 67 940 35 876 12 C 812 -11 744 -23 672 -23 C 574 -23 487 -4 413 34 C 339 72 279 125 233 194 C 187 262 158 331 147 401 C 136 470 131 528 131 575 C 131 639 140 712 157 793 C 173 873 197 947 227 1013 C 257 1079 290 1135 326 1183 C 362 1231 404 1275 454 1316 C 503 1356 562 1390 631 1416 C 699 1442 773 1456 852 1456 C 948 1456 1032 1436 1105 1398 C 1177 1360 1234 1310 1275 1248 C 1316 1186 1344 1123 1359 1059 C 1373 995 1381 934 1382 875 Z M 1158 810 C 1159 860 1155 909 1147 955 C 1139 1001 1121 1048 1095 1094 C 1069 1140 1032 1178 985 1206 C 937 1234 882 1249 819 1249 C 754 1249 692 1231 633 1196 C 574 1161 523 1109 479 1040 C 435 971 403 897 385 817 C 366 737 356 672 355 620 C 353 584 356 541 364 490 C 371 438 388 388 416 340 C 444 291 481 253 527 225 C 573 197 626 184 686 184 C 753 184 817 201 877 235 C 937 269 988 320 1032 387 C 1076 453 1108 527 1128 609 C 1148 690 1158 757 1158 810 Z" unicode="O" />
<glyph horiz-adv-x="1329" d="M 1307 1044 C 1307 970 1292 897 1263 826 C 1233 754 1190 697 1134 653 C 1077 609 1016 579 950 561 C 884 543 813 535 739 535 L 397 535 L 303 0 L 92 0 L 346 1434 L 834 1434 C 905 1434 971 1424 1031 1406 C 1091 1388 1142 1361 1184 1326 C 1226 1290 1257 1249 1277 1203 C 1297 1156 1307 1103 1307 1044 Z M 1084 1015 C 1084 1043 1079 1070 1070 1098 C 1060 1126 1044 1149 1022 1169 C 999 1189 970 1204 936 1215 C 901 1225 861 1231 815 1231 L 520 1231 L 434 737 L 758 737 C 806 737 849 742 888 754 C 927 766 961 784 991 808 C 1021 832 1044 862 1060 898 C 1076 934 1084 973 1084 1015 Z" unicode="P" />
<glyph horiz-adv-x="1444" d="M 1159 -29 L 979 -133 L 895 20 C 821 -6 747 -20 672 -20 C 574 -20 487 -1 413 36 C 339 74 279 127 233 195 C 187 263 158 332 147 401 C 136 469 131 527 131 573 C 131 631 140 702 156 785 C 172 867 195 942 226 1010 C 256 1077 290 1135 326 1183 C 362 1231 404 1275 453 1315 C 501 1355 560 1389 629 1416 C 698 1442 772 1456 852 1456 C 948 1456 1032 1436 1106 1398 C 1179 1360 1237 1307 1281 1241 C 1324 1174 1352 1107 1364 1040 C 1376 972 1382 913 1382 862 C 1382 803 1376 742 1364 678 C 1352 614 1336 553 1315 493 C 1294 433 1264 371 1226 308 C 1188 244 1137 185 1073 129 L 1159 -29 Z M 705 373 L 885 475 L 973 311 C 1030 371 1075 449 1108 545 C 1141 641 1158 736 1158 830 C 1158 866 1155 908 1147 955 C 1139 1001 1122 1048 1094 1096 C 1066 1144 1029 1181 982 1208 C 934 1235 880 1249 819 1249 C 755 1249 693 1231 635 1197 C 576 1162 524 1110 479 1041 C 434 971 402 895 383 812 C 364 729 355 661 355 609 C 355 577 358 536 364 488 C 370 439 387 390 416 341 C 444 291 482 253 528 225 C 574 197 628 184 688 184 C 706 184 725 185 744 188 C 762 190 781 195 799 201 L 705 373 Z" unicode="Q" />
<glyph horiz-adv-x="1413" d="M 1360 1051 C 1360 991 1352 936 1336 886 C 1320 836 1295 791 1263 752 C 1231 712 1190 679 1142 651 C 1094 623 1037 602 973 588 L 1171 0 L 942 0 L 750 567 L 403 567 L 303 0 L 92 0 L 346 1434 L 895 1434 C 967 1434 1032 1426 1090 1410 C 1148 1394 1197 1371 1237 1339 C 1277 1307 1307 1268 1328 1220 C 1349 1172 1360 1115 1360 1051 Z M 1137 1036 C 1137 1096 1116 1144 1075 1179 C 1033 1213 968 1231 879 1231 L 520 1231 L 440 770 L 840 770 C 932 770 1004 791 1057 835 C 1110 879 1137 946 1137 1036 Z" unicode="R" />
<glyph horiz-adv-x="1282" d="M 1051 1087 C 1029 1111 1007 1133 984 1153 C 960 1173 934 1190 906 1204 C 878 1218 847 1230 813 1238 C 779 1246 741 1251 700 1251 C 660 1251 625 1246 595 1236 C 565 1226 541 1213 521 1197 C 501 1181 485 1161 473 1137 C 461 1113 456 1088 456 1062 C 456 1040 459 1020 466 1003 C 473 985 487 968 507 950 C 527 932 555 913 593 894 C 630 875 679 854 739 831 C 798 807 852 782 902 756 C 951 729 993 698 1027 663 C 1061 627 1086 589 1100 549 C 1114 509 1122 464 1122 415 C 1122 353 1109 293 1083 235 C 1057 177 1018 129 968 90 C 918 51 861 22 798 4 C 735 -13 667 -23 594 -23 C 526 -23 465 -15 409 -1 C 353 12 302 32 257 56 C 212 80 172 108 138 140 C 104 172 75 205 53 240 L 225 379 C 251 345 276 318 301 296 C 326 274 357 254 394 236 C 430 218 467 204 505 196 C 542 188 581 184 623 184 C 660 184 695 188 728 197 C 761 206 790 219 816 237 C 842 255 862 277 878 304 C 893 331 901 361 901 394 C 901 422 896 447 886 469 C 876 491 860 511 838 530 C 816 549 786 569 747 589 C 707 609 658 630 600 653 C 537 677 482 702 436 728 C 390 754 353 780 327 808 C 300 836 279 868 263 904 C 247 940 240 987 240 1045 C 240 1113 254 1174 283 1228 C 311 1281 348 1324 393 1357 C 437 1389 489 1414 547 1431 C 605 1447 667 1456 735 1456 C 792 1456 845 1450 893 1439 C 941 1428 984 1413 1024 1394 C 1064 1374 1100 1351 1132 1324 C 1164 1296 1194 1267 1221 1235 L 1051 1087 Z" unicode="S" />
<glyph horiz-adv-x="1235" d="M 1260 1223 L 846 1223 L 631 0 L 416 0 L 631 1223 L 217 1223 L 254 1434 L 1296 1434 L 1260 1223 Z" unicode="T" />
<glyph horiz-adv-x="1434" d="M 1266 580 C 1248 484 1224 398 1194 324 C 1164 249 1125 186 1077 135 C 1029 83 971 44 904 17 C 837 -9 759 -23 670 -23 C 592 -23 522 -12 461 8 C 399 29 347 60 305 100 C 262 140 229 190 207 250 C 185 309 174 377 174 455 C 175 478 177 504 180 534 C 183 563 187 593 193 623 L 336 1434 L 551 1434 L 408 623 C 403 597 399 573 397 549 C 394 525 393 503 393 483 C 393 385 418 311 468 261 C 518 211 592 186 688 186 C 743 186 791 195 831 213 C 871 231 905 257 935 292 C 964 326 987 366 1005 411 C 1023 456 1039 518 1055 596 L 1202 1434 L 1417 1434 L 1266 580 Z" unicode="U" />
<glyph horiz-adv-x="1409" d="M 721 0 L 492 0 L 254 1434 L 477 1434 L 649 286 L 1229 1434 L 1458 1434 L 721 0 Z" unicode="V" />
<glyph horiz-adv-x="1759" d="M 1278 0 L 1049 0 L 980 1077 L 524 0 L 305 0 L 266 1434 L 485 1434 L 490 375 L 938 1434 L 1143 1434 L 1213 374 L 1597 1434 L 1817 1434 L 1278 0 Z" unicode="W" />
<glyph horiz-adv-x="1341" d="M 262 0 L 18 0 L 598 750 L 303 1434 L 535 1434 L 747 943 L 1124 1434 L 1368 1434 L 834 739 L 1151 0 L 922 0 L 686 550 L 262 0 Z" unicode="X" />
<glyph horiz-adv-x="1403" d="M 813 565 L 715 0 L 500 0 L 600 567 L 244 1434 L 483 1434 L 741 783 L 1229 1434 L 1479 1434 L 813 565 Z" unicode="Y" />
<glyph horiz-adv-x="1352" d="M 1309 1237 L 334 199 L 1147 199 L 1112 0 L 31 0 L 63 195 L 1044 1235 L 291 1235 L 326 1434 L 1341 1434 L 1309 1237 Z" unicode="Z" />
<glyph horiz-adv-x="770" d="M 768 1260 L 524 1260 L 295 -51 L 539 -51 L 508 -225 L 61 -225 L 352 1434 L 799 1434 L 768 1260 Z" unicode="[" />
<glyph horiz-adv-x="913" d="M 541 -184 L 223 1618 L 434 1618 L 752 -184 L 541 -184 Z" unicode="\" />
<glyph horiz-adv-x="770" d="M 442 -225 L -4 -225 L 27 -51 L 270 -51 L 500 1260 L 256 1260 L 287 1434 L 733 1434 L 442 -225 Z" unicode="]" />
<glyph horiz-adv-x="1184" d="M 905 782 L 719 1210 L 381 782 L 139 782 L 668 1434 L 831 1434 L 1130 782 L 905 782 Z" unicode="^" />
<glyph horiz-adv-x="1024" d="M 864 -362 L -160 -362 L -125 -168 L 899 -168 L 864 -362 Z" unicode="_" />
<glyph horiz-adv-x="1024" d="M 662 1219 L 381 1546 L 668 1546 L 829 1219 L 662 1219 Z" unicode="`" />
<glyph horiz-adv-x="1110" d="M 1012 803 C 1012 788 1011 773 1009 759 C 1007 745 1006 730 1004 715 L 879 0 L 672 0 L 688 96 C 654 63 614 35 566 12 C 518 -11 464 -23 403 -23 C 353 -23 307 -15 264 -1 C 221 13 184 35 153 64 C 121 93 99 127 85 165 C 71 203 64 245 64 290 C 64 365 79 429 108 482 C 137 534 173 575 215 605 C 257 634 303 656 355 670 C 406 684 460 692 516 692 C 560 692 606 687 654 679 C 702 670 744 657 782 639 L 797 717 C 799 727 800 737 801 749 C 802 760 803 770 803 778 C 803 824 787 857 755 878 C 723 898 674 909 606 909 C 556 909 508 903 462 891 C 416 879 373 862 332 842 L 272 1010 C 326 1037 385 1058 449 1074 C 513 1090 573 1098 631 1098 C 689 1098 741 1092 788 1080 C 834 1068 874 1051 908 1027 C 941 1003 967 972 985 935 C 1003 898 1012 854 1012 803 Z M 754 465 C 726 480 691 493 649 503 C 607 513 560 518 506 518 C 474 518 444 514 416 506 C 388 498 363 486 341 470 C 319 454 302 433 289 407 C 276 381 270 351 270 316 C 270 266 286 227 319 200 C 351 173 397 160 457 160 C 483 160 509 163 535 171 C 561 178 585 188 608 200 C 631 212 652 225 672 241 C 691 257 708 273 723 291 L 754 465 Z" unicode="a" />
<glyph horiz-adv-x="1159" d="M 1065 649 C 1065 545 1051 452 1025 369 C 999 286 963 216 918 158 C 873 100 821 55 762 24 C 703 -7 641 -23 575 -23 C 544 -23 514 -20 485 -14 C 456 -8 429 1 404 13 C 379 25 357 38 339 52 C 320 66 303 83 287 102 L 270 0 L 61 0 L 305 1384 L 532 1493 L 442 985 C 478 1020 518 1048 562 1068 C 606 1088 655 1098 709 1098 C 759 1098 806 1088 850 1069 C 893 1050 931 1022 963 984 C 995 946 1020 900 1038 844 C 1056 788 1065 723 1065 649 Z M 850 637 C 850 723 831 789 795 835 C 758 880 707 903 643 903 C 615 903 589 898 565 889 C 540 880 517 869 496 856 C 475 843 457 830 441 816 C 425 802 412 791 403 782 L 322 315 C 330 300 343 284 360 268 C 376 251 395 235 417 221 C 439 207 462 195 488 186 C 513 176 539 172 567 172 C 613 172 653 185 688 211 C 723 237 753 272 777 316 C 801 359 819 408 831 464 C 843 520 850 577 850 637 Z" unicode="b" />
<glyph horiz-adv-x="1061" d="M 856 748 C 825 796 790 832 751 858 C 711 884 666 897 616 897 C 577 897 540 888 505 871 C 469 854 437 827 407 791 C 377 754 352 707 334 649 C 315 591 306 526 306 455 C 306 370 327 303 369 253 C 411 203 470 178 547 178 C 590 178 631 187 669 207 C 707 227 746 255 786 293 L 899 150 C 841 93 780 50 718 21 C 656 -8 590 -23 520 -23 C 450 -23 388 -10 333 15 C 277 41 231 77 194 123 C 157 169 131 220 115 276 C 99 332 92 387 92 443 C 92 543 107 636 138 721 C 168 805 211 876 265 934 C 319 991 377 1033 441 1059 C 505 1085 569 1098 633 1098 C 684 1098 729 1092 769 1080 C 808 1068 843 1053 873 1034 C 903 1014 929 992 952 967 C 974 941 994 915 1012 889 L 856 748 Z" unicode="c" />
<glyph horiz-adv-x="1159" d="M 94 426 C 94 529 107 622 133 705 C 159 788 195 859 240 917 C 285 975 337 1019 397 1051 C 456 1082 518 1098 584 1098 C 615 1098 645 1094 675 1088 C 705 1082 732 1073 757 1061 C 781 1049 803 1035 821 1021 C 839 1007 856 991 872 973 L 944 1384 L 1174 1493 L 909 0 L 700 0 L 717 90 C 681 54 641 27 597 7 C 553 -13 504 -23 451 -23 C 400 -23 353 -13 309 5 C 265 24 228 52 196 90 C 164 128 139 175 121 231 C 103 287 94 352 94 426 Z M 309 438 C 309 351 327 285 364 240 C 400 194 451 172 516 172 C 543 172 569 176 594 185 C 619 194 642 205 663 218 C 683 231 702 244 718 258 C 734 272 746 283 756 293 L 838 760 C 828 774 815 790 799 807 C 782 823 763 839 741 853 C 719 867 696 879 670 889 C 644 898 618 903 592 903 C 546 903 506 889 471 863 C 435 837 406 802 382 759 C 358 715 339 666 327 610 C 315 554 309 496 309 438 Z" unicode="d" />
<glyph horiz-adv-x="1116" d="M 1006 664 C 1006 628 1003 594 998 560 C 993 526 987 495 979 465 L 297 465 C 293 418 296 376 307 340 C 317 303 334 272 356 246 C 378 220 405 201 437 188 C 469 174 505 168 545 168 C 589 168 630 175 668 191 C 706 207 746 227 786 252 L 879 104 C 823 62 765 30 707 9 C 648 -12 584 -23 516 -23 C 446 -23 384 -10 329 14 C 273 39 227 74 190 120 C 153 166 127 217 113 274 C 99 330 92 387 92 444 C 92 540 107 631 137 717 C 167 803 207 875 259 933 C 310 990 366 1032 427 1058 C 488 1084 551 1098 616 1098 C 680 1098 737 1087 786 1065 C 834 1043 875 1012 908 974 C 940 935 965 889 981 836 C 997 783 1006 726 1006 664 Z M 805 635 C 808 673 806 709 800 743 C 794 776 782 805 765 829 C 747 853 724 872 696 886 C 668 900 634 907 594 907 C 558 907 525 900 496 886 C 467 872 441 854 419 830 C 397 806 378 777 362 744 C 346 710 333 674 324 635 L 805 635 Z" unicode="e" />
<glyph horiz-adv-x="733" d="M 786 1276 C 772 1283 756 1289 736 1295 C 716 1300 694 1303 670 1303 C 632 1303 604 1293 588 1275 C 571 1257 559 1228 553 1190 L 532 1075 L 723 1075 L 688 879 L 498 879 L 342 0 L 131 0 L 287 879 L 147 879 L 182 1075 L 322 1075 L 346 1212 C 354 1262 366 1305 383 1340 C 399 1375 420 1403 445 1425 C 470 1447 499 1462 533 1472 C 567 1482 605 1487 647 1487 C 665 1487 683 1486 701 1484 C 718 1482 734 1479 748 1476 C 762 1472 774 1469 786 1465 C 797 1461 807 1456 817 1452 L 786 1276 Z" unicode="f" />
<glyph horiz-adv-x="1159" d="M 453 -23 C 402 -23 355 -13 311 5 C 267 24 230 52 198 90 C 166 128 141 175 123 231 C 105 287 96 352 96 426 C 96 529 109 622 135 705 C 161 788 197 859 242 917 C 287 975 339 1019 399 1051 C 458 1082 520 1098 586 1098 C 620 1098 652 1094 680 1088 C 708 1082 734 1072 760 1059 C 786 1046 807 1033 825 1019 C 842 1005 858 990 874 973 L 891 1075 L 1102 1075 L 938 135 C 922 48 901 -27 874 -93 C 846 -158 808 -213 760 -258 C 711 -302 649 -337 575 -361 C 500 -385 408 -399 299 -403 L 268 -227 C 348 -226 415 -219 469 -205 C 522 -191 565 -172 599 -147 C 632 -122 657 -91 675 -55 C 692 -19 705 22 715 70 L 719 90 C 683 54 643 27 599 7 C 555 -13 506 -23 453 -23 Z M 311 438 C 311 351 329 285 366 240 C 402 194 453 172 518 172 C 545 172 571 176 596 185 C 621 194 644 205 665 218 C 685 231 704 244 720 258 C 736 272 748 283 758 293 L 840 760 C 830 774 817 790 801 807 C 784 823 765 839 743 853 C 721 867 698 879 672 889 C 646 898 620 903 594 903 C 548 903 508 889 473 863 C 437 837 408 802 384 759 C 360 715 341 666 329 610 C 317 554 311 496 311 438 Z" unicode="g" />
<glyph horiz-adv-x="1159" d="M 1040 764 C 1040 743 1038 721 1036 697 C 1033 673 1030 650 1026 627 L 915 0 L 705 0 L 809 600 C 812 618 814 637 816 655 C 818 673 819 689 819 705 C 819 773 805 823 779 855 C 752 887 707 903 645 903 C 611 903 580 896 552 883 C 523 870 497 851 474 826 C 451 800 431 769 414 731 C 397 693 384 648 375 598 L 270 0 L 59 0 L 303 1382 L 535 1493 L 444 983 C 478 1018 517 1046 562 1067 C 606 1087 656 1098 711 1098 C 765 1098 813 1090 854 1075 C 895 1060 929 1038 957 1010 C 985 982 1005 946 1019 904 C 1033 861 1040 814 1040 764 Z" unicode="h" />
<glyph horiz-adv-x="543" d="M 541 1350 C 541 1331 537 1313 530 1297 C 523 1281 514 1266 502 1254 C 490 1242 476 1232 460 1225 C 444 1217 428 1214 410 1214 C 391 1214 373 1217 357 1225 C 341 1232 327 1242 315 1254 C 303 1266 293 1281 286 1297 C 279 1313 276 1331 276 1350 C 276 1368 279 1386 286 1403 C 293 1419 303 1434 315 1446 C 327 1458 341 1468 357 1476 C 373 1483 391 1487 410 1487 C 428 1487 444 1483 460 1476 C 476 1468 490 1458 502 1446 C 514 1434 523 1419 530 1403 C 537 1386 541 1368 541 1350 Z M 283 0 L 72 0 L 260 1075 L 471 1075 L 283 0 Z" unicode="i" />
<glyph horiz-adv-x="543" d="M 543 1350 C 543 1331 539 1313 532 1297 C 524 1281 515 1266 503 1254 C 491 1242 477 1232 461 1225 C 445 1217 429 1214 412 1214 C 393 1214 375 1217 359 1225 C 343 1232 328 1242 316 1254 C 304 1266 294 1281 287 1297 C 279 1313 276 1331 276 1350 C 276 1368 279 1386 287 1403 C 294 1419 304 1434 316 1446 C 328 1458 343 1468 359 1476 C 375 1483 393 1487 412 1487 C 429 1487 445 1483 461 1476 C 477 1468 491 1458 503 1446 C 515 1434 524 1419 532 1403 C 539 1386 543 1368 543 1350 Z M 289 39 C 277 -29 261 -89 242 -139 C 222 -189 196 -231 162 -266 C 128 -300 86 -328 34 -349 C -17 -369 -81 -385 -158 -395 L -205 -213 C -157 -203 -116 -193 -84 -182 C -51 -171 -24 -156 -2 -138 C 19 -119 36 -95 49 -66 C 61 -36 72 1 80 47 L 260 1075 L 471 1075 L 289 39 Z" unicode="j" />
<glyph horiz-adv-x="1075" d="M 707 717 L 897 0 L 684 0 L 541 541 L 330 317 L 272 0 L 61 0 L 305 1382 L 537 1493 L 382 620 L 801 1075 L 1044 1075 L 707 717 Z" unicode="k" />
<glyph horiz-adv-x="543" d="M 283 0 L 72 0 L 315 1382 L 547 1493 L 283 0 Z" unicode="l" />
<glyph horiz-adv-x="1755" d="M 1638 770 C 1638 748 1636 724 1634 698 C 1631 671 1627 645 1622 621 L 1513 0 L 1303 0 L 1409 600 C 1412 619 1415 640 1417 662 C 1419 684 1421 703 1421 719 C 1421 779 1407 824 1381 854 C 1354 884 1311 899 1253 899 C 1188 899 1133 873 1089 823 C 1045 773 1014 698 997 598 L 893 0 L 682 0 L 786 600 C 789 619 792 639 796 661 C 799 683 801 702 801 719 C 801 746 798 771 792 794 C 786 817 776 837 763 853 C 749 869 732 881 711 890 C 689 898 663 903 631 903 C 566 903 512 877 468 825 C 424 773 394 697 377 598 L 272 0 L 61 0 L 250 1075 L 461 1075 L 444 979 C 458 995 474 1010 492 1024 C 509 1038 528 1051 549 1062 C 570 1073 593 1082 618 1088 C 642 1094 670 1098 700 1098 C 771 1098 828 1084 872 1056 C 916 1028 950 988 975 936 C 995 958 1017 979 1041 999 C 1065 1019 1091 1036 1119 1051 C 1147 1065 1177 1077 1211 1085 C 1244 1093 1281 1098 1321 1098 C 1421 1098 1498 1069 1554 1013 C 1610 956 1638 875 1638 770 Z" unicode="m" />
<glyph horiz-adv-x="1159" d="M 1040 764 C 1040 743 1038 721 1036 697 C 1033 673 1030 650 1026 627 L 915 0 L 705 0 L 809 600 C 812 618 814 637 816 655 C 818 673 819 689 819 705 C 819 773 805 823 779 855 C 752 887 707 903 645 903 C 613 903 583 896 555 884 C 526 872 500 854 478 830 C 455 806 435 776 418 740 C 400 704 386 656 375 598 L 270 0 L 59 0 L 250 1075 L 461 1075 L 444 983 C 480 1020 520 1048 564 1068 C 608 1088 657 1098 711 1098 C 817 1098 898 1069 955 1013 C 1011 957 1040 874 1040 764 Z" unicode="n" />
<glyph horiz-adv-x="1159" d="M 92 451 C 92 541 107 630 139 716 C 170 802 213 873 267 930 C 321 987 379 1029 441 1057 C 503 1084 565 1098 629 1098 C 699 1098 763 1084 820 1058 C 877 1032 924 996 961 950 C 998 904 1025 854 1041 799 C 1057 743 1066 689 1066 635 C 1066 529 1050 435 1018 352 C 986 268 943 198 889 142 C 835 86 777 44 715 17 C 653 -9 589 -23 524 -23 C 454 -23 392 -10 336 16 C 280 42 234 78 196 125 C 158 171 131 223 115 279 C 99 335 92 393 92 451 Z M 306 470 C 305 430 309 393 317 359 C 325 325 339 294 359 266 C 379 238 404 217 435 201 C 465 185 501 178 543 178 C 585 178 625 188 661 208 C 697 228 730 257 758 295 C 786 333 809 379 827 435 C 844 490 853 550 853 614 C 853 648 849 681 841 715 C 833 748 819 779 799 807 C 779 835 753 857 721 873 C 689 889 652 897 610 897 C 569 897 531 887 495 867 C 459 847 426 818 398 780 C 369 741 346 694 330 639 C 314 583 306 527 306 470 Z" unicode="o" />
<glyph horiz-adv-x="1159" d="M 1065 649 C 1065 545 1051 452 1025 369 C 999 286 963 216 918 158 C 873 100 821 55 762 24 C 703 -7 641 -23 575 -23 C 547 -23 519 -20 490 -15 C 461 -9 434 -1 408 11 C 382 23 359 36 339 52 C 319 67 302 84 287 102 L 219 -287 L -10 -395 L 250 1075 L 459 1075 L 442 985 C 478 1020 518 1048 562 1068 C 606 1088 655 1098 709 1098 C 759 1098 806 1088 850 1069 C 893 1050 931 1022 963 984 C 995 946 1020 900 1038 844 C 1056 788 1065 723 1065 649 Z M 850 637 C 850 723 831 789 795 835 C 758 880 707 903 643 903 C 615 903 589 898 565 889 C 540 880 517 869 496 856 C 475 843 457 830 441 816 C 425 802 412 791 403 782 L 322 315 C 330 300 343 284 360 268 C 376 251 395 235 417 221 C 439 207 462 195 488 186 C 513 176 539 172 567 172 C 613 172 653 185 688 211 C 723 237 753 272 777 316 C 801 359 819 408 831 464 C 843 520 850 577 850 637 Z" unicode="p" />
<glyph horiz-adv-x="1159" d="M 94 426 C 94 529 107 622 133 705 C 159 788 195 859 240 917 C 285 975 337 1019 397 1051 C 456 1082 518 1098 584 1098 C 615 1098 645 1094 675 1088 C 704 1082 731 1073 756 1061 C 781 1049 803 1035 821 1021 C 839 1007 856 991 872 973 L 889 1075 L 1100 1075 L 860 -287 L 633 -395 L 717 90 C 681 54 641 27 597 7 C 553 -13 504 -23 451 -23 C 400 -23 353 -13 309 5 C 265 24 228 52 196 90 C 164 128 139 175 121 231 C 103 287 94 352 94 426 Z M 309 438 C 309 351 327 285 364 240 C 400 194 451 172 516 172 C 543 172 569 176 594 185 C 619 194 642 205 663 218 C 683 231 702 244 718 258 C 734 272 746 283 756 293 L 838 760 C 828 774 815 790 799 807 C 782 823 763 839 741 853 C 719 867 696 879 670 889 C 644 898 618 903 592 903 C 546 903 506 889 471 863 C 435 837 406 802 382 759 C 358 715 339 666 327 610 C 315 554 309 496 309 438 Z" unicode="q" />
<glyph horiz-adv-x="848" d="M 791 834 C 774 847 753 859 728 869 C 702 879 673 885 639 885 C 607 885 577 880 549 870 C 521 860 495 844 473 821 C 450 798 430 768 414 730 C 398 692 385 644 375 588 L 272 0 L 61 0 L 252 1075 L 463 1075 L 444 977 C 475 1013 512 1042 555 1064 C 597 1086 644 1098 696 1098 C 739 1098 776 1092 806 1080 C 836 1068 860 1054 879 1038 L 791 834 Z" unicode="r" />
<glyph horiz-adv-x="1014" d="M 836 801 C 814 817 792 832 772 844 C 751 856 728 867 702 878 C 676 888 648 896 620 902 C 592 908 562 911 532 911 C 485 911 449 901 423 883 C 397 864 385 838 385 804 C 385 786 387 772 392 762 C 397 752 406 741 418 730 C 430 719 450 706 477 692 C 503 677 539 659 584 639 C 630 617 672 596 709 574 C 745 552 776 528 800 502 C 824 476 842 446 853 413 C 864 380 868 341 864 297 C 859 236 844 185 819 145 C 794 104 763 71 726 46 C 688 21 647 3 601 -7 C 555 -17 510 -23 465 -23 C 381 -23 303 -9 230 17 C 157 44 91 84 33 137 L 145 293 C 190 255 240 224 295 200 C 349 176 412 164 483 164 C 535 164 577 174 608 196 C 639 217 655 251 657 297 C 657 312 654 325 649 337 C 643 348 635 359 623 371 C 611 382 592 394 568 408 C 544 422 513 437 475 453 C 421 475 375 498 336 521 C 296 543 264 568 240 594 C 216 620 199 647 190 675 C 180 703 176 733 176 763 C 176 867 209 949 275 1009 C 341 1068 433 1098 551 1098 C 595 1098 636 1094 674 1087 C 712 1079 748 1070 781 1058 C 813 1046 843 1032 871 1016 C 898 1000 922 985 944 969 L 836 801 Z" unicode="s" />
<glyph horiz-adv-x="817" d="M 743 883 L 489 883 L 389 307 C 387 297 385 287 384 277 C 383 267 383 258 383 250 C 383 222 391 202 408 190 C 424 178 448 172 479 172 C 512 172 540 176 564 184 C 587 192 610 203 633 219 L 571 18 C 544 4 515 -6 485 -13 C 455 -19 427 -23 401 -23 C 323 -23 264 -4 225 33 C 185 71 166 124 166 193 C 166 207 168 232 174 266 L 283 883 L 129 883 L 164 1075 L 317 1075 L 371 1378 L 598 1493 L 524 1075 L 778 1075 L 743 883 Z" unicode="t" />
<glyph horiz-adv-x="1159" d="M 117 311 C 117 331 118 353 121 377 C 123 401 127 425 131 449 L 242 1075 L 453 1075 L 348 475 C 344 456 342 438 340 420 C 338 402 338 386 338 371 C 338 303 351 252 378 220 C 404 188 449 172 512 172 C 544 172 575 178 604 191 C 633 203 659 222 683 248 C 707 273 727 305 744 343 C 760 381 773 425 782 477 L 887 1075 L 1098 1075 L 907 0 L 696 0 L 713 92 C 669 48 626 18 584 2 C 542 -14 496 -23 446 -23 C 340 -23 259 5 202 61 C 145 117 117 201 117 311 Z" unicode="u" />
<glyph horiz-adv-x="1098" d="M 551 0 L 352 0 L 162 1075 L 381 1075 L 496 281 L 897 1075 L 1124 1075 L 551 0 Z" unicode="v" />
<glyph horiz-adv-x="1509" d="M 1049 0 L 856 0 L 793 745 L 463 0 L 270 0 L 174 1075 L 387 1075 L 429 351 L 758 1075 L 938 1075 L 1004 351 L 1309 1075 L 1526 1075 L 1049 0 Z" unicode="w" />
<glyph horiz-adv-x="1081" d="M 883 0 L 659 0 L 494 383 L 199 0 L -33 0 L 412 569 L 190 1075 L 414 1075 L 552 750 L 803 1075 L 1034 1075 L 635 563 L 883 0 Z" unicode="x" />
<glyph horiz-adv-x="1128" d="M 381 -379 L 156 -379 L 367 6 L 162 1075 L 385 1075 L 513 274 L 930 1075 L 1155 1075 L 381 -379 Z" unicode="y" />
<glyph horiz-adv-x="1055" d="M 989 915 L 328 184 L 879 184 L 846 0 L 27 0 L 53 160 L 724 891 L 215 891 L 244 1075 L 1016 1075 L 989 915 Z" unicode="z" />
<glyph horiz-adv-x="866" d="M 887 1286 C 835 1284 792 1277 758 1267 C 724 1257 695 1241 673 1220 C 650 1199 632 1172 619 1139 C 606 1106 596 1066 588 1018 L 567 903 C 558 853 548 811 536 777 C 524 742 509 713 493 690 C 477 666 458 648 436 635 C 414 621 388 611 360 604 C 386 594 407 583 424 569 C 441 555 454 537 462 514 C 470 491 473 463 473 429 C 473 395 469 353 461 303 L 444 211 C 436 165 434 127 437 95 C 440 63 450 36 466 14 C 482 -8 504 -25 534 -38 C 564 -51 601 -61 647 -68 L 618 -225 C 544 -220 481 -208 427 -189 C 373 -170 329 -143 296 -108 C 263 -73 241 -29 230 22 C 219 74 220 137 233 209 L 264 369 C 273 423 271 461 257 483 C 243 505 213 516 168 516 L 121 516 L 154 698 L 199 698 C 223 698 244 700 261 705 C 277 710 291 718 302 730 C 313 742 322 757 329 776 C 335 794 341 818 346 846 L 381 1030 C 395 1106 414 1172 440 1226 C 465 1280 499 1323 541 1357 C 583 1391 634 1414 695 1428 C 755 1442 828 1447 913 1444 L 887 1286 Z" unicode="{" />
<glyph horiz-adv-x="606" d="M 221 -379 L 27 -379 L 383 1638 L 578 1638 L 221 -379 Z" unicode="|" />
<glyph horiz-adv-x="866" d="M 733 520 L 692 520 C 667 520 646 517 630 512 C 613 507 599 499 588 487 C 577 475 568 460 562 442 C 555 423 549 400 545 373 L 510 188 C 496 111 476 46 450 -8 C 424 -62 389 -105 347 -139 C 305 -172 253 -196 192 -210 C 130 -224 57 -229 -27 -225 L 0 -68 C 52 -66 95 -60 130 -50 C 164 -40 193 -24 216 -3 C 238 17 256 44 269 78 C 282 111 293 152 301 201 L 324 315 C 332 365 341 407 353 442 C 365 477 379 506 395 529 C 411 552 430 570 452 583 C 474 596 499 606 528 614 C 502 623 481 634 465 648 C 448 662 435 680 427 703 C 419 726 415 755 415 789 C 415 823 420 865 428 915 L 446 1008 C 454 1052 456 1091 452 1123 C 448 1155 438 1183 422 1205 C 406 1227 383 1244 353 1257 C 323 1269 285 1279 240 1286 L 268 1444 C 340 1438 404 1426 458 1407 C 512 1388 556 1361 590 1326 C 623 1291 645 1247 657 1195 C 668 1143 667 1081 655 1010 L 627 850 C 617 795 620 757 634 735 C 648 713 677 702 723 702 L 766 702 L 733 520 Z" unicode="}" />
<glyph horiz-adv-x="1143" d="M 1114 868 C 1087 820 1060 779 1034 743 C 1008 707 981 677 953 653 C 925 629 897 610 867 598 C 837 586 806 580 774 580 C 734 580 697 587 665 602 C 633 616 602 633 573 652 C 557 662 542 671 528 681 C 514 690 500 698 486 706 C 472 713 458 719 444 724 C 430 728 417 731 403 731 C 390 731 378 728 367 723 C 355 718 343 710 331 698 C 319 686 305 670 291 650 C 276 630 259 605 240 575 L 104 651 C 134 704 163 748 190 783 C 217 817 244 846 272 870 C 300 894 328 911 356 923 C 384 934 414 940 444 940 C 480 940 513 933 544 920 C 574 907 603 892 631 875 C 647 863 674 846 712 823 C 750 799 783 788 813 788 C 826 788 838 790 850 795 C 862 800 874 809 887 821 C 899 833 913 849 928 869 C 943 889 961 914 981 944 L 1114 868 Z" unicode="~" />
<glyph horiz-adv-x="555" d="" unicode=" " />
<glyph horiz-adv-x="610" d="M 600 1303 C 600 1281 595 1261 587 1243 C 579 1224 568 1207 554 1193 C 540 1179 523 1167 505 1159 C 486 1151 466 1147 446 1147 C 424 1147 404 1151 386 1159 C 368 1167 352 1179 338 1193 C 324 1207 313 1224 305 1243 C 297 1261 293 1281 293 1303 C 293 1323 297 1343 305 1362 C 313 1380 324 1397 338 1411 C 352 1425 368 1436 386 1444 C 404 1452 424 1456 446 1456 C 466 1456 486 1452 505 1444 C 523 1436 540 1425 554 1411 C 568 1397 579 1380 587 1362 C 595 1343 600 1323 600 1303 Z M 434 637 L 322 0 L 104 0 L 217 637 L 326 1020 L 461 1020 L 434 637 Z" unicode="¡" />
<glyph horiz-adv-x="1270" d="M 415 635 C 415 541 436 470 478 422 C 520 374 584 351 670 351 C 720 351 765 359 803 377 C 841 394 879 422 917 461 L 1040 330 C 992 284 940 247 884 219 C 828 191 766 175 698 170 L 663 -23 L 460 -23 L 497 188 C 399 216 324 268 272 346 C 220 423 194 517 194 627 C 194 716 206 798 232 874 C 258 949 293 1015 337 1072 C 381 1129 434 1176 494 1212 C 554 1248 620 1271 690 1282 L 722 1468 L 927 1468 L 892 1278 C 938 1270 982 1253 1026 1228 C 1069 1202 1110 1166 1150 1120 L 993 989 C 968 1024 937 1053 899 1075 C 861 1097 817 1108 767 1108 C 707 1108 655 1094 610 1068 C 565 1041 528 1005 499 960 C 470 914 449 863 435 806 C 421 748 415 691 415 635 Z" unicode="¢" />
<glyph horiz-adv-x="1270" d="M 583 580 C 571 502 547 431 510 366 C 472 301 424 242 366 188 L 1026 188 L 993 0 L 88 0 L 118 170 C 148 194 177 221 205 250 C 233 278 259 309 283 343 C 307 377 327 413 344 452 C 360 491 372 534 378 580 L 192 580 L 221 756 L 374 756 C 369 781 363 806 356 830 C 349 854 342 879 336 904 C 330 928 324 954 320 980 C 315 1006 313 1033 313 1063 C 313 1127 325 1184 349 1234 C 373 1283 407 1324 450 1357 C 492 1389 542 1414 600 1431 C 658 1447 720 1456 788 1456 C 886 1456 970 1439 1040 1407 C 1110 1374 1166 1330 1208 1276 L 1067 1137 C 1029 1183 986 1217 939 1239 C 891 1261 835 1272 770 1272 C 686 1272 625 1252 586 1212 C 547 1172 528 1119 528 1053 C 528 1029 530 1006 534 983 C 538 959 544 935 550 911 C 556 886 562 861 568 835 C 574 809 579 783 583 756 L 866 756 L 835 580 L 583 580 Z" unicode="£" />
<glyph horiz-adv-x="1249" d="M 358 799 C 352 774 348 749 344 723 C 340 697 338 671 336 643 L 850 643 L 819 475 L 340 475 C 354 381 387 310 438 260 C 489 210 556 186 639 186 C 671 186 701 190 729 200 C 757 210 784 223 810 240 C 836 256 860 276 884 299 C 907 322 930 347 954 373 L 1108 240 C 1076 200 1042 163 1006 131 C 970 99 932 71 892 48 C 852 25 809 7 764 -4 C 718 -16 670 -23 618 -23 C 540 -23 470 -8 409 21 C 347 50 296 90 254 141 C 212 192 180 252 158 322 C 136 391 125 466 125 547 C 125 637 133 723 149 803 C 165 883 187 956 216 1024 C 245 1091 280 1151 321 1205 C 362 1258 408 1303 458 1341 C 508 1378 562 1406 620 1426 C 678 1446 739 1456 803 1456 C 863 1456 916 1448 962 1433 C 1008 1418 1049 1396 1085 1368 C 1121 1340 1151 1305 1177 1265 C 1203 1224 1225 1178 1243 1128 L 1051 1038 C 1037 1070 1021 1100 1005 1126 C 988 1152 969 1174 948 1192 C 926 1210 902 1223 874 1233 C 846 1242 814 1247 778 1247 C 742 1247 707 1240 673 1228 C 639 1215 606 1197 574 1173 C 542 1149 513 1119 486 1085 C 458 1050 434 1011 414 967 L 907 967 L 877 799 L 358 799 Z" unicode="¤" />
<glyph horiz-adv-x="1270" d="M 452 250 L 172 250 L 204 428 L 485 428 L 509 571 L 258 1434 L 487 1434 L 654 774 L 1046 1434 L 1286 1434 L 731 575 L 704 428 L 985 428 L 954 250 L 673 250 L 628 0 L 409 0 L 452 250 Z" unicode="¥" />
<glyph horiz-adv-x="633" d="M 381 1638 L 578 1638 L 424 764 L 227 764 L 381 1638 Z M 180 496 L 377 496 L 223 -379 L 26 -379 L 180 496 Z" unicode="¦" />
<glyph horiz-adv-x="1352" d="M 423 956 C 397 996 385 1044 385 1102 C 385 1156 395 1205 415 1249 C 435 1293 463 1330 500 1361 C 537 1391 582 1415 634 1431 C 686 1447 744 1456 808 1456 C 900 1456 983 1441 1058 1411 C 1133 1381 1196 1340 1247 1286 L 1103 1124 C 1079 1145 1056 1162 1035 1176 C 1013 1190 989 1202 963 1214 C 936 1226 907 1235 876 1241 C 845 1247 814 1251 782 1251 C 759 1251 737 1248 717 1244 C 696 1239 678 1231 662 1221 C 646 1211 633 1197 624 1181 C 614 1164 610 1144 610 1120 C 610 1098 615 1080 627 1064 C 639 1048 656 1033 678 1019 C 700 1005 728 990 761 976 C 794 961 832 944 876 926 C 942 896 998 867 1046 839 C 1094 811 1133 781 1163 750 C 1193 719 1216 686 1231 651 C 1245 616 1253 577 1253 535 C 1253 487 1244 444 1227 406 C 1209 368 1187 334 1159 304 C 1131 274 1101 248 1067 226 C 1033 204 1000 186 968 172 C 981 151 991 129 997 106 C 1003 83 1007 57 1007 27 C 1007 -28 996 -77 976 -121 C 956 -165 927 -202 890 -233 C 853 -263 809 -287 757 -303 C 705 -319 647 -328 583 -328 C 491 -328 408 -313 333 -283 C 257 -253 195 -211 145 -158 L 288 4 C 312 -18 334 -35 355 -48 C 375 -61 400 -74 428 -86 C 456 -98 485 -108 515 -114 C 545 -120 577 -123 610 -123 C 662 -123 704 -112 735 -90 C 766 -68 782 -35 782 8 C 782 28 776 47 764 63 C 752 79 735 94 713 108 C 691 122 663 137 630 152 C 596 166 558 183 516 203 C 450 231 393 260 345 289 C 297 317 258 347 228 378 C 197 409 174 442 160 477 C 146 512 139 551 139 594 C 139 641 147 684 165 722 C 182 760 204 794 232 824 C 259 854 289 879 323 901 C 357 923 390 941 423 956 Z M 827 291 C 899 326 951 361 982 397 C 1012 432 1028 468 1028 506 C 1028 528 1023 549 1015 568 C 1007 586 993 604 973 622 C 953 640 927 658 895 676 C 863 694 823 713 776 735 C 732 754 693 772 658 789 C 623 806 591 822 563 838 C 495 805 445 771 413 735 C 380 699 364 661 364 623 C 364 599 368 578 376 560 C 384 541 398 523 418 505 C 438 487 464 470 496 452 C 528 434 568 414 616 393 C 659 373 698 355 733 339 C 767 322 799 306 827 291 Z" unicode="§" />
<glyph horiz-adv-x="1024" d="M 993 1356 C 993 1337 989 1319 982 1303 C 974 1286 964 1271 952 1259 C 939 1247 924 1237 908 1230 C 892 1222 874 1219 856 1219 C 836 1219 818 1222 802 1230 C 785 1237 770 1247 758 1259 C 745 1271 735 1286 728 1303 C 720 1319 717 1337 717 1356 C 717 1374 720 1392 728 1409 C 735 1426 745 1441 758 1454 C 770 1466 785 1476 802 1484 C 818 1491 836 1495 856 1495 C 874 1495 892 1491 908 1484 C 924 1476 939 1466 952 1454 C 964 1441 974 1426 982 1409 C 989 1392 993 1374 993 1356 Z M 594 1356 C 594 1337 590 1319 583 1303 C 575 1286 565 1271 553 1259 C 540 1247 525 1237 509 1230 C 492 1222 475 1219 457 1219 C 437 1219 419 1222 403 1230 C 386 1237 371 1247 358 1259 C 345 1271 335 1286 328 1303 C 320 1319 317 1337 317 1356 C 317 1374 320 1392 328 1409 C 335 1426 345 1441 358 1454 C 371 1466 386 1476 403 1484 C 419 1491 437 1495 457 1495 C 475 1495 492 1491 509 1484 C 525 1476 540 1466 553 1454 C 565 1441 575 1426 583 1409 C 590 1392 594 1374 594 1356 Z" unicode="¨" />
<glyph horiz-adv-x="1712" d="M 1603 717 C 1603 611 1584 514 1546 424 C 1508 334 1457 255 1391 189 C 1325 123 1247 71 1157 33 C 1067 -4 969 -23 864 -23 C 758 -23 661 -4 571 33 C 481 71 403 123 337 189 C 271 255 219 334 181 424 C 143 514 125 611 125 717 C 125 822 143 920 181 1010 C 219 1100 271 1178 337 1244 C 403 1310 481 1362 572 1400 C 663 1437 760 1456 864 1456 C 968 1456 1065 1437 1156 1400 C 1246 1362 1325 1310 1391 1244 C 1457 1178 1508 1100 1546 1010 C 1584 920 1603 822 1603 717 Z M 1485 717 C 1485 805 1469 886 1437 962 C 1405 1038 1362 1103 1306 1159 C 1250 1214 1185 1257 1109 1289 C 1033 1321 952 1337 864 1337 C 776 1337 694 1321 618 1289 C 542 1257 477 1214 422 1159 C 366 1103 323 1038 291 962 C 259 886 244 805 244 717 C 244 629 259 547 291 471 C 323 395 366 330 422 274 C 477 218 542 175 618 143 C 694 111 776 96 864 96 C 952 96 1033 111 1109 143 C 1185 175 1250 218 1306 274 C 1362 330 1405 395 1437 471 C 1469 547 1485 629 1485 717 Z M 1030 901 C 1008 935 986 959 963 975 C 939 991 908 999 870 999 C 836 999 807 992 782 979 C 757 966 736 948 720 924 C 703 900 690 870 682 836 C 674 802 670 763 670 721 C 670 678 674 639 682 605 C 690 570 703 540 720 516 C 736 492 757 473 782 460 C 807 446 836 440 870 440 C 909 440 941 448 967 466 C 993 484 1017 511 1040 547 L 1155 469 C 1123 414 1083 373 1035 345 C 987 317 932 303 870 303 C 818 303 771 313 729 333 C 687 353 651 382 621 419 C 591 456 568 500 552 552 C 536 603 528 659 528 721 C 528 782 536 838 552 889 C 568 940 591 984 621 1021 C 651 1057 687 1086 729 1106 C 771 1126 818 1137 870 1137 C 936 1137 992 1123 1038 1097 C 1083 1070 1121 1030 1151 977 L 1030 901 Z" unicode="©" />
<glyph horiz-adv-x="934" d="M 909 1225 C 907 1201 905 1179 901 1159 L 799 571 L 625 571 L 639 643 C 612 618 580 597 543 579 C 505 561 464 553 418 553 C 381 553 346 558 313 568 C 280 578 251 594 226 615 C 200 636 180 662 165 694 C 150 726 143 763 143 807 C 143 859 152 906 171 946 C 189 986 215 1020 247 1047 C 279 1074 318 1095 362 1109 C 406 1123 454 1130 506 1130 C 547 1130 585 1126 621 1119 C 657 1112 688 1103 715 1092 L 729 1159 C 729 1164 730 1169 731 1175 C 731 1180 732 1186 732 1192 C 732 1224 720 1249 697 1267 C 674 1285 635 1294 580 1294 C 540 1294 503 1289 467 1279 C 431 1269 395 1255 360 1239 L 311 1380 C 345 1399 390 1416 444 1432 C 498 1448 550 1456 600 1456 C 698 1456 774 1437 828 1399 C 882 1361 909 1303 909 1225 Z M 692 946 C 669 957 642 967 612 975 C 582 983 545 987 502 987 C 445 987 400 973 368 945 C 335 917 319 877 319 823 C 319 787 330 758 353 737 C 376 715 411 705 459 705 C 481 705 501 707 521 713 C 541 719 559 726 577 736 C 595 746 611 757 626 769 C 641 781 655 795 668 809 L 692 946 Z" unicode="ª" />
<glyph horiz-adv-x="1204" d="M 754 539 L 1028 0 L 801 0 L 516 537 L 989 1075 L 1217 1075 L 754 539 Z M 299 539 L 573 0 L 346 0 L 61 537 L 535 1075 L 762 1075 L 299 539 Z" unicode="«" />
<glyph horiz-adv-x="1270" d="M 1129 203 L 918 203 L 918 602 L 140 602 L 140 807 L 1129 807 L 1129 203 Z" unicode="¬" />
<glyph horiz-adv-x="737" d="M 643 645 L 131 645 L 168 854 L 680 854 L 643 645 Z" unicode="­" />
<glyph horiz-adv-x="1712" d="M 1603 717 C 1603 611 1584 514 1546 424 C 1508 334 1457 255 1391 189 C 1325 123 1247 71 1157 33 C 1067 -4 969 -23 864 -23 C 758 -23 661 -4 571 33 C 481 71 403 123 337 189 C 271 255 219 334 181 424 C 143 514 125 611 125 717 C 125 822 143 920 181 1010 C 219 1100 271 1178 337 1244 C 403 1310 481 1362 572 1400 C 663 1437 760 1456 864 1456 C 968 1456 1065 1437 1156 1400 C 1246 1362 1325 1310 1391 1244 C 1457 1178 1508 1100 1546 1010 C 1584 920 1603 822 1603 717 Z M 1485 717 C 1485 805 1469 886 1437 962 C 1405 1038 1362 1103 1306 1159 C 1250 1214 1185 1257 1109 1289 C 1033 1321 952 1337 864 1337 C 776 1337 694 1321 618 1289 C 542 1257 477 1214 422 1159 C 366 1103 323 1038 291 962 C 259 886 244 805 244 717 C 244 629 259 547 291 471 C 323 395 366 330 422 274 C 477 218 542 175 618 143 C 694 111 776 96 864 96 C 952 96 1033 111 1109 143 C 1185 175 1250 218 1306 274 C 1362 330 1405 395 1437 471 C 1469 547 1485 629 1485 717 Z M 1202 891 C 1202 827 1186 775 1155 735 C 1123 695 1082 668 1030 653 L 1196 328 L 1034 328 L 876 639 L 721 639 L 721 328 L 583 328 L 583 1135 L 938 1135 C 974 1135 1008 1130 1040 1120 C 1072 1110 1100 1096 1124 1076 C 1148 1056 1167 1030 1181 1000 C 1195 969 1202 933 1202 891 Z M 1063 887 C 1063 925 1050 953 1026 972 C 1001 991 970 1001 934 1001 L 721 1001 L 721 772 L 934 772 C 970 772 1001 781 1026 799 C 1050 817 1063 847 1063 887 Z" unicode="®" />
<glyph horiz-adv-x="1024" d="M 924 1249 L 350 1249 L 381 1434 L 954 1434 L 924 1249 Z" unicode="¯" />
<glyph horiz-adv-x="995" d="M 923 1053 C 923 995 912 941 892 891 C 871 841 842 798 806 762 C 770 725 727 696 678 676 C 628 655 575 645 518 645 C 460 645 407 655 358 676 C 308 696 265 725 229 762 C 193 798 164 841 143 891 C 122 941 112 995 112 1053 C 112 1109 122 1161 143 1210 C 164 1259 193 1302 229 1338 C 265 1374 308 1403 358 1424 C 407 1445 460 1456 518 1456 C 575 1456 628 1445 678 1424 C 727 1403 770 1374 806 1338 C 842 1302 871 1259 892 1210 C 912 1161 923 1109 923 1053 Z M 739 1053 C 739 1083 733 1111 722 1138 C 710 1165 695 1189 675 1209 C 655 1229 632 1244 605 1256 C 578 1268 549 1274 518 1274 C 487 1274 458 1268 431 1256 C 404 1244 381 1229 361 1209 C 341 1189 325 1165 313 1138 C 301 1111 296 1083 296 1053 C 296 1021 301 991 313 964 C 325 936 341 912 361 892 C 381 872 404 856 431 844 C 458 832 487 827 518 827 C 549 827 578 832 605 844 C 632 856 655 872 675 892 C 695 912 710 936 722 964 C 733 991 739 1021 739 1053 Z" unicode="°" />
<glyph horiz-adv-x="1270" d="M 749 705 L 749 326 L 538 326 L 538 705 L 149 705 L 149 909 L 538 909 L 538 1288 L 749 1288 L 749 909 L 1138 909 L 1138 705 L 749 705 Z M 149 59 L 149 248 L 1138 248 L 1138 59 L 149 59 Z" unicode="±" />
<glyph horiz-adv-x="868" d="M 23 532 C 37 600 57 659 83 709 C 108 758 138 801 173 839 C 207 877 247 911 291 941 C 335 971 383 1001 437 1032 C 489 1061 531 1090 563 1118 C 594 1146 610 1178 610 1216 C 610 1240 600 1260 581 1274 C 561 1288 533 1296 495 1296 C 449 1296 408 1287 370 1269 C 332 1251 294 1227 255 1199 L 171 1328 C 225 1368 281 1399 339 1422 C 396 1444 456 1456 519 1456 C 559 1456 596 1451 629 1443 C 662 1434 690 1421 714 1404 C 738 1386 756 1365 769 1339 C 782 1313 789 1282 789 1248 C 789 1204 781 1165 767 1131 C 752 1097 732 1067 707 1040 C 681 1013 652 988 618 966 C 584 944 547 921 508 899 C 470 877 437 857 409 839 C 381 821 356 803 336 787 C 316 770 299 754 286 740 C 272 725 262 710 254 696 L 703 696 L 674 532 L 23 532 Z" unicode="²" />
<glyph horiz-adv-x="817" d="M 731 1240 C 731 1218 727 1196 721 1174 C 715 1152 705 1131 693 1111 C 681 1091 665 1072 647 1056 C 629 1039 607 1025 583 1014 C 621 1003 649 983 668 955 C 686 927 696 890 696 844 C 696 798 687 756 669 717 C 651 677 626 643 593 614 C 559 585 518 562 469 546 C 420 529 364 521 302 521 C 234 521 175 534 124 561 C 73 588 30 622 -4 664 L 123 779 C 149 749 179 724 212 706 C 245 687 283 678 325 678 C 358 678 387 682 412 690 C 436 698 457 709 473 723 C 489 737 502 753 510 772 C 518 790 522 810 522 832 C 522 864 509 888 484 905 C 459 921 424 930 380 930 L 281 930 L 307 1077 L 398 1077 C 420 1077 441 1080 461 1086 C 480 1092 496 1101 510 1112 C 524 1123 534 1136 542 1152 C 550 1168 554 1185 554 1205 C 554 1234 544 1257 526 1273 C 507 1289 475 1297 430 1297 C 392 1297 357 1289 325 1274 C 293 1259 262 1240 230 1216 L 145 1335 C 164 1349 185 1364 208 1378 C 230 1392 255 1405 281 1417 C 307 1428 334 1437 363 1444 C 391 1450 421 1454 453 1454 C 493 1454 530 1449 564 1441 C 598 1433 627 1420 652 1403 C 676 1385 696 1363 710 1336 C 724 1309 731 1277 731 1240 Z" unicode="³" />
<glyph horiz-adv-x="1024" d="M 600 1219 L 432 1219 L 709 1546 L 995 1546 L 600 1219 Z" unicode="´" />
<glyph horiz-adv-x="1167" d="M 915 0 L 705 0 L 721 92 C 706 76 690 62 672 48 C 654 34 634 21 612 11 C 590 1 566 -7 540 -13 C 514 -19 485 -23 455 -23 C 416 -23 381 -19 351 -12 C 321 -5 294 4 272 17 L 219 -287 L -10 -395 L 250 1075 L 461 1075 L 356 475 C 352 456 350 438 348 420 C 346 402 346 386 346 371 C 346 303 359 252 386 220 C 412 188 457 172 520 172 C 552 172 583 178 612 191 C 641 203 667 222 691 248 C 715 273 735 305 752 343 C 769 381 782 425 791 477 L 895 1075 L 1106 1075 L 915 0 Z" unicode="µ" />
<glyph horiz-adv-x="1475" d="M 1133 -379 L 930 -379 L 1214 1237 L 1053 1237 L 768 -379 L 565 -379 L 725 535 L 647 535 C 573 535 505 544 444 563 C 382 581 330 609 288 646 C 246 682 214 728 193 782 C 171 836 164 899 170 971 C 176 1042 193 1106 222 1164 C 251 1221 289 1270 336 1310 C 383 1350 438 1380 501 1402 C 564 1423 633 1434 707 1434 L 1452 1434 L 1133 -379 Z" unicode="¶" />
<glyph horiz-adv-x="520" d="M 457 752 C 457 730 452 709 444 689 C 435 669 423 652 409 638 C 394 623 377 611 357 603 C 337 594 317 590 295 590 C 273 590 252 594 232 603 C 212 611 195 623 181 638 C 166 652 154 669 146 689 C 137 709 133 730 133 752 C 133 774 137 794 146 814 C 154 834 166 851 181 866 C 195 881 212 893 232 902 C 252 910 273 915 295 915 C 317 915 337 910 357 902 C 377 893 394 881 409 866 C 423 851 435 834 444 814 C 452 794 457 774 457 752 Z" unicode="·" />
<glyph horiz-adv-x="1024" d="M 633 -208 C 633 -239 626 -267 613 -291 C 599 -315 582 -334 561 -349 C 540 -364 515 -375 487 -383 C 458 -391 427 -395 393 -395 C 335 -395 283 -386 235 -368 C 187 -350 147 -328 115 -303 L 170 -236 C 198 -256 229 -271 261 -283 C 293 -295 329 -301 369 -301 C 403 -301 430 -295 451 -283 C 472 -271 483 -253 485 -227 C 487 -207 483 -191 473 -181 C 463 -171 446 -166 424 -166 C 408 -166 395 -167 383 -171 C 371 -175 358 -180 346 -188 L 276 -160 L 365 39 L 465 39 L 408 -94 C 419 -88 431 -84 445 -81 C 459 -77 475 -76 494 -76 C 537 -76 571 -87 596 -111 C 620 -134 633 -166 633 -208 Z" unicode="¸" />
<glyph horiz-adv-x="670" d="M 322 1188 L 168 1188 L 190 1317 C 218 1319 242 1322 264 1326 C 285 1330 304 1336 321 1344 C 337 1352 351 1364 363 1378 C 375 1392 385 1410 395 1432 L 541 1432 L 380 522 L 204 522 L 322 1188 Z" unicode="¹" />
<glyph horiz-adv-x="985" d="M 971 1083 C 971 1007 958 936 934 871 C 910 806 877 750 836 703 C 794 656 746 619 692 593 C 638 566 581 553 522 553 C 470 553 424 561 382 579 C 340 597 305 622 276 655 C 246 687 224 726 208 772 C 192 818 184 868 184 924 C 184 998 195 1067 218 1132 C 240 1196 272 1253 312 1301 C 352 1349 400 1386 455 1414 C 510 1442 570 1456 635 1456 C 685 1456 730 1447 771 1429 C 812 1411 847 1385 877 1353 C 907 1320 930 1281 946 1235 C 962 1189 971 1138 971 1083 Z M 791 1075 C 791 1139 774 1191 742 1230 C 710 1268 664 1288 606 1288 C 570 1288 537 1278 508 1260 C 478 1242 453 1217 432 1185 C 410 1153 394 1115 382 1072 C 370 1028 365 982 365 932 C 365 865 380 813 412 776 C 443 739 486 721 541 721 C 575 721 608 730 638 749 C 668 768 695 794 718 826 C 740 858 758 895 771 938 C 784 981 791 1027 791 1075 Z" unicode="º" />
<glyph horiz-adv-x="1204" d="M 670 0 L 442 0 L 905 537 L 631 1075 L 858 1075 L 1143 539 L 670 0 Z M 215 0 L -12 0 L 451 537 L 176 1075 L 403 1075 L 688 539 L 215 0 Z" unicode="»" />
<glyph horiz-adv-x="1905" d="M 444 1188 L 290 1188 L 312 1317 C 340 1319 364 1322 386 1326 C 407 1330 426 1336 443 1344 C 459 1352 473 1364 485 1378 C 497 1392 507 1410 517 1432 L 663 1432 L 502 522 L 326 522 L 444 1188 Z M 447 0 L 209 0 L 1424 1434 L 1661 1434 L 447 0 Z M 1389 198 L 924 198 L 947 327 L 1512 910 L 1680 910 L 1582 351 L 1699 351 L 1672 196 L 1555 196 L 1520 1 L 1354 1 L 1389 198 Z M 1416 351 L 1473 674 L 1162 351 L 1416 351 Z" unicode="¼" />
<glyph horiz-adv-x="1905" d="M 397 1188 L 243 1188 L 265 1317 C 293 1319 317 1322 339 1326 C 360 1330 379 1336 396 1344 C 412 1352 426 1364 438 1378 C 450 1392 460 1410 470 1432 L 616 1432 L 455 522 L 279 522 L 397 1188 Z M 368 0 L 130 0 L 1345 1434 L 1582 1434 L 368 0 Z M 976 1 C 990 69 1010 128 1036 178 C 1061 227 1091 270 1126 308 C 1160 346 1200 380 1244 410 C 1288 440 1336 470 1390 501 C 1442 530 1484 559 1516 587 C 1547 615 1563 647 1563 685 C 1563 709 1553 729 1534 743 C 1514 757 1486 765 1448 765 C 1402 765 1361 756 1323 738 C 1285 720 1247 696 1208 668 L 1124 797 C 1178 837 1234 868 1292 891 C 1349 913 1409 925 1472 925 C 1512 925 1549 920 1582 912 C 1615 903 1643 890 1667 873 C 1691 855 1709 834 1722 808 C 1735 782 1742 751 1742 717 C 1742 673 1734 634 1720 600 C 1705 566 1685 536 1660 509 C 1634 482 1605 457 1571 435 C 1537 413 1500 390 1461 368 C 1423 346 1390 326 1362 308 C 1334 290 1309 272 1289 256 C 1269 239 1252 223 1239 209 C 1225 194 1215 179 1207 165 L 1656 165 L 1627 1 L 976 1 Z" unicode="½" />
<glyph horiz-adv-x="1905" d="M 870 1240 C 870 1218 866 1196 860 1174 C 854 1152 844 1131 832 1111 C 820 1091 804 1072 786 1056 C 768 1039 746 1025 722 1014 C 760 1003 788 983 807 955 C 825 927 835 890 835 844 C 835 798 826 756 808 717 C 790 677 765 643 732 614 C 698 585 657 562 608 546 C 559 529 503 521 441 521 C 373 521 314 534 263 561 C 212 588 169 622 135 664 L 262 779 C 288 749 318 724 351 706 C 384 687 422 678 464 678 C 497 678 526 682 551 690 C 575 698 596 709 612 723 C 628 737 641 753 649 772 C 657 790 661 810 661 832 C 661 864 648 888 623 905 C 598 921 563 930 519 930 L 420 930 L 446 1077 L 537 1077 C 559 1077 580 1080 600 1086 C 619 1092 635 1101 649 1112 C 663 1123 673 1136 681 1152 C 689 1168 693 1185 693 1205 C 693 1234 683 1257 665 1273 C 646 1289 614 1297 569 1297 C 531 1297 496 1289 464 1274 C 432 1259 401 1240 369 1216 L 284 1335 C 303 1349 324 1364 347 1378 C 369 1392 394 1405 420 1417 C 446 1428 473 1437 502 1444 C 530 1450 560 1454 592 1454 C 632 1454 669 1449 703 1441 C 737 1433 766 1420 791 1403 C 815 1385 835 1363 849 1336 C 863 1309 870 1277 870 1240 Z M 588 0 L 350 0 L 1565 1434 L 1802 1434 L 588 0 Z M 1461 198 L 996 198 L 1019 327 L 1584 910 L 1752 910 L 1654 351 L 1771 351 L 1744 196 L 1627 196 L 1592 1 L 1426 1 L 1461 198 Z M 1488 351 L 1545 674 L 1234 351 L 1488 351 Z" unicode="¾" />
<glyph horiz-adv-x="1161" d="M 74 326 C 74 379 80 426 93 466 C 105 506 124 542 149 574 C 174 606 205 634 242 660 C 279 685 322 709 371 733 C 404 749 434 764 461 779 C 487 793 511 811 531 831 C 551 851 567 876 581 905 C 594 934 604 971 610 1016 L 821 1016 C 813 949 802 893 786 849 C 770 804 749 766 723 734 C 697 702 665 675 629 653 C 593 631 550 609 502 588 C 470 574 441 559 415 544 C 389 529 368 513 350 496 C 332 478 318 459 308 437 C 298 415 293 391 293 365 C 293 311 314 269 357 237 C 400 205 459 190 535 190 C 568 190 601 193 634 199 C 666 205 699 215 732 228 C 764 240 794 254 820 270 C 846 285 880 308 920 338 L 1030 166 C 958 107 879 61 793 27 C 707 -6 614 -23 514 -23 C 444 -23 381 -14 327 4 C 272 22 226 46 188 78 C 150 109 122 146 103 188 C 83 230 74 276 74 326 Z M 608 1303 C 608 1323 612 1343 620 1362 C 628 1380 639 1397 653 1411 C 667 1425 683 1436 702 1444 C 720 1452 740 1456 762 1456 C 782 1456 802 1452 821 1444 C 839 1436 856 1425 870 1411 C 884 1397 895 1380 903 1362 C 911 1343 915 1323 915 1303 C 915 1281 911 1261 903 1243 C 895 1224 884 1207 870 1193 C 856 1179 839 1167 821 1159 C 802 1151 782 1147 762 1147 C 740 1147 720 1151 702 1159 C 683 1167 667 1179 653 1193 C 639 1207 628 1224 620 1243 C 612 1261 608 1281 608 1303 Z" unicode="¿" />
<glyph horiz-adv-x="1448" d="M 1030 0 L 971 342 L 414 342 L 236 0 L 2 0 L 772 1434 L 989 1434 L 1255 0 L 1030 0 Z M 837 1145 L 508 532 L 942 532 L 837 1145 Z M 832 1526 L 551 1853 L 838 1853 L 999 1526 L 832 1526 Z" unicode="À" />
<glyph horiz-adv-x="1448" d="M 1030 0 L 971 342 L 414 342 L 236 0 L 2 0 L 772 1434 L 989 1434 L 1255 0 L 1030 0 Z M 837 1145 L 508 532 L 942 532 L 837 1145 Z M 917 1526 L 749 1526 L 1026 1853 L 1312 1853 L 917 1526 Z" unicode="Á" />
<glyph horiz-adv-x="1448" d="M 1030 0 L 971 342 L 414 342 L 236 0 L 2 0 L 772 1434 L 989 1434 L 1255 0 L 1030 0 Z M 837 1145 L 508 532 L 942 532 L 837 1145 Z M 1064 1506 L 901 1686 L 675 1506 L 501 1506 L 798 1833 L 1044 1833 L 1226 1506 L 1064 1506 Z" unicode="Â" />
<glyph horiz-adv-x="1448" d="M 1030 0 L 971 342 L 414 342 L 236 0 L 2 0 L 772 1434 L 989 1434 L 1255 0 L 1030 0 Z M 837 1145 L 508 532 L 942 532 L 837 1145 Z M 1321 1798 C 1310 1741 1298 1697 1284 1667 C 1270 1636 1253 1610 1233 1588 C 1213 1566 1191 1549 1165 1537 C 1139 1525 1110 1519 1077 1519 C 1042 1519 1010 1525 980 1537 C 950 1549 923 1562 897 1578 C 871 1593 846 1607 822 1619 C 798 1631 776 1638 758 1638 C 735 1638 716 1629 700 1613 C 684 1597 669 1568 657 1526 L 512 1526 C 521 1576 533 1618 549 1652 C 564 1685 581 1713 601 1735 C 621 1757 644 1774 670 1786 C 696 1798 724 1804 756 1804 C 788 1804 819 1798 849 1786 C 879 1774 907 1761 933 1747 C 960 1731 986 1716 1011 1704 C 1035 1691 1057 1685 1077 1685 C 1099 1685 1118 1693 1134 1710 C 1149 1726 1163 1756 1176 1798 L 1321 1798 Z" unicode="Ã" />
<glyph horiz-adv-x="1448" d="M 1030 0 L 971 342 L 414 342 L 236 0 L 2 0 L 772 1434 L 989 1434 L 1255 0 L 1030 0 Z M 837 1145 L 508 532 L 942 532 L 837 1145 Z M 1249 1663 C 1249 1644 1245 1626 1238 1610 C 1230 1593 1220 1578 1208 1566 C 1195 1554 1180 1544 1164 1537 C 1148 1529 1130 1526 1112 1526 C 1092 1526 1074 1529 1058 1537 C 1041 1544 1026 1554 1014 1566 C 1001 1578 991 1593 984 1610 C 976 1626 973 1644 973 1663 C 973 1681 976 1699 984 1716 C 991 1733 1001 1748 1014 1761 C 1026 1773 1041 1783 1058 1791 C 1074 1798 1092 1802 1112 1802 C 1130 1802 1148 1798 1164 1791 C 1180 1783 1195 1773 1208 1761 C 1220 1748 1230 1733 1238 1716 C 1245 1699 1249 1681 1249 1663 Z M 850 1663 C 850 1644 846 1626 839 1610 C 831 1593 821 1578 809 1566 C 796 1554 781 1544 765 1537 C 748 1529 731 1526 713 1526 C 693 1526 675 1529 659 1537 C 642 1544 627 1554 614 1566 C 601 1578 591 1593 584 1610 C 576 1626 573 1644 573 1663 C 573 1681 576 1699 584 1716 C 591 1733 601 1748 614 1761 C 627 1773 642 1783 659 1791 C 675 1798 693 1802 713 1802 C 731 1802 748 1798 765 1791 C 781 1783 796 1773 809 1761 C 821 1748 831 1733 839 1716 C 846 1699 850 1681 850 1663 Z" unicode="Ä" />
<glyph horiz-adv-x="1448" d="M 1030 0 L 971 342 L 414 342 L 236 0 L 2 0 L 731 1358 C 703 1380 681 1408 666 1442 C 650 1476 643 1513 643 1554 C 643 1590 649 1624 662 1656 C 675 1688 693 1715 716 1738 C 739 1761 766 1779 798 1792 C 830 1805 864 1812 901 1812 C 937 1812 971 1805 1003 1792 C 1035 1779 1062 1761 1085 1738 C 1108 1715 1126 1688 1139 1656 C 1152 1624 1159 1590 1159 1554 C 1159 1500 1145 1453 1119 1413 C 1093 1372 1058 1341 1014 1321 L 1260 0 L 1030 0 Z M 837 1145 L 508 532 L 942 532 L 837 1145 Z M 1026 1554 C 1026 1572 1022 1589 1016 1605 C 1010 1620 1001 1633 990 1645 C 979 1656 966 1665 951 1671 C 935 1677 919 1681 901 1681 C 883 1681 866 1677 851 1671 C 835 1665 822 1656 811 1645 C 800 1633 791 1620 785 1605 C 779 1589 776 1572 776 1554 C 776 1536 779 1519 785 1503 C 791 1487 800 1474 811 1463 C 822 1451 835 1442 851 1436 C 866 1430 883 1427 901 1427 C 919 1427 935 1430 951 1436 C 966 1442 979 1451 990 1463 C 1001 1474 1010 1487 1016 1503 C 1022 1519 1026 1536 1026 1554 Z" unicode="Å" />
<glyph horiz-adv-x="2085" d="M 1178 209 L 1909 209 L 1872 0 L 924 0 L 979 309 L 442 309 L 182 0 L -72 0 L 1133 1434 L 2093 1434 L 2056 1225 L 1356 1225 L 1294 870 L 1860 870 L 1823 662 L 1257 662 L 1178 209 Z M 600 508 L 1014 508 L 1122 1130 L 600 508 Z" unicode="Æ" />
<glyph horiz-adv-x="1333" d="M 1112 1057 C 1096 1087 1080 1113 1064 1134 C 1048 1155 1028 1174 1005 1191 C 981 1208 955 1221 925 1231 C 895 1240 861 1245 823 1245 C 759 1245 698 1228 641 1196 C 584 1164 534 1119 492 1062 C 450 1004 416 936 391 857 C 366 778 354 692 354 598 C 354 532 361 474 376 424 C 390 373 411 330 439 295 C 466 260 499 233 538 215 C 576 197 620 188 668 188 C 736 188 798 204 853 238 C 907 272 959 318 1008 377 L 1163 242 C 1131 200 1099 163 1065 133 C 1031 102 992 74 948 50 C 903 25 857 7 809 -5 C 761 -17 709 -23 655 -23 C 579 -23 509 -10 445 14 C 381 39 326 76 280 126 C 234 175 198 236 172 310 C 146 384 133 469 133 567 C 133 656 141 740 159 818 C 176 896 200 969 232 1035 C 263 1101 300 1160 344 1212 C 388 1264 436 1308 489 1344 C 542 1380 599 1408 660 1427 C 720 1446 783 1456 848 1456 C 906 1456 960 1449 1009 1435 C 1058 1421 1102 1400 1141 1374 C 1180 1348 1214 1316 1243 1279 C 1272 1241 1296 1199 1315 1153 L 1112 1057 Z M 835 -208 C 835 -239 828 -267 815 -291 C 801 -315 784 -334 763 -349 C 742 -364 717 -375 689 -383 C 660 -391 629 -395 595 -395 C 537 -395 485 -386 437 -368 C 389 -350 349 -328 317 -303 L 372 -236 C 400 -256 431 -271 463 -283 C 495 -295 531 -301 571 -301 C 605 -301 632 -295 653 -283 C 674 -271 685 -253 687 -227 C 689 -207 685 -191 675 -181 C 665 -171 648 -166 626 -166 C 610 -166 597 -167 585 -171 C 573 -175 560 -180 548 -188 L 478 -160 L 567 39 L 667 39 L 610 -94 C 621 -88 633 -84 647 -81 C 661 -77 677 -76 696 -76 C 739 -76 773 -87 798 -111 C 822 -134 835 -166 835 -208 Z" unicode="Ç" />
<glyph horiz-adv-x="1251" d="M 92 0 L 344 1434 L 1260 1434 L 1223 1225 L 522 1225 L 461 870 L 1026 870 L 989 662 L 424 662 L 344 209 L 1075 209 L 1038 0 L 92 0 Z M 746 1526 L 465 1853 L 752 1853 L 913 1526 L 746 1526 Z" unicode="È" />
<glyph horiz-adv-x="1251" d="M 92 0 L 344 1434 L 1260 1434 L 1223 1225 L 522 1225 L 461 870 L 1026 870 L 989 662 L 424 662 L 344 209 L 1075 209 L 1038 0 L 92 0 Z M 823 1526 L 655 1526 L 932 1853 L 1218 1853 L 823 1526 Z" unicode="É" />
<glyph horiz-adv-x="1251" d="M 92 0 L 344 1434 L 1260 1434 L 1223 1225 L 522 1225 L 461 870 L 1026 870 L 989 662 L 424 662 L 344 209 L 1075 209 L 1038 0 L 92 0 Z M 1008 1526 L 845 1706 L 619 1526 L 445 1526 L 742 1853 L 988 1853 L 1170 1526 L 1008 1526 Z" unicode="Ê" />
<glyph horiz-adv-x="1251" d="M 92 0 L 344 1434 L 1260 1434 L 1223 1225 L 522 1225 L 461 870 L 1026 870 L 989 662 L 424 662 L 344 209 L 1075 209 L 1038 0 L 92 0 Z M 1165 1663 C 1165 1644 1161 1626 1154 1610 C 1146 1593 1136 1578 1124 1566 C 1111 1554 1096 1544 1080 1537 C 1064 1529 1046 1526 1028 1526 C 1008 1526 990 1529 974 1537 C 957 1544 942 1554 930 1566 C 917 1578 907 1593 900 1610 C 892 1626 889 1644 889 1663 C 889 1681 892 1699 900 1716 C 907 1733 917 1748 930 1761 C 942 1773 957 1783 974 1791 C 990 1798 1008 1802 1028 1802 C 1046 1802 1064 1798 1080 1791 C 1096 1783 1111 1773 1124 1761 C 1136 1748 1146 1733 1154 1716 C 1161 1699 1165 1681 1165 1663 Z M 766 1663 C 766 1644 762 1626 755 1610 C 747 1593 737 1578 725 1566 C 712 1554 697 1544 681 1537 C 664 1529 647 1526 629 1526 C 609 1526 591 1529 575 1537 C 558 1544 543 1554 530 1566 C 517 1578 507 1593 500 1610 C 492 1626 489 1644 489 1663 C 489 1681 492 1699 500 1716 C 507 1733 517 1748 530 1761 C 543 1773 558 1783 575 1791 C 591 1798 609 1802 629 1802 C 647 1802 664 1798 681 1791 C 697 1783 712 1773 725 1761 C 737 1748 747 1733 755 1716 C 762 1699 766 1681 766 1663 Z" unicode="Ë" />
<glyph horiz-adv-x="608" d="M 317 0 L 102 0 L 356 1434 L 571 1434 L 317 0 Z M 395 1526 L 114 1853 L 401 1853 L 562 1526 L 395 1526 Z" unicode="Ì" />
<glyph horiz-adv-x="608" d="M 317 0 L 102 0 L 356 1434 L 571 1434 L 317 0 Z M 546 1526 L 378 1526 L 655 1853 L 941 1853 L 546 1526 Z" unicode="Í" />
<glyph horiz-adv-x="608" d="M 317 0 L 102 0 L 356 1434 L 571 1434 L 317 0 Z M 666 1512 L 503 1692 L 277 1512 L 103 1512 L 400 1839 L 646 1839 L 828 1512 L 666 1512 Z" unicode="Î" />
<glyph horiz-adv-x="608" d="M 317 0 L 102 0 L 356 1434 L 571 1434 L 317 0 Z M 836 1661 C 836 1642 832 1624 825 1608 C 817 1591 807 1576 795 1564 C 782 1552 767 1542 751 1535 C 735 1527 717 1524 699 1524 C 679 1524 661 1527 645 1535 C 628 1542 613 1552 601 1564 C 588 1576 578 1591 571 1608 C 563 1624 560 1642 560 1661 C 560 1679 563 1697 571 1714 C 578 1731 588 1746 601 1759 C 613 1771 628 1781 645 1789 C 661 1796 679 1800 699 1800 C 717 1800 735 1796 751 1789 C 767 1781 782 1771 795 1759 C 807 1746 817 1731 825 1714 C 832 1697 836 1679 836 1661 Z M 437 1661 C 437 1642 433 1624 426 1608 C 418 1591 408 1576 396 1564 C 383 1552 368 1542 352 1535 C 335 1527 318 1524 300 1524 C 280 1524 262 1527 246 1535 C 229 1542 214 1552 201 1564 C 188 1576 178 1591 171 1608 C 163 1624 160 1642 160 1661 C 160 1679 163 1697 171 1714 C 178 1731 188 1746 201 1759 C 214 1771 229 1781 246 1789 C 262 1796 280 1800 300 1800 C 318 1800 335 1796 352 1789 C 368 1781 383 1771 396 1759 C 408 1746 418 1731 426 1714 C 433 1697 437 1679 437 1661 Z" unicode="Ï" />
<glyph horiz-adv-x="1423" d="M 1347 848 C 1347 738 1334 639 1308 550 C 1281 460 1245 384 1201 322 C 1156 260 1107 209 1055 169 C 1003 129 948 97 890 72 C 832 47 772 29 711 17 C 649 5 589 0 530 0 L 123 0 L 238 647 L 102 647 L 137 852 L 272 852 L 375 1434 L 659 1434 C 773 1434 874 1420 963 1393 C 1052 1365 1126 1324 1186 1268 C 1245 1212 1287 1149 1311 1077 C 1335 1005 1347 928 1347 848 Z M 1124 814 C 1124 888 1114 950 1095 999 C 1075 1047 1046 1089 1006 1123 C 966 1157 916 1182 856 1198 C 796 1214 727 1223 649 1223 L 547 1223 L 481 852 L 733 852 L 698 647 L 446 647 L 369 211 L 557 211 C 615 211 671 218 724 233 C 776 247 823 267 865 292 C 907 317 943 347 975 382 C 1007 416 1033 453 1053 493 C 1073 532 1090 575 1102 622 C 1114 669 1121 733 1124 814 Z" unicode="Ð" />
<glyph horiz-adv-x="1454" d="M 1174 0 L 977 0 L 489 1071 L 303 0 L 92 0 L 346 1434 L 553 1434 L 1031 368 L 1217 1434 L 1427 1434 L 1174 0 Z M 1311 1802 C 1300 1745 1288 1701 1274 1671 C 1260 1640 1243 1614 1223 1592 C 1203 1570 1181 1553 1155 1541 C 1129 1529 1100 1523 1067 1523 C 1032 1523 1000 1529 970 1541 C 940 1553 913 1566 887 1582 C 861 1597 836 1611 812 1623 C 788 1635 766 1642 748 1642 C 725 1642 706 1633 690 1617 C 674 1601 659 1572 647 1530 L 502 1530 C 511 1580 523 1622 539 1656 C 554 1689 571 1717 591 1739 C 611 1761 634 1778 660 1790 C 686 1802 714 1808 746 1808 C 778 1808 809 1802 839 1790 C 869 1778 897 1765 923 1751 C 950 1735 976 1720 1001 1708 C 1025 1695 1047 1689 1067 1689 C 1089 1689 1108 1697 1124 1714 C 1139 1730 1153 1760 1166 1802 L 1311 1802 Z" unicode="Ñ" />
<glyph horiz-adv-x="1448" d="M 1382 875 C 1382 798 1373 719 1356 638 C 1339 556 1316 483 1286 418 C 1256 352 1222 295 1185 245 C 1147 195 1103 150 1051 109 C 999 67 940 35 876 12 C 812 -11 744 -23 672 -23 C 574 -23 487 -4 413 34 C 339 72 279 125 233 194 C 187 262 158 331 147 401 C 136 470 131 528 131 575 C 131 639 140 712 157 793 C 173 873 197 947 227 1013 C 257 1079 290 1135 326 1183 C 362 1231 404 1275 454 1316 C 503 1356 562 1390 631 1416 C 699 1442 773 1456 852 1456 C 948 1456 1032 1436 1105 1398 C 1177 1360 1234 1310 1275 1248 C 1316 1186 1344 1123 1359 1059 C 1373 995 1381 934 1382 875 Z M 1158 810 C 1159 860 1155 909 1147 955 C 1139 1001 1121 1048 1095 1094 C 1069 1140 1032 1178 985 1206 C 937 1234 882 1249 819 1249 C 754 1249 692 1231 633 1196 C 574 1161 523 1109 479 1040 C 435 971 403 897 385 817 C 366 737 356 672 355 620 C 353 584 356 541 364 490 C 371 438 388 388 416 340 C 444 291 481 253 527 225 C 573 197 626 184 686 184 C 753 184 817 201 877 235 C 937 269 988 320 1032 387 C 1076 453 1108 527 1128 609 C 1148 690 1158 757 1158 810 Z M 818 1526 L 537 1853 L 824 1853 L 985 1526 L 818 1526 Z" unicode="Ò" />
<glyph horiz-adv-x="1448" d="M 1382 875 C 1382 798 1373 719 1356 638 C 1339 556 1316 483 1286 418 C 1256 352 1222 295 1185 245 C 1147 195 1103 150 1051 109 C 999 67 940 35 876 12 C 812 -11 744 -23 672 -23 C 574 -23 487 -4 413 34 C 339 72 279 125 233 194 C 187 262 158 331 147 401 C 136 470 131 528 131 575 C 131 639 140 712 157 793 C 173 873 197 947 227 1013 C 257 1079 290 1135 326 1183 C 362 1231 404 1275 454 1316 C 503 1356 562 1390 631 1416 C 699 1442 773 1456 852 1456 C 948 1456 1032 1436 1105 1398 C 1177 1360 1234 1310 1275 1248 C 1316 1186 1344 1123 1359 1059 C 1373 995 1381 934 1382 875 Z M 1158 810 C 1159 860 1155 909 1147 955 C 1139 1001 1121 1048 1095 1094 C 1069 1140 1032 1178 985 1206 C 937 1234 882 1249 819 1249 C 754 1249 692 1231 633 1196 C 574 1161 523 1109 479 1040 C 435 971 403 897 385 817 C 366 737 356 672 355 620 C 353 584 356 541 364 490 C 371 438 388 388 416 340 C 444 291 481 253 527 225 C 573 197 626 184 686 184 C 753 184 817 201 877 235 C 937 269 988 320 1032 387 C 1076 453 1108 527 1128 609 C 1148 690 1158 757 1158 810 Z M 899 1526 L 731 1526 L 1008 1853 L 1294 1853 L 899 1526 Z" unicode="Ó" />
<glyph horiz-adv-x="1448" d="M 1382 875 C 1382 798 1373 719 1356 638 C 1339 556 1316 483 1286 418 C 1256 352 1222 295 1185 245 C 1147 195 1103 150 1051 109 C 999 67 940 35 876 12 C 812 -11 744 -23 672 -23 C 574 -23 487 -4 413 34 C 339 72 279 125 233 194 C 187 262 158 331 147 401 C 136 470 131 528 131 575 C 131 639 140 712 157 793 C 173 873 197 947 227 1013 C 257 1079 290 1135 326 1183 C 362 1231 404 1275 454 1316 C 503 1356 562 1390 631 1416 C 699 1442 773 1456 852 1456 C 948 1456 1032 1436 1105 1398 C 1177 1360 1234 1310 1275 1248 C 1316 1186 1344 1123 1359 1059 C 1373 995 1381 934 1382 875 Z M 1158 810 C 1159 860 1155 909 1147 955 C 1139 1001 1121 1048 1095 1094 C 1069 1140 1032 1178 985 1206 C 937 1234 882 1249 819 1249 C 754 1249 692 1231 633 1196 C 574 1161 523 1109 479 1040 C 435 971 403 897 385 817 C 366 737 356 672 355 620 C 353 584 356 541 364 490 C 371 438 388 388 416 340 C 444 291 481 253 527 225 C 573 197 626 184 686 184 C 753 184 817 201 877 235 C 937 269 988 320 1032 387 C 1076 453 1108 527 1128 609 C 1148 690 1158 757 1158 810 Z M 1081 1516 L 918 1696 L 692 1516 L 518 1516 L 815 1843 L 1061 1843 L 1243 1516 L 1081 1516 Z" unicode="Ô" />
<glyph horiz-adv-x="1448" d="M 1382 875 C 1382 798 1373 719 1356 638 C 1339 556 1316 483 1286 418 C 1256 352 1222 295 1185 245 C 1147 195 1103 150 1051 109 C 999 67 940 35 876 12 C 812 -11 744 -23 672 -23 C 574 -23 487 -4 413 34 C 339 72 279 125 233 194 C 187 262 158 331 147 401 C 136 470 131 528 131 575 C 131 639 140 712 157 793 C 173 873 197 947 227 1013 C 257 1079 290 1135 326 1183 C 362 1231 404 1275 454 1316 C 503 1356 562 1390 631 1416 C 699 1442 773 1456 852 1456 C 948 1456 1032 1436 1105 1398 C 1177 1360 1234 1310 1275 1248 C 1316 1186 1344 1123 1359 1059 C 1373 995 1381 934 1382 875 Z M 1158 810 C 1159 860 1155 909 1147 955 C 1139 1001 1121 1048 1095 1094 C 1069 1140 1032 1178 985 1206 C 937 1234 882 1249 819 1249 C 754 1249 692 1231 633 1196 C 574 1161 523 1109 479 1040 C 435 971 403 897 385 817 C 366 737 356 672 355 620 C 353 584 356 541 364 490 C 371 438 388 388 416 340 C 444 291 481 253 527 225 C 573 197 626 184 686 184 C 753 184 817 201 877 235 C 937 269 988 320 1032 387 C 1076 453 1108 527 1128 609 C 1148 690 1158 757 1158 810 Z M 1319 1798 C 1308 1741 1296 1697 1282 1667 C 1268 1636 1251 1610 1231 1588 C 1211 1566 1189 1549 1163 1537 C 1137 1525 1108 1519 1075 1519 C 1040 1519 1008 1525 978 1537 C 948 1549 921 1562 895 1578 C 869 1593 844 1607 820 1619 C 796 1631 774 1638 756 1638 C 733 1638 714 1629 698 1613 C 682 1597 667 1568 655 1526 L 510 1526 C 519 1576 531 1618 547 1652 C 562 1685 579 1713 599 1735 C 619 1757 642 1774 668 1786 C 694 1798 722 1804 754 1804 C 786 1804 817 1798 847 1786 C 877 1774 905 1761 931 1747 C 958 1731 984 1716 1009 1704 C 1033 1691 1055 1685 1075 1685 C 1097 1685 1116 1693 1132 1710 C 1147 1726 1161 1756 1174 1798 L 1319 1798 Z" unicode="Õ" />
<glyph horiz-adv-x="1448" d="M 1382 875 C 1382 798 1373 719 1356 638 C 1339 556 1316 483 1286 418 C 1256 352 1222 295 1185 245 C 1147 195 1103 150 1051 109 C 999 67 940 35 876 12 C 812 -11 744 -23 672 -23 C 574 -23 487 -4 413 34 C 339 72 279 125 233 194 C 187 262 158 331 147 401 C 136 470 131 528 131 575 C 131 639 140 712 157 793 C 173 873 197 947 227 1013 C 257 1079 290 1135 326 1183 C 362 1231 404 1275 454 1316 C 503 1356 562 1390 631 1416 C 699 1442 773 1456 852 1456 C 948 1456 1032 1436 1105 1398 C 1177 1360 1234 1310 1275 1248 C 1316 1186 1344 1123 1359 1059 C 1373 995 1381 934 1382 875 Z M 1158 810 C 1159 860 1155 909 1147 955 C 1139 1001 1121 1048 1095 1094 C 1069 1140 1032 1178 985 1206 C 937 1234 882 1249 819 1249 C 754 1249 692 1231 633 1196 C 574 1161 523 1109 479 1040 C 435 971 403 897 385 817 C 366 737 356 672 355 620 C 353 584 356 541 364 490 C 371 438 388 388 416 340 C 444 291 481 253 527 225 C 573 197 626 184 686 184 C 753 184 817 201 877 235 C 937 269 988 320 1032 387 C 1076 453 1108 527 1128 609 C 1148 690 1158 757 1158 810 Z M 1243 1663 C 1243 1644 1239 1626 1232 1610 C 1224 1593 1214 1578 1202 1566 C 1189 1554 1174 1544 1158 1537 C 1142 1529 1124 1526 1106 1526 C 1086 1526 1068 1529 1052 1537 C 1035 1544 1020 1554 1008 1566 C 995 1578 985 1593 978 1610 C 970 1626 967 1644 967 1663 C 967 1681 970 1699 978 1716 C 985 1733 995 1748 1008 1761 C 1020 1773 1035 1783 1052 1791 C 1068 1798 1086 1802 1106 1802 C 1124 1802 1142 1798 1158 1791 C 1174 1783 1189 1773 1202 1761 C 1214 1748 1224 1733 1232 1716 C 1239 1699 1243 1681 1243 1663 Z M 844 1663 C 844 1644 840 1626 833 1610 C 825 1593 815 1578 803 1566 C 790 1554 775 1544 759 1537 C 742 1529 725 1526 707 1526 C 687 1526 669 1529 653 1537 C 636 1544 621 1554 608 1566 C 595 1578 585 1593 578 1610 C 570 1626 567 1644 567 1663 C 567 1681 570 1699 578 1716 C 585 1733 595 1748 608 1761 C 621 1773 636 1783 653 1791 C 669 1798 687 1802 707 1802 C 725 1802 742 1798 759 1791 C 775 1783 790 1773 803 1761 C 815 1748 825 1733 833 1716 C 840 1699 844 1681 844 1663 Z" unicode="Ö" />
<glyph horiz-adv-x="1270" d="M 1019 207 L 655 578 L 290 207 L 157 340 L 528 705 L 157 1069 L 290 1202 L 655 831 L 1019 1202 L 1153 1069 L 782 705 L 1153 340 L 1019 207 Z" unicode="×" />
<glyph horiz-adv-x="1448" d="M 289 125 C 235 180 195 245 170 321 C 144 396 132 475 132 558 C 132 642 140 722 157 800 C 174 877 198 948 228 1014 C 258 1080 291 1137 329 1187 C 366 1237 411 1282 465 1324 C 518 1366 578 1398 644 1421 C 710 1444 780 1456 852 1456 C 944 1456 1025 1438 1096 1403 L 1180 1536 L 1380 1536 L 1233 1300 C 1280 1248 1316 1186 1342 1112 C 1368 1038 1381 959 1381 875 C 1381 791 1372 710 1356 632 C 1339 554 1316 483 1286 418 C 1256 352 1222 295 1185 245 C 1147 195 1103 150 1051 109 C 999 67 940 35 876 12 C 812 -11 744 -23 672 -23 C 576 -22 494 -5 428 27 L 346 -102 L 145 -102 L 289 125 Z M 975 1212 C 929 1236 879 1249 826 1249 C 759 1249 697 1233 641 1201 C 584 1169 533 1120 489 1055 C 444 989 410 914 388 830 C 366 746 355 667 355 595 C 354 496 376 409 420 334 L 975 1212 Z M 547 215 C 589 194 636 184 686 184 C 751 184 812 199 870 231 C 927 262 978 310 1024 375 C 1069 439 1103 514 1125 599 C 1147 684 1159 763 1159 836 C 1159 932 1140 1016 1100 1090 L 547 215 Z" unicode="Ø" />
<glyph horiz-adv-x="1434" d="M 1266 580 C 1248 484 1224 398 1194 324 C 1164 249 1125 186 1077 135 C 1029 83 971 44 904 17 C 837 -9 759 -23 670 -23 C 592 -23 522 -12 461 8 C 399 29 347 60 305 100 C 262 140 229 190 207 250 C 185 309 174 377 174 455 C 175 478 177 504 180 534 C 183 563 187 593 193 623 L 336 1434 L 551 1434 L 408 623 C 403 597 399 573 397 549 C 394 525 393 503 393 483 C 393 385 418 311 468 261 C 518 211 592 186 688 186 C 743 186 791 195 831 213 C 871 231 905 257 935 292 C 964 326 987 366 1005 411 C 1023 456 1039 518 1055 596 L 1202 1434 L 1417 1434 L 1266 580 Z M 844 1495 L 563 1822 L 850 1822 L 1011 1495 L 844 1495 Z" unicode="Ù" />
<glyph horiz-adv-x="1434" d="M 1266 580 C 1248 484 1224 398 1194 324 C 1164 249 1125 186 1077 135 C 1029 83 971 44 904 17 C 837 -9 759 -23 670 -23 C 592 -23 522 -12 461 8 C 399 29 347 60 305 100 C 262 140 229 190 207 250 C 185 309 174 377 174 455 C 175 478 177 504 180 534 C 183 563 187 593 193 623 L 336 1434 L 551 1434 L 408 623 C 403 597 399 573 397 549 C 394 525 393 503 393 483 C 393 385 418 311 468 261 C 518 211 592 186 688 186 C 743 186 791 195 831 213 C 871 231 905 257 935 292 C 964 326 987 366 1005 411 C 1023 456 1039 518 1055 596 L 1202 1434 L 1417 1434 L 1266 580 Z M 897 1495 L 729 1495 L 1006 1822 L 1292 1822 L 897 1495 Z" unicode="Ú" />
<glyph horiz-adv-x="1434" d="M 1266 580 C 1248 484 1224 398 1194 324 C 1164 249 1125 186 1077 135 C 1029 83 971 44 904 17 C 837 -9 759 -23 670 -23 C 592 -23 522 -12 461 8 C 399 29 347 60 305 100 C 262 140 229 190 207 250 C 185 309 174 377 174 455 C 175 478 177 504 180 534 C 183 563 187 593 193 623 L 336 1434 L 551 1434 L 408 623 C 403 597 399 573 397 549 C 394 525 393 503 393 483 C 393 385 418 311 468 261 C 518 211 592 186 688 186 C 743 186 791 195 831 213 C 871 231 905 257 935 292 C 964 326 987 366 1005 411 C 1023 456 1039 518 1055 596 L 1202 1434 L 1417 1434 L 1266 580 Z M 1091 1526 L 928 1706 L 702 1526 L 528 1526 L 825 1853 L 1071 1853 L 1253 1526 L 1091 1526 Z" unicode="Û" />
<glyph horiz-adv-x="1434" d="M 1266 580 C 1248 484 1224 398 1194 324 C 1164 249 1125 186 1077 135 C 1029 83 971 44 904 17 C 837 -9 759 -23 670 -23 C 592 -23 522 -12 461 8 C 399 29 347 60 305 100 C 262 140 229 190 207 250 C 185 309 174 377 174 455 C 175 478 177 504 180 534 C 183 563 187 593 193 623 L 336 1434 L 551 1434 L 408 623 C 403 597 399 573 397 549 C 394 525 393 503 393 483 C 393 385 418 311 468 261 C 518 211 592 186 688 186 C 743 186 791 195 831 213 C 871 231 905 257 935 292 C 964 326 987 366 1005 411 C 1023 456 1039 518 1055 596 L 1202 1434 L 1417 1434 L 1266 580 Z M 1249 1663 C 1249 1644 1245 1626 1238 1610 C 1230 1593 1220 1578 1208 1566 C 1195 1554 1180 1544 1164 1537 C 1148 1529 1130 1526 1112 1526 C 1092 1526 1074 1529 1058 1537 C 1041 1544 1026 1554 1014 1566 C 1001 1578 991 1593 984 1610 C 976 1626 973 1644 973 1663 C 973 1681 976 1699 984 1716 C 991 1733 1001 1748 1014 1761 C 1026 1773 1041 1783 1058 1791 C 1074 1798 1092 1802 1112 1802 C 1130 1802 1148 1798 1164 1791 C 1180 1783 1195 1773 1208 1761 C 1220 1748 1230 1733 1238 1716 C 1245 1699 1249 1681 1249 1663 Z M 850 1663 C 850 1644 846 1626 839 1610 C 831 1593 821 1578 809 1566 C 796 1554 781 1544 765 1537 C 748 1529 731 1526 713 1526 C 693 1526 675 1529 659 1537 C 642 1544 627 1554 614 1566 C 601 1578 591 1593 584 1610 C 576 1626 573 1644 573 1663 C 573 1681 576 1699 584 1716 C 591 1733 601 1748 614 1761 C 627 1773 642 1783 659 1791 C 675 1798 693 1802 713 1802 C 731 1802 748 1798 765 1791 C 781 1783 796 1773 809 1761 C 821 1748 831 1733 839 1716 C 846 1699 850 1681 850 1663 Z" unicode="Ü" />
<glyph horiz-adv-x="1403" d="M 813 565 L 715 0 L 500 0 L 600 567 L 244 1434 L 483 1434 L 741 783 L 1229 1434 L 1479 1434 L 813 565 Z M 870 1498 L 702 1498 L 979 1825 L 1265 1825 L 870 1498 Z" unicode="Ý" />
<glyph horiz-adv-x="1313" d="M 1262 764 C 1255 679 1236 607 1205 548 C 1173 488 1132 440 1082 402 C 1032 364 974 337 908 320 C 842 303 772 295 696 295 L 358 295 L 307 0 L 92 0 L 344 1434 L 559 1434 L 516 1194 L 791 1194 C 861 1194 927 1184 987 1166 C 1047 1148 1099 1121 1142 1085 C 1184 1049 1216 1004 1238 950 C 1260 896 1268 834 1262 764 Z M 1040 760 C 1042 798 1037 831 1026 859 C 1014 887 997 911 974 930 C 950 949 921 963 887 973 C 852 982 812 987 768 987 L 481 987 L 395 502 L 717 502 C 813 502 890 524 947 568 C 1003 612 1034 676 1040 760 Z" unicode="Þ" />
<glyph horiz-adv-x="1176" d="M 1077 1165 C 1077 1118 1070 1075 1058 1036 C 1046 997 1029 962 1007 932 C 985 902 959 876 929 856 C 899 835 866 820 831 811 C 860 803 889 790 918 774 C 946 758 972 737 995 712 C 1017 686 1036 656 1050 620 C 1064 584 1071 542 1071 494 C 1071 406 1057 332 1029 270 C 1001 208 962 157 913 117 C 864 77 806 48 739 30 C 672 11 600 2 522 2 C 495 2 468 3 440 6 L 471 199 C 492 197 512 197 532 197 C 635 197 715 221 772 271 C 829 321 858 391 858 483 C 858 555 834 612 786 653 C 738 694 671 715 584 715 L 565 715 L 598 905 L 629 905 C 665 905 698 910 727 922 C 756 933 781 949 801 969 C 821 989 837 1013 848 1041 C 858 1069 864 1099 864 1133 C 864 1180 847 1218 815 1248 C 782 1277 738 1292 684 1292 C 617 1292 566 1273 532 1235 C 498 1197 475 1144 463 1077 L 223 -283 L -6 -395 L 252 1077 C 277 1218 326 1322 399 1388 C 471 1454 570 1487 694 1487 C 752 1487 804 1479 851 1464 C 898 1448 938 1426 972 1398 C 1006 1370 1032 1336 1050 1296 C 1068 1256 1077 1213 1077 1165 Z" unicode="ß" />
<glyph horiz-adv-x="1110" d="M 1012 803 C 1012 788 1011 773 1009 759 C 1007 745 1006 730 1004 715 L 879 0 L 672 0 L 688 96 C 654 63 614 35 566 12 C 518 -11 464 -23 403 -23 C 353 -23 307 -15 264 -1 C 221 13 184 35 153 64 C 121 93 99 127 85 165 C 71 203 64 245 64 290 C 64 365 79 429 108 482 C 137 534 173 575 215 605 C 257 634 303 656 355 670 C 406 684 460 692 516 692 C 560 692 606 687 654 679 C 702 670 744 657 782 639 L 797 717 C 799 727 800 737 801 749 C 802 760 803 770 803 778 C 803 824 787 857 755 878 C 723 898 674 909 606 909 C 556 909 508 903 462 891 C 416 879 373 862 332 842 L 272 1010 C 326 1037 385 1058 449 1074 C 513 1090 573 1098 631 1098 C 689 1098 741 1092 788 1080 C 834 1068 874 1051 908 1027 C 941 1003 967 972 985 935 C 1003 898 1012 854 1012 803 Z M 754 465 C 726 480 691 493 649 503 C 607 513 560 518 506 518 C 474 518 444 514 416 506 C 388 498 363 486 341 470 C 319 454 302 433 289 407 C 276 381 270 351 270 316 C 270 266 286 227 319 200 C 351 173 397 160 457 160 C 483 160 509 163 535 171 C 561 178 585 188 608 200 C 631 212 652 225 672 241 C 691 257 708 273 723 291 L 754 465 Z M 645 1219 L 364 1546 L 651 1546 L 812 1219 L 645 1219 Z" unicode="à" />
<glyph horiz-adv-x="1110" d="M 1012 803 C 1012 788 1011 773 1009 759 C 1007 745 1006 730 1004 715 L 879 0 L 672 0 L 688 96 C 654 63 614 35 566 12 C 518 -11 464 -23 403 -23 C 353 -23 307 -15 264 -1 C 221 13 184 35 153 64 C 121 93 99 127 85 165 C 71 203 64 245 64 290 C 64 365 79 429 108 482 C 137 534 173 575 215 605 C 257 634 303 656 355 670 C 406 684 460 692 516 692 C 560 692 606 687 654 679 C 702 670 744 657 782 639 L 797 717 C 799 727 800 737 801 749 C 802 760 803 770 803 778 C 803 824 787 857 755 878 C 723 898 674 909 606 909 C 556 909 508 903 462 891 C 416 879 373 862 332 842 L 272 1010 C 326 1037 385 1058 449 1074 C 513 1090 573 1098 631 1098 C 689 1098 741 1092 788 1080 C 834 1068 874 1051 908 1027 C 941 1003 967 972 985 935 C 1003 898 1012 854 1012 803 Z M 754 465 C 726 480 691 493 649 503 C 607 513 560 518 506 518 C 474 518 444 514 416 506 C 388 498 363 486 341 470 C 319 454 302 433 289 407 C 276 381 270 351 270 316 C 270 266 286 227 319 200 C 351 173 397 160 457 160 C 483 160 509 163 535 171 C 561 178 585 188 608 200 C 631 212 652 225 672 241 C 691 257 708 273 723 291 L 754 465 Z M 715 1219 L 547 1219 L 824 1546 L 1110 1546 L 715 1219 Z" unicode="á" />
<glyph horiz-adv-x="1110" d="M 1012 803 C 1012 788 1011 773 1009 759 C 1007 745 1006 730 1004 715 L 879 0 L 672 0 L 688 96 C 654 63 614 35 566 12 C 518 -11 464 -23 403 -23 C 353 -23 307 -15 264 -1 C 221 13 184 35 153 64 C 121 93 99 127 85 165 C 71 203 64 245 64 290 C 64 365 79 429 108 482 C 137 534 173 575 215 605 C 257 634 303 656 355 670 C 406 684 460 692 516 692 C 560 692 606 687 654 679 C 702 670 744 657 782 639 L 797 717 C 799 727 800 737 801 749 C 802 760 803 770 803 778 C 803 824 787 857 755 878 C 723 898 674 909 606 909 C 556 909 508 903 462 891 C 416 879 373 862 332 842 L 272 1010 C 326 1037 385 1058 449 1074 C 513 1090 573 1098 631 1098 C 689 1098 741 1092 788 1080 C 834 1068 874 1051 908 1027 C 941 1003 967 972 985 935 C 1003 898 1012 854 1012 803 Z M 754 465 C 726 480 691 493 649 503 C 607 513 560 518 506 518 C 474 518 444 514 416 506 C 388 498 363 486 341 470 C 319 454 302 433 289 407 C 276 381 270 351 270 316 C 270 266 286 227 319 200 C 351 173 397 160 457 160 C 483 160 509 163 535 171 C 561 178 585 188 608 200 C 631 212 652 225 672 241 C 691 257 708 273 723 291 L 754 465 Z M 880 1210 L 717 1390 L 491 1210 L 317 1210 L 614 1537 L 860 1537 L 1042 1210 L 880 1210 Z" unicode="â" />
<glyph horiz-adv-x="1110" d="M 1012 803 C 1012 788 1011 773 1009 759 C 1007 745 1006 730 1004 715 L 879 0 L 672 0 L 688 96 C 654 63 614 35 566 12 C 518 -11 464 -23 403 -23 C 353 -23 307 -15 264 -1 C 221 13 184 35 153 64 C 121 93 99 127 85 165 C 71 203 64 245 64 290 C 64 365 79 429 108 482 C 137 534 173 575 215 605 C 257 634 303 656 355 670 C 406 684 460 692 516 692 C 560 692 606 687 654 679 C 702 670 744 657 782 639 L 797 717 C 799 727 800 737 801 749 C 802 760 803 770 803 778 C 803 824 787 857 755 878 C 723 898 674 909 606 909 C 556 909 508 903 462 891 C 416 879 373 862 332 842 L 272 1010 C 326 1037 385 1058 449 1074 C 513 1090 573 1098 631 1098 C 689 1098 741 1092 788 1080 C 834 1068 874 1051 908 1027 C 941 1003 967 972 985 935 C 1003 898 1012 854 1012 803 Z M 754 465 C 726 480 691 493 649 503 C 607 513 560 518 506 518 C 474 518 444 514 416 506 C 388 498 363 486 341 470 C 319 454 302 433 289 407 C 276 381 270 351 270 316 C 270 266 286 227 319 200 C 351 173 397 160 457 160 C 483 160 509 163 535 171 C 561 178 585 188 608 200 C 631 212 652 225 672 241 C 691 257 708 273 723 291 L 754 465 Z M 1094 1491 C 1083 1434 1071 1390 1057 1360 C 1043 1329 1026 1303 1006 1281 C 986 1259 964 1242 938 1230 C 912 1218 883 1212 850 1212 C 815 1212 783 1218 753 1230 C 723 1242 696 1255 670 1271 C 644 1286 619 1300 595 1312 C 571 1324 549 1331 531 1331 C 508 1331 489 1322 473 1306 C 457 1290 442 1261 430 1219 L 285 1219 C 294 1269 306 1311 322 1345 C 337 1378 354 1406 374 1428 C 394 1450 417 1467 443 1479 C 469 1491 497 1497 529 1497 C 561 1497 592 1491 622 1479 C 652 1467 680 1454 706 1440 C 733 1424 759 1409 784 1397 C 808 1384 830 1378 850 1378 C 872 1378 891 1386 907 1403 C 922 1419 936 1449 949 1491 L 1094 1491 Z" unicode="ã" />
<glyph horiz-adv-x="1110" d="M 1012 803 C 1012 788 1011 773 1009 759 C 1007 745 1006 730 1004 715 L 879 0 L 672 0 L 688 96 C 654 63 614 35 566 12 C 518 -11 464 -23 403 -23 C 353 -23 307 -15 264 -1 C 221 13 184 35 153 64 C 121 93 99 127 85 165 C 71 203 64 245 64 290 C 64 365 79 429 108 482 C 137 534 173 575 215 605 C 257 634 303 656 355 670 C 406 684 460 692 516 692 C 560 692 606 687 654 679 C 702 670 744 657 782 639 L 797 717 C 799 727 800 737 801 749 C 802 760 803 770 803 778 C 803 824 787 857 755 878 C 723 898 674 909 606 909 C 556 909 508 903 462 891 C 416 879 373 862 332 842 L 272 1010 C 326 1037 385 1058 449 1074 C 513 1090 573 1098 631 1098 C 689 1098 741 1092 788 1080 C 834 1068 874 1051 908 1027 C 941 1003 967 972 985 935 C 1003 898 1012 854 1012 803 Z M 754 465 C 726 480 691 493 649 503 C 607 513 560 518 506 518 C 474 518 444 514 416 506 C 388 498 363 486 341 470 C 319 454 302 433 289 407 C 276 381 270 351 270 316 C 270 266 286 227 319 200 C 351 173 397 160 457 160 C 483 160 509 163 535 171 C 561 178 585 188 608 200 C 631 212 652 225 672 241 C 691 257 708 273 723 291 L 754 465 Z M 1040 1347 C 1040 1328 1036 1310 1029 1294 C 1021 1277 1011 1262 999 1250 C 986 1238 971 1228 955 1221 C 939 1213 921 1210 903 1210 C 883 1210 865 1213 849 1221 C 832 1228 817 1238 805 1250 C 792 1262 782 1277 775 1294 C 767 1310 764 1328 764 1347 C 764 1365 767 1383 775 1400 C 782 1417 792 1432 805 1445 C 817 1457 832 1467 849 1475 C 865 1482 883 1486 903 1486 C 921 1486 939 1482 955 1475 C 971 1467 986 1457 999 1445 C 1011 1432 1021 1417 1029 1400 C 1036 1383 1040 1365 1040 1347 Z M 641 1347 C 641 1328 637 1310 630 1294 C 622 1277 612 1262 600 1250 C 587 1238 572 1228 556 1221 C 539 1213 522 1210 504 1210 C 484 1210 466 1213 450 1221 C 433 1228 418 1238 405 1250 C 392 1262 382 1277 375 1294 C 367 1310 364 1328 364 1347 C 364 1365 367 1383 375 1400 C 382 1417 392 1432 405 1445 C 418 1457 433 1467 450 1475 C 466 1482 484 1486 504 1486 C 522 1486 539 1482 556 1475 C 572 1467 587 1457 600 1445 C 612 1432 622 1417 630 1400 C 637 1383 641 1365 641 1347 Z" unicode="ä" />
<glyph horiz-adv-x="1110" d="M 1012 803 C 1012 788 1011 773 1009 759 C 1007 745 1006 730 1004 715 L 879 0 L 672 0 L 688 96 C 654 63 614 35 566 12 C 518 -11 464 -23 403 -23 C 353 -23 307 -15 264 -1 C 221 13 184 35 153 64 C 121 93 99 127 85 165 C 71 203 64 245 64 290 C 64 365 79 429 108 482 C 137 534 173 575 215 605 C 257 634 303 656 355 670 C 406 684 460 692 516 692 C 560 692 606 687 654 679 C 702 670 744 657 782 639 L 797 717 C 799 727 800 737 801 749 C 802 760 803 770 803 778 C 803 824 787 857 755 878 C 723 898 674 909 606 909 C 556 909 508 903 462 891 C 416 879 373 862 332 842 L 272 1010 C 326 1037 385 1058 449 1074 C 513 1090 573 1098 631 1098 C 689 1098 741 1092 788 1080 C 834 1068 874 1051 908 1027 C 941 1003 967 972 985 935 C 1003 898 1012 854 1012 803 Z M 754 465 C 726 480 691 493 649 503 C 607 513 560 518 506 518 C 474 518 444 514 416 506 C 388 498 363 486 341 470 C 319 454 302 433 289 407 C 276 381 270 351 270 316 C 270 266 286 227 319 200 C 351 173 397 160 457 160 C 483 160 509 163 535 171 C 561 178 585 188 608 200 C 631 212 652 225 672 241 C 691 257 708 273 723 291 L 754 465 Z M 987 1475 C 987 1437 980 1403 967 1372 C 954 1341 936 1314 913 1291 C 890 1268 863 1250 831 1238 C 799 1225 765 1219 729 1219 C 691 1219 657 1225 626 1238 C 594 1250 567 1268 544 1291 C 521 1314 503 1341 490 1372 C 477 1403 471 1437 471 1475 C 471 1511 477 1545 490 1577 C 503 1609 521 1636 544 1659 C 567 1682 594 1700 626 1713 C 657 1726 691 1733 729 1733 C 765 1733 799 1726 831 1713 C 863 1700 890 1682 913 1659 C 936 1636 954 1609 967 1577 C 980 1545 987 1511 987 1475 Z M 854 1475 C 854 1493 850 1509 844 1525 C 838 1541 829 1554 818 1566 C 806 1577 793 1586 778 1592 C 763 1598 747 1602 729 1602 C 711 1602 694 1598 679 1592 C 663 1586 650 1577 639 1566 C 628 1554 619 1541 613 1525 C 607 1509 604 1493 604 1475 C 604 1456 607 1439 613 1424 C 619 1408 628 1395 639 1384 C 650 1372 663 1363 679 1357 C 694 1351 711 1348 729 1348 C 747 1348 763 1351 778 1357 C 793 1363 806 1372 818 1384 C 829 1395 838 1408 844 1424 C 850 1439 854 1456 854 1475 Z" unicode="å" />
<glyph horiz-adv-x="1747" d="M 1636 662 C 1636 624 1633 588 1629 554 C 1624 520 1618 490 1610 465 L 936 465 C 932 419 935 378 945 342 C 955 306 971 276 993 252 C 1015 228 1041 209 1073 197 C 1105 184 1140 178 1180 178 C 1218 178 1256 184 1294 198 C 1331 211 1369 230 1407 256 L 1509 104 C 1452 60 1394 27 1335 7 C 1276 -12 1217 -23 1157 -23 C 1076 -23 1006 -7 948 25 C 889 57 842 99 807 152 C 745 96 682 52 616 22 C 550 -7 480 -23 406 -23 C 354 -23 306 -15 262 0 C 218 15 181 37 151 67 C 120 97 97 134 82 178 C 67 222 62 272 66 330 C 70 392 86 445 112 491 C 138 536 171 574 213 604 C 255 634 302 656 356 670 C 409 684 465 692 524 692 C 568 692 612 687 654 677 C 696 667 734 655 768 639 L 784 729 C 785 736 786 744 787 752 C 787 760 788 768 788 776 C 788 820 773 854 745 878 C 716 902 672 915 612 915 C 562 915 514 909 469 898 C 424 887 379 870 334 848 L 274 1010 C 324 1036 382 1057 446 1073 C 510 1089 573 1098 635 1098 C 711 1098 775 1086 827 1064 C 878 1041 916 1004 942 954 C 982 998 1028 1033 1080 1059 C 1132 1085 1190 1098 1253 1098 C 1319 1098 1377 1086 1425 1062 C 1473 1038 1513 1007 1544 967 C 1575 927 1598 880 1613 828 C 1628 775 1636 720 1636 662 Z M 1436 635 C 1439 673 1437 708 1431 742 C 1425 775 1413 804 1396 828 C 1379 852 1357 872 1329 886 C 1301 900 1268 907 1229 907 C 1194 907 1162 900 1134 886 C 1105 872 1080 853 1058 829 C 1036 805 1017 776 1001 743 C 985 709 973 673 965 635 L 1436 635 Z M 737 299 C 735 303 734 315 732 334 C 730 353 731 376 733 403 L 739 465 C 710 480 677 493 641 503 C 605 513 560 518 506 518 C 475 518 446 514 419 507 C 391 499 367 487 346 471 C 324 454 308 434 296 411 C 284 387 278 360 276 328 C 274 275 289 234 319 204 C 349 174 395 160 457 160 C 505 160 554 172 603 198 C 652 223 697 257 737 299 Z" unicode="æ" />
<glyph horiz-adv-x="1061" d="M 856 748 C 825 796 790 832 751 858 C 711 884 666 897 616 897 C 577 897 540 888 505 871 C 469 854 437 827 407 791 C 377 754 352 707 334 649 C 315 591 306 526 306 455 C 306 370 327 303 369 253 C 411 203 470 178 547 178 C 590 178 631 187 669 207 C 707 227 746 255 786 293 L 899 150 C 841 93 780 50 718 21 C 656 -8 590 -23 520 -23 C 450 -23 388 -10 333 15 C 277 41 231 77 194 123 C 157 169 131 220 115 276 C 99 332 92 387 92 443 C 92 543 107 636 138 721 C 168 805 211 876 265 934 C 319 991 377 1033 441 1059 C 505 1085 569 1098 633 1098 C 684 1098 729 1092 769 1080 C 808 1068 843 1053 873 1034 C 903 1014 929 992 952 967 C 974 941 994 915 1012 889 L 856 748 Z M 680 -208 C 680 -239 673 -267 660 -291 C 646 -315 629 -334 608 -349 C 587 -364 562 -375 534 -383 C 505 -391 474 -395 440 -395 C 382 -395 330 -386 282 -368 C 234 -350 194 -328 162 -303 L 217 -236 C 245 -256 276 -271 308 -283 C 340 -295 376 -301 416 -301 C 450 -301 477 -295 498 -283 C 519 -271 530 -253 532 -227 C 534 -207 530 -191 520 -181 C 510 -171 493 -166 471 -166 C 455 -166 442 -167 430 -171 C 418 -175 405 -180 393 -188 L 323 -160 L 412 39 L 512 39 L 455 -94 C 466 -88 478 -84 492 -81 C 506 -77 522 -76 541 -76 C 584 -76 618 -87 643 -111 C 667 -134 680 -166 680 -208 Z" unicode="ç" />
<glyph horiz-adv-x="1116" d="M 1006 664 C 1006 628 1003 594 998 560 C 993 526 987 495 979 465 L 297 465 C 293 418 296 376 307 340 C 317 303 334 272 356 246 C 378 220 405 201 437 188 C 469 174 505 168 545 168 C 589 168 630 175 668 191 C 706 207 746 227 786 252 L 879 104 C 823 62 765 30 707 9 C 648 -12 584 -23 516 -23 C 446 -23 384 -10 329 14 C 273 39 227 74 190 120 C 153 166 127 217 113 274 C 99 330 92 387 92 444 C 92 540 107 631 137 717 C 167 803 207 875 259 933 C 310 990 366 1032 427 1058 C 488 1084 551 1098 616 1098 C 680 1098 737 1087 786 1065 C 834 1043 875 1012 908 974 C 940 935 965 889 981 836 C 997 783 1006 726 1006 664 Z M 805 635 C 808 673 806 709 800 743 C 794 776 782 805 765 829 C 747 853 724 872 696 886 C 668 900 634 907 594 907 C 558 907 525 900 496 886 C 467 872 441 854 419 830 C 397 806 378 777 362 744 C 346 710 333 674 324 635 L 805 635 Z M 620 1219 L 339 1546 L 626 1546 L 787 1219 L 620 1219 Z" unicode="è" />
<glyph horiz-adv-x="1116" d="M 1006 664 C 1006 628 1003 594 998 560 C 993 526 987 495 979 465 L 297 465 C 293 418 296 376 307 340 C 317 303 334 272 356 246 C 378 220 405 201 437 188 C 469 174 505 168 545 168 C 589 168 630 175 668 191 C 706 207 746 227 786 252 L 879 104 C 823 62 765 30 707 9 C 648 -12 584 -23 516 -23 C 446 -23 384 -10 329 14 C 273 39 227 74 190 120 C 153 166 127 217 113 274 C 99 330 92 387 92 444 C 92 540 107 631 137 717 C 167 803 207 875 259 933 C 310 990 366 1032 427 1058 C 488 1084 551 1098 616 1098 C 680 1098 737 1087 786 1065 C 834 1043 875 1012 908 974 C 940 935 965 889 981 836 C 997 783 1006 726 1006 664 Z M 805 635 C 808 673 806 709 800 743 C 794 776 782 805 765 829 C 747 853 724 872 696 886 C 668 900 634 907 594 907 C 558 907 525 900 496 886 C 467 872 441 854 419 830 C 397 806 378 777 362 744 C 346 710 333 674 324 635 L 805 635 Z M 711 1219 L 543 1219 L 820 1546 L 1106 1546 L 711 1219 Z" unicode="é" />
<glyph horiz-adv-x="1116" d="M 1006 664 C 1006 628 1003 594 998 560 C 993 526 987 495 979 465 L 297 465 C 293 418 296 376 307 340 C 317 303 334 272 356 246 C 378 220 405 201 437 188 C 469 174 505 168 545 168 C 589 168 630 175 668 191 C 706 207 746 227 786 252 L 879 104 C 823 62 765 30 707 9 C 648 -12 584 -23 516 -23 C 446 -23 384 -10 329 14 C 273 39 227 74 190 120 C 153 166 127 217 113 274 C 99 330 92 387 92 444 C 92 540 107 631 137 717 C 167 803 207 875 259 933 C 310 990 366 1032 427 1058 C 488 1084 551 1098 616 1098 C 680 1098 737 1087 786 1065 C 834 1043 875 1012 908 974 C 940 935 965 889 981 836 C 997 783 1006 726 1006 664 Z M 805 635 C 808 673 806 709 800 743 C 794 776 782 805 765 829 C 747 853 724 872 696 886 C 668 900 634 907 594 907 C 558 907 525 900 496 886 C 467 872 441 854 419 830 C 397 806 378 777 362 744 C 346 710 333 674 324 635 L 805 635 Z M 876 1200 L 713 1380 L 487 1200 L 313 1200 L 610 1527 L 856 1527 L 1038 1200 L 876 1200 Z" unicode="ê" />
<glyph horiz-adv-x="1116" d="M 1006 664 C 1006 628 1003 594 998 560 C 993 526 987 495 979 465 L 297 465 C 293 418 296 376 307 340 C 317 303 334 272 356 246 C 378 220 405 201 437 188 C 469 174 505 168 545 168 C 589 168 630 175 668 191 C 706 207 746 227 786 252 L 879 104 C 823 62 765 30 707 9 C 648 -12 584 -23 516 -23 C 446 -23 384 -10 329 14 C 273 39 227 74 190 120 C 153 166 127 217 113 274 C 99 330 92 387 92 444 C 92 540 107 631 137 717 C 167 803 207 875 259 933 C 310 990 366 1032 427 1058 C 488 1084 551 1098 616 1098 C 680 1098 737 1087 786 1065 C 834 1043 875 1012 908 974 C 940 935 965 889 981 836 C 997 783 1006 726 1006 664 Z M 805 635 C 808 673 806 709 800 743 C 794 776 782 805 765 829 C 747 853 724 872 696 886 C 668 900 634 907 594 907 C 558 907 525 900 496 886 C 467 872 441 854 419 830 C 397 806 378 777 362 744 C 346 710 333 674 324 635 L 805 635 Z M 1038 1347 C 1038 1328 1034 1310 1027 1294 C 1019 1277 1009 1262 997 1250 C 984 1238 969 1228 953 1221 C 937 1213 919 1210 901 1210 C 881 1210 863 1213 847 1221 C 830 1228 815 1238 803 1250 C 790 1262 780 1277 773 1294 C 765 1310 762 1328 762 1347 C 762 1365 765 1383 773 1400 C 780 1417 790 1432 803 1445 C 815 1457 830 1467 847 1475 C 863 1482 881 1486 901 1486 C 919 1486 937 1482 953 1475 C 969 1467 984 1457 997 1445 C 1009 1432 1019 1417 1027 1400 C 1034 1383 1038 1365 1038 1347 Z M 639 1347 C 639 1328 635 1310 628 1294 C 620 1277 610 1262 598 1250 C 585 1238 570 1228 554 1221 C 537 1213 520 1210 502 1210 C 482 1210 464 1213 448 1221 C 431 1228 416 1238 403 1250 C 390 1262 380 1277 373 1294 C 365 1310 362 1328 362 1347 C 362 1365 365 1383 373 1400 C 380 1417 390 1432 403 1445 C 416 1457 431 1467 448 1475 C 464 1482 482 1486 502 1486 C 520 1486 537 1482 554 1475 C 570 1467 585 1457 598 1445 C 610 1432 620 1417 628 1400 C 635 1383 639 1365 639 1347 Z" unicode="ë" />
<glyph horiz-adv-x="543" d="M 283 0 L 72 0 L 260 1075 L 471 1075 L 283 0 Z M 329 1219 L 48 1546 L 335 1546 L 496 1219 L 329 1219 Z" unicode="ì" />
<glyph horiz-adv-x="543" d="M 283 0 L 72 0 L 260 1075 L 471 1075 L 283 0 Z M 451 1219 L 283 1219 L 560 1546 L 846 1546 L 451 1219 Z" unicode="í" />
<glyph horiz-adv-x="543" d="M 283 0 L 72 0 L 260 1075 L 471 1075 L 283 0 Z M 590 1189 L 427 1369 L 201 1189 L 27 1189 L 324 1516 L 570 1516 L 752 1189 L 590 1189 Z" unicode="î" />
<glyph horiz-adv-x="543" d="M 283 0 L 72 0 L 260 1075 L 471 1075 L 283 0 Z M 752 1337 C 752 1318 748 1300 741 1284 C 733 1267 723 1252 711 1240 C 698 1228 683 1218 667 1211 C 651 1203 633 1200 615 1200 C 595 1200 577 1203 561 1211 C 544 1218 529 1228 517 1240 C 504 1252 494 1267 487 1284 C 479 1300 476 1318 476 1337 C 476 1355 479 1373 487 1390 C 494 1407 504 1422 517 1435 C 529 1447 544 1457 561 1465 C 577 1472 595 1476 615 1476 C 633 1476 651 1472 667 1465 C 683 1457 698 1447 711 1435 C 723 1422 733 1407 741 1390 C 748 1373 752 1355 752 1337 Z M 353 1337 C 353 1318 349 1300 342 1284 C 334 1267 324 1252 312 1240 C 299 1228 284 1218 268 1211 C 251 1203 234 1200 216 1200 C 196 1200 178 1203 162 1211 C 145 1218 130 1228 117 1240 C 104 1252 94 1267 87 1284 C 79 1300 76 1318 76 1337 C 76 1355 79 1373 87 1390 C 94 1407 104 1422 117 1435 C 130 1447 145 1457 162 1465 C 178 1472 196 1476 216 1476 C 234 1476 251 1472 268 1465 C 284 1457 299 1447 312 1435 C 324 1422 334 1407 342 1390 C 349 1373 353 1355 353 1337 Z" unicode="ï" />
<glyph horiz-adv-x="1159" d="M 1085 782 C 1085 684 1077 597 1062 519 C 1047 441 1026 373 1000 313 C 973 253 941 202 905 160 C 869 117 829 82 787 55 C 745 28 701 8 655 -4 C 609 -16 562 -23 516 -23 C 450 -23 391 -12 339 8 C 286 28 241 57 203 94 C 165 131 136 176 116 228 C 96 280 86 337 86 399 C 86 488 101 570 133 646 C 164 722 205 785 257 835 C 309 885 364 921 422 945 C 480 969 538 981 596 981 C 674 981 737 968 787 944 C 837 920 876 888 905 848 C 899 908 887 965 870 1018 C 852 1070 824 1117 784 1159 L 664 1051 L 561 1157 L 657 1243 C 604 1265 552 1280 500 1288 L 528 1460 C 632 1446 724 1417 805 1374 L 897 1456 L 999 1350 L 924 1282 C 976 1226 1015 1158 1043 1076 C 1071 994 1085 896 1085 782 Z M 840 553 C 840 589 834 622 822 652 C 810 681 794 706 773 727 C 751 747 725 763 695 774 C 665 785 631 791 594 791 C 552 791 513 781 477 762 C 441 743 411 717 385 683 C 359 649 339 608 325 561 C 310 513 303 462 303 406 C 303 331 322 273 361 232 C 400 190 458 170 535 170 C 577 170 617 179 655 199 C 692 219 724 246 752 280 C 779 314 800 355 816 402 C 832 448 840 499 840 553 Z" unicode="ð" />
<glyph horiz-adv-x="1159" d="M 1040 764 C 1040 743 1038 721 1036 697 C 1033 673 1030 650 1026 627 L 915 0 L 705 0 L 809 600 C 812 618 814 637 816 655 C 818 673 819 689 819 705 C 819 773 805 823 779 855 C 752 887 707 903 645 903 C 613 903 583 896 555 884 C 526 872 500 854 478 830 C 455 806 435 776 418 740 C 400 704 386 656 375 598 L 270 0 L 59 0 L 250 1075 L 461 1075 L 444 983 C 480 1020 520 1048 564 1068 C 608 1088 657 1098 711 1098 C 817 1098 898 1069 955 1013 C 1011 957 1040 874 1040 764 Z M 1126 1491 C 1115 1434 1103 1390 1089 1360 C 1075 1329 1058 1303 1038 1281 C 1018 1259 996 1242 970 1230 C 944 1218 915 1212 882 1212 C 847 1212 815 1218 785 1230 C 755 1242 728 1255 702 1271 C 676 1286 651 1300 627 1312 C 603 1324 581 1331 563 1331 C 540 1331 521 1322 505 1306 C 489 1290 474 1261 462 1219 L 317 1219 C 326 1269 338 1311 354 1345 C 369 1378 386 1406 406 1428 C 426 1450 449 1467 475 1479 C 501 1491 529 1497 561 1497 C 593 1497 624 1491 654 1479 C 684 1467 712 1454 738 1440 C 765 1424 791 1409 816 1397 C 840 1384 862 1378 882 1378 C 904 1378 923 1386 939 1403 C 954 1419 968 1449 981 1491 L 1126 1491 Z" unicode="ñ" />
<glyph horiz-adv-x="1159" d="M 92 451 C 92 541 107 630 139 716 C 170 802 213 873 267 930 C 321 987 379 1029 441 1057 C 503 1084 565 1098 629 1098 C 699 1098 763 1084 820 1058 C 877 1032 924 996 961 950 C 998 904 1025 854 1041 799 C 1057 743 1066 689 1066 635 C 1066 529 1050 435 1018 352 C 986 268 943 198 889 142 C 835 86 777 44 715 17 C 653 -9 589 -23 524 -23 C 454 -23 392 -10 336 16 C 280 42 234 78 196 125 C 158 171 131 223 115 279 C 99 335 92 393 92 451 Z M 306 470 C 305 430 309 393 317 359 C 325 325 339 294 359 266 C 379 238 404 217 435 201 C 465 185 501 178 543 178 C 585 178 625 188 661 208 C 697 228 730 257 758 295 C 786 333 809 379 827 435 C 844 490 853 550 853 614 C 853 648 849 681 841 715 C 833 748 819 779 799 807 C 779 835 753 857 721 873 C 689 889 652 897 610 897 C 569 897 531 887 495 867 C 459 847 426 818 398 780 C 369 741 346 694 330 639 C 314 583 306 527 306 470 Z M 632 1219 L 351 1546 L 638 1546 L 799 1219 L 632 1219 Z" unicode="ò" />
<glyph horiz-adv-x="1159" d="M 92 451 C 92 541 107 630 139 716 C 170 802 213 873 267 930 C 321 987 379 1029 441 1057 C 503 1084 565 1098 629 1098 C 699 1098 763 1084 820 1058 C 877 1032 924 996 961 950 C 998 904 1025 854 1041 799 C 1057 743 1066 689 1066 635 C 1066 529 1050 435 1018 352 C 986 268 943 198 889 142 C 835 86 777 44 715 17 C 653 -9 589 -23 524 -23 C 454 -23 392 -10 336 16 C 280 42 234 78 196 125 C 158 171 131 223 115 279 C 99 335 92 393 92 451 Z M 306 470 C 305 430 309 393 317 359 C 325 325 339 294 359 266 C 379 238 404 217 435 201 C 465 185 501 178 543 178 C 585 178 625 188 661 208 C 697 228 730 257 758 295 C 786 333 809 379 827 435 C 844 490 853 550 853 614 C 853 648 849 681 841 715 C 833 748 819 779 799 807 C 779 835 753 857 721 873 C 689 889 652 897 610 897 C 569 897 531 887 495 867 C 459 847 426 818 398 780 C 369 741 346 694 330 639 C 314 583 306 527 306 470 Z M 723 1219 L 555 1219 L 832 1546 L 1118 1546 L 723 1219 Z" unicode="ó" />
<glyph horiz-adv-x="1159" d="M 92 451 C 92 541 107 630 139 716 C 170 802 213 873 267 930 C 321 987 379 1029 441 1057 C 503 1084 565 1098 629 1098 C 699 1098 763 1084 820 1058 C 877 1032 924 996 961 950 C 998 904 1025 854 1041 799 C 1057 743 1066 689 1066 635 C 1066 529 1050 435 1018 352 C 986 268 943 198 889 142 C 835 86 777 44 715 17 C 653 -9 589 -23 524 -23 C 454 -23 392 -10 336 16 C 280 42 234 78 196 125 C 158 171 131 223 115 279 C 99 335 92 393 92 451 Z M 306 470 C 305 430 309 393 317 359 C 325 325 339 294 359 266 C 379 238 404 217 435 201 C 465 185 501 178 543 178 C 585 178 625 188 661 208 C 697 228 730 257 758 295 C 786 333 809 379 827 435 C 844 490 853 550 853 614 C 853 648 849 681 841 715 C 833 748 819 779 799 807 C 779 835 753 857 721 873 C 689 889 652 897 610 897 C 569 897 531 887 495 867 C 459 847 426 818 398 780 C 369 741 346 694 330 639 C 314 583 306 527 306 470 Z M 882 1200 L 719 1380 L 493 1200 L 319 1200 L 616 1527 L 862 1527 L 1044 1200 L 882 1200 Z" unicode="ô" />
<glyph horiz-adv-x="1159" d="M 92 451 C 92 541 107 630 139 716 C 170 802 213 873 267 930 C 321 987 379 1029 441 1057 C 503 1084 565 1098 629 1098 C 699 1098 763 1084 820 1058 C 877 1032 924 996 961 950 C 998 904 1025 854 1041 799 C 1057 743 1066 689 1066 635 C 1066 529 1050 435 1018 352 C 986 268 943 198 889 142 C 835 86 777 44 715 17 C 653 -9 589 -23 524 -23 C 454 -23 392 -10 336 16 C 280 42 234 78 196 125 C 158 171 131 223 115 279 C 99 335 92 393 92 451 Z M 306 470 C 305 430 309 393 317 359 C 325 325 339 294 359 266 C 379 238 404 217 435 201 C 465 185 501 178 543 178 C 585 178 625 188 661 208 C 697 228 730 257 758 295 C 786 333 809 379 827 435 C 844 490 853 550 853 614 C 853 648 849 681 841 715 C 833 748 819 779 799 807 C 779 835 753 857 721 873 C 689 889 652 897 610 897 C 569 897 531 887 495 867 C 459 847 426 818 398 780 C 369 741 346 694 330 639 C 314 583 306 527 306 470 Z M 1114 1491 C 1103 1434 1091 1390 1077 1360 C 1063 1329 1046 1303 1026 1281 C 1006 1259 984 1242 958 1230 C 932 1218 903 1212 870 1212 C 835 1212 803 1218 773 1230 C 743 1242 716 1255 690 1271 C 664 1286 639 1300 615 1312 C 591 1324 569 1331 551 1331 C 528 1331 509 1322 493 1306 C 477 1290 462 1261 450 1219 L 305 1219 C 314 1269 326 1311 342 1345 C 357 1378 374 1406 394 1428 C 414 1450 437 1467 463 1479 C 489 1491 517 1497 549 1497 C 581 1497 612 1491 642 1479 C 672 1467 700 1454 726 1440 C 753 1424 779 1409 804 1397 C 828 1384 850 1378 870 1378 C 892 1378 911 1386 927 1403 C 942 1419 956 1449 969 1491 L 1114 1491 Z" unicode="õ" />
<glyph horiz-adv-x="1159" d="M 92 451 C 92 541 107 630 139 716 C 170 802 213 873 267 930 C 321 987 379 1029 441 1057 C 503 1084 565 1098 629 1098 C 699 1098 763 1084 820 1058 C 877 1032 924 996 961 950 C 998 904 1025 854 1041 799 C 1057 743 1066 689 1066 635 C 1066 529 1050 435 1018 352 C 986 268 943 198 889 142 C 835 86 777 44 715 17 C 653 -9 589 -23 524 -23 C 454 -23 392 -10 336 16 C 280 42 234 78 196 125 C 158 171 131 223 115 279 C 99 335 92 393 92 451 Z M 306 470 C 305 430 309 393 317 359 C 325 325 339 294 359 266 C 379 238 404 217 435 201 C 465 185 501 178 543 178 C 585 178 625 188 661 208 C 697 228 730 257 758 295 C 786 333 809 379 827 435 C 844 490 853 550 853 614 C 853 648 849 681 841 715 C 833 748 819 779 799 807 C 779 835 753 857 721 873 C 689 889 652 897 610 897 C 569 897 531 887 495 867 C 459 847 426 818 398 780 C 369 741 346 694 330 639 C 314 583 306 527 306 470 Z M 1044 1337 C 1044 1318 1040 1300 1033 1284 C 1025 1267 1015 1252 1003 1240 C 990 1228 975 1218 959 1211 C 943 1203 925 1200 907 1200 C 887 1200 869 1203 853 1211 C 836 1218 821 1228 809 1240 C 796 1252 786 1267 779 1284 C 771 1300 768 1318 768 1337 C 768 1355 771 1373 779 1390 C 786 1407 796 1422 809 1435 C 821 1447 836 1457 853 1465 C 869 1472 887 1476 907 1476 C 925 1476 943 1472 959 1465 C 975 1457 990 1447 1003 1435 C 1015 1422 1025 1407 1033 1390 C 1040 1373 1044 1355 1044 1337 Z M 645 1337 C 645 1318 641 1300 634 1284 C 626 1267 616 1252 604 1240 C 591 1228 576 1218 560 1211 C 543 1203 526 1200 508 1200 C 488 1200 470 1203 454 1211 C 437 1218 422 1228 409 1240 C 396 1252 386 1267 379 1284 C 371 1300 368 1318 368 1337 C 368 1355 371 1373 379 1390 C 386 1407 396 1422 409 1435 C 422 1447 437 1457 454 1465 C 470 1472 488 1476 508 1476 C 526 1476 543 1472 560 1465 C 576 1457 591 1447 604 1435 C 616 1422 626 1407 634 1390 C 641 1373 645 1355 645 1337 Z" unicode="ö" />
<glyph horiz-adv-x="1270" d="M 804 1133 C 804 1111 800 1092 792 1074 C 784 1056 773 1040 759 1026 C 745 1012 730 1002 712 994 C 694 986 675 983 655 983 C 633 983 614 986 596 994 C 578 1002 562 1012 548 1026 C 534 1040 524 1056 516 1074 C 508 1092 505 1111 505 1133 C 505 1153 509 1173 517 1192 C 525 1210 535 1227 549 1241 C 563 1255 579 1266 597 1274 C 615 1282 634 1286 655 1286 C 675 1286 694 1282 712 1274 C 730 1266 745 1255 759 1241 C 773 1227 784 1210 792 1192 C 800 1173 804 1153 804 1133 Z M 161 610 L 161 799 L 1150 799 L 1150 610 L 161 610 Z M 804 272 C 804 250 800 231 792 213 C 784 195 773 179 759 166 C 745 152 730 142 712 134 C 694 126 675 123 655 123 C 633 123 614 126 596 134 C 578 142 562 152 548 166 C 534 179 524 195 516 213 C 508 231 505 250 505 272 C 505 292 509 312 517 331 C 525 349 535 366 549 380 C 563 394 579 405 597 413 C 615 421 634 426 655 426 C 675 426 694 421 712 413 C 730 405 745 394 759 380 C 773 366 784 349 792 331 C 800 312 804 292 804 272 Z" unicode="÷" />
<glyph horiz-adv-x="1159" d="M 205 113 C 165 159 137 211 119 267 C 101 323 93 382 93 444 C 93 547 108 639 140 721 C 171 803 212 871 264 927 C 315 983 372 1025 436 1054 C 499 1083 563 1098 629 1098 C 665 1098 699 1094 732 1087 C 765 1080 800 1068 838 1051 L 924 1178 L 1112 1178 L 961 952 C 996 909 1022 860 1040 804 C 1057 748 1066 691 1066 635 C 1066 529 1050 435 1018 352 C 986 268 943 198 889 142 C 835 86 777 44 715 17 C 653 -9 589 -23 524 -23 C 488 -23 453 -19 421 -12 C 389 -5 358 4 330 18 L 248 -102 L 59 -102 L 205 113 Z M 723 883 C 707 891 690 897 672 901 C 654 905 634 908 614 909 C 570 909 529 898 493 876 C 457 854 424 823 396 783 C 368 743 346 695 330 639 C 314 583 306 524 306 462 C 306 400 315 347 334 305 L 723 883 Z M 442 186 C 476 172 510 166 543 166 C 585 166 625 176 661 198 C 697 220 730 251 759 291 C 788 331 811 379 828 434 C 844 488 853 547 853 609 C 853 665 844 714 827 758 L 442 186 Z" unicode="ø" />
<glyph horiz-adv-x="1159" d="M 117 311 C 117 331 118 353 121 377 C 123 401 127 425 131 449 L 242 1075 L 453 1075 L 348 475 C 344 456 342 438 340 420 C 338 402 338 386 338 371 C 338 303 351 252 378 220 C 404 188 449 172 512 172 C 544 172 575 178 604 191 C 633 203 659 222 683 248 C 707 273 727 305 744 343 C 760 381 773 425 782 477 L 887 1075 L 1098 1075 L 907 0 L 696 0 L 713 92 C 669 48 626 18 584 2 C 542 -14 496 -23 446 -23 C 340 -23 259 5 202 61 C 145 117 117 201 117 311 Z M 655 1219 L 374 1546 L 661 1546 L 822 1219 L 655 1219 Z" unicode="ù" />
<glyph horiz-adv-x="1159" d="M 117 311 C 117 331 118 353 121 377 C 123 401 127 425 131 449 L 242 1075 L 453 1075 L 348 475 C 344 456 342 438 340 420 C 338 402 338 386 338 371 C 338 303 351 252 378 220 C 404 188 449 172 512 172 C 544 172 575 178 604 191 C 633 203 659 222 683 248 C 707 273 727 305 744 343 C 760 381 773 425 782 477 L 887 1075 L 1098 1075 L 907 0 L 696 0 L 713 92 C 669 48 626 18 584 2 C 542 -14 496 -23 446 -23 C 340 -23 259 5 202 61 C 145 117 117 201 117 311 Z M 741 1219 L 573 1219 L 850 1546 L 1136 1546 L 741 1219 Z" unicode="ú" />
<glyph horiz-adv-x="1159" d="M 117 311 C 117 331 118 353 121 377 C 123 401 127 425 131 449 L 242 1075 L 453 1075 L 348 475 C 344 456 342 438 340 420 C 338 402 338 386 338 371 C 338 303 351 252 378 220 C 404 188 449 172 512 172 C 544 172 575 178 604 191 C 633 203 659 222 683 248 C 707 273 727 305 744 343 C 760 381 773 425 782 477 L 887 1075 L 1098 1075 L 907 0 L 696 0 L 713 92 C 669 48 626 18 584 2 C 542 -14 496 -23 446 -23 C 340 -23 259 5 202 61 C 145 117 117 201 117 311 Z M 905 1219 L 742 1399 L 516 1219 L 342 1219 L 639 1546 L 885 1546 L 1067 1219 L 905 1219 Z" unicode="û" />
<glyph horiz-adv-x="1159" d="M 117 311 C 117 331 118 353 121 377 C 123 401 127 425 131 449 L 242 1075 L 453 1075 L 348 475 C 344 456 342 438 340 420 C 338 402 338 386 338 371 C 338 303 351 252 378 220 C 404 188 449 172 512 172 C 544 172 575 178 604 191 C 633 203 659 222 683 248 C 707 273 727 305 744 343 C 760 381 773 425 782 477 L 887 1075 L 1098 1075 L 907 0 L 696 0 L 713 92 C 669 48 626 18 584 2 C 542 -14 496 -23 446 -23 C 340 -23 259 5 202 61 C 145 117 117 201 117 311 Z M 1067 1356 C 1067 1337 1063 1319 1056 1303 C 1048 1286 1038 1271 1026 1259 C 1013 1247 998 1237 982 1230 C 966 1222 948 1219 930 1219 C 910 1219 892 1222 876 1230 C 859 1237 844 1247 832 1259 C 819 1271 809 1286 802 1303 C 794 1319 791 1337 791 1356 C 791 1374 794 1392 802 1409 C 809 1426 819 1441 832 1454 C 844 1466 859 1476 876 1484 C 892 1491 910 1495 930 1495 C 948 1495 966 1491 982 1484 C 998 1476 1013 1466 1026 1454 C 1038 1441 1048 1426 1056 1409 C 1063 1392 1067 1374 1067 1356 Z M 668 1356 C 668 1337 664 1319 657 1303 C 649 1286 639 1271 627 1259 C 614 1247 599 1237 583 1230 C 566 1222 549 1219 531 1219 C 511 1219 493 1222 477 1230 C 460 1237 445 1247 432 1259 C 419 1271 409 1286 402 1303 C 394 1319 391 1337 391 1356 C 391 1374 394 1392 402 1409 C 409 1426 419 1441 432 1454 C 445 1466 460 1476 477 1484 C 493 1491 511 1495 531 1495 C 549 1495 566 1491 583 1484 C 599 1476 614 1466 627 1454 C 639 1441 649 1426 657 1409 C 664 1392 668 1374 668 1356 Z" unicode="ü" />
<glyph horiz-adv-x="1128" d="M 381 -379 L 156 -379 L 367 6 L 162 1075 L 385 1075 L 513 274 L 930 1075 L 1155 1075 L 381 -379 Z M 702 1200 L 534 1200 L 811 1527 L 1097 1527 L 702 1200 Z" unicode="ý" />
<glyph horiz-adv-x="1159" d="M 1063 580 C 1056 485 1038 400 1010 326 C 981 251 944 188 900 136 C 856 84 805 45 748 18 C 691 -9 631 -23 569 -23 C 541 -23 514 -20 486 -14 C 458 -8 431 0 406 12 C 381 24 359 37 340 53 C 320 68 303 84 289 102 L 221 -287 L -8 -395 L 305 1384 L 532 1493 L 442 985 C 478 1020 518 1048 563 1068 C 607 1088 657 1098 711 1098 C 765 1098 816 1087 862 1065 C 908 1043 948 1011 980 968 C 1012 925 1036 871 1052 807 C 1067 742 1071 666 1063 580 Z M 852 637 C 852 719 834 784 798 832 C 762 879 711 903 645 903 C 623 903 601 899 579 893 C 557 886 536 877 516 866 C 496 854 476 841 458 827 C 439 812 422 797 406 782 L 324 315 C 332 300 345 284 363 268 C 380 251 400 235 422 221 C 444 207 467 195 493 186 C 518 176 543 172 569 172 C 607 172 643 181 678 201 C 712 221 743 250 769 290 C 795 330 815 378 830 436 C 844 493 852 560 852 637 Z" unicode="þ" />
<glyph horiz-adv-x="1128" d="M 381 -379 L 156 -379 L 367 6 L 162 1075 L 385 1075 L 513 274 L 930 1075 L 1155 1075 L 381 -379 Z M 1040 1337 C 1040 1318 1036 1300 1029 1284 C 1021 1267 1011 1252 999 1240 C 986 1228 971 1218 955 1211 C 939 1203 921 1200 903 1200 C 883 1200 865 1203 849 1211 C 832 1218 817 1228 805 1240 C 792 1252 782 1267 775 1284 C 767 1300 764 1318 764 1337 C 764 1355 767 1373 775 1390 C 782 1407 792 1422 805 1435 C 817 1447 832 1457 849 1465 C 865 1472 883 1476 903 1476 C 921 1476 939 1472 955 1465 C 971 1457 986 1447 999 1435 C 1011 1422 1021 1407 1029 1390 C 1036 1373 1040 1355 1040 1337 Z M 641 1337 C 641 1318 637 1300 630 1284 C 622 1267 612 1252 600 1240 C 587 1228 572 1218 556 1211 C 539 1203 522 1200 504 1200 C 484 1200 466 1203 450 1211 C 433 1218 418 1228 405 1240 C 392 1252 382 1267 375 1284 C 367 1300 364 1318 364 1337 C 364 1355 367 1373 375 1390 C 382 1407 392 1422 405 1435 C 418 1447 433 1457 450 1465 C 466 1472 484 1476 504 1476 C 522 1476 539 1472 556 1465 C 572 1457 587 1447 600 1435 C 612 1422 622 1407 630 1390 C 637 1373 641 1355 641 1337 Z" unicode="ÿ" />
<glyph horiz-adv-x="1448" d="M 1030 0 L 971 342 L 414 342 L 236 0 L 2 0 L 772 1434 L 989 1434 L 1255 0 L 1030 0 Z M 837 1145 L 508 532 L 942 532 L 837 1145 Z M 1176 1556 L 602 1556 L 633 1741 L 1206 1741 L 1176 1556 Z" unicode="Ā" />
<glyph horiz-adv-x="1110" d="M 1012 803 C 1012 788 1011 773 1009 759 C 1007 745 1006 730 1004 715 L 879 0 L 672 0 L 688 96 C 654 63 614 35 566 12 C 518 -11 464 -23 403 -23 C 353 -23 307 -15 264 -1 C 221 13 184 35 153 64 C 121 93 99 127 85 165 C 71 203 64 245 64 290 C 64 365 79 429 108 482 C 137 534 173 575 215 605 C 257 634 303 656 355 670 C 406 684 460 692 516 692 C 560 692 606 687 654 679 C 702 670 744 657 782 639 L 797 717 C 799 727 800 737 801 749 C 802 760 803 770 803 778 C 803 824 787 857 755 878 C 723 898 674 909 606 909 C 556 909 508 903 462 891 C 416 879 373 862 332 842 L 272 1010 C 326 1037 385 1058 449 1074 C 513 1090 573 1098 631 1098 C 689 1098 741 1092 788 1080 C 834 1068 874 1051 908 1027 C 941 1003 967 972 985 935 C 1003 898 1012 854 1012 803 Z M 754 465 C 726 480 691 493 649 503 C 607 513 560 518 506 518 C 474 518 444 514 416 506 C 388 498 363 486 341 470 C 319 454 302 433 289 407 C 276 381 270 351 270 316 C 270 266 286 227 319 200 C 351 173 397 160 457 160 C 483 160 509 163 535 171 C 561 178 585 188 608 200 C 631 212 652 225 672 241 C 691 257 708 273 723 291 L 754 465 Z M 967 1249 L 393 1249 L 424 1434 L 997 1434 L 967 1249 Z" unicode="ā" />
<glyph horiz-adv-x="1448" d="M 1030 0 L 971 342 L 414 342 L 236 0 L 2 0 L 772 1434 L 989 1434 L 1255 0 L 1030 0 Z M 837 1145 L 508 532 L 942 532 L 837 1145 Z M 1289 1853 C 1263 1749 1217 1668 1149 1611 C 1081 1554 992 1526 883 1526 C 831 1526 785 1533 744 1548 C 702 1562 667 1584 639 1612 C 611 1640 590 1674 577 1714 C 563 1754 559 1801 564 1853 L 709 1853 C 707 1794 722 1751 756 1723 C 790 1695 839 1681 904 1681 C 966 1681 1017 1694 1056 1722 C 1094 1749 1124 1793 1145 1853 L 1289 1853 Z" unicode="Ă" />
<glyph horiz-adv-x="1110" d="M 1012 803 C 1012 788 1011 773 1009 759 C 1007 745 1006 730 1004 715 L 879 0 L 672 0 L 688 96 C 654 63 614 35 566 12 C 518 -11 464 -23 403 -23 C 353 -23 307 -15 264 -1 C 221 13 184 35 153 64 C 121 93 99 127 85 165 C 71 203 64 245 64 290 C 64 365 79 429 108 482 C 137 534 173 575 215 605 C 257 634 303 656 355 670 C 406 684 460 692 516 692 C 560 692 606 687 654 679 C 702 670 744 657 782 639 L 797 717 C 799 727 800 737 801 749 C 802 760 803 770 803 778 C 803 824 787 857 755 878 C 723 898 674 909 606 909 C 556 909 508 903 462 891 C 416 879 373 862 332 842 L 272 1010 C 326 1037 385 1058 449 1074 C 513 1090 573 1098 631 1098 C 689 1098 741 1092 788 1080 C 834 1068 874 1051 908 1027 C 941 1003 967 972 985 935 C 1003 898 1012 854 1012 803 Z M 754 465 C 726 480 691 493 649 503 C 607 513 560 518 506 518 C 474 518 444 514 416 506 C 388 498 363 486 341 470 C 319 454 302 433 289 407 C 276 381 270 351 270 316 C 270 266 286 227 319 200 C 351 173 397 160 457 160 C 483 160 509 163 535 171 C 561 178 585 188 608 200 C 631 212 652 225 672 241 C 691 257 708 273 723 291 L 754 465 Z M 1094 1546 C 1068 1442 1022 1361 954 1304 C 886 1247 797 1219 688 1219 C 636 1219 590 1226 549 1241 C 507 1255 472 1277 444 1305 C 416 1333 395 1367 382 1407 C 368 1447 364 1494 369 1546 L 514 1546 C 512 1487 527 1444 561 1416 C 595 1388 644 1374 709 1374 C 771 1374 822 1387 861 1415 C 899 1442 929 1486 950 1546 L 1094 1546 Z" unicode="ă" />
<glyph horiz-adv-x="1448" d="M 1030 0 L 971 342 L 414 342 L 236 0 L 2 0 L 772 1434 L 989 1434 L 1255 0 L 1030 0 Z M 837 1145 L 508 532 L 942 532 L 837 1145 Z M 1241 0 C 1227 -3 1207 -11 1181 -24 C 1155 -36 1130 -52 1105 -70 C 1079 -88 1057 -108 1039 -130 C 1020 -152 1011 -173 1011 -195 C 1011 -206 1014 -216 1020 -224 C 1026 -232 1036 -236 1050 -236 C 1061 -236 1072 -232 1082 -225 C 1092 -218 1100 -211 1108 -203 L 1202 -276 C 1178 -316 1148 -348 1113 -373 C 1077 -397 1035 -410 987 -410 C 939 -410 899 -396 866 -370 C 832 -343 816 -305 816 -257 C 816 -227 822 -199 836 -173 C 850 -147 867 -123 888 -101 C 909 -79 932 -60 957 -43 C 982 -26 1006 -12 1030 0 L 1241 0 Z" unicode="Ą" />
<glyph horiz-adv-x="1110" d="M 1012 803 C 1012 788 1011 773 1009 759 C 1007 745 1006 730 1004 715 L 879 0 L 672 0 L 688 96 C 654 63 614 35 566 12 C 518 -11 464 -23 403 -23 C 353 -23 307 -15 264 -1 C 221 13 184 35 153 64 C 121 93 99 127 85 165 C 71 203 64 245 64 290 C 64 365 79 429 108 482 C 137 534 173 575 215 605 C 257 634 303 656 355 670 C 406 684 460 692 516 692 C 560 692 606 687 654 679 C 702 670 744 657 782 639 L 797 717 C 799 727 800 737 801 749 C 802 760 803 770 803 778 C 803 824 787 857 755 878 C 723 898 674 909 606 909 C 556 909 508 903 462 891 C 416 879 373 862 332 842 L 272 1010 C 326 1037 385 1058 449 1074 C 513 1090 573 1098 631 1098 C 689 1098 741 1092 788 1080 C 834 1068 874 1051 908 1027 C 941 1003 967 972 985 935 C 1003 898 1012 854 1012 803 Z M 754 465 C 726 480 691 493 649 503 C 607 513 560 518 506 518 C 474 518 444 514 416 506 C 388 498 363 486 341 470 C 319 454 302 433 289 407 C 276 381 270 351 270 316 C 270 266 286 227 319 200 C 351 173 397 160 457 160 C 483 160 509 163 535 171 C 561 178 585 188 608 200 C 631 212 652 225 672 241 C 691 257 708 273 723 291 L 754 465 Z M 883 0 C 869 -3 849 -11 823 -24 C 797 -36 772 -52 747 -70 C 721 -88 699 -108 681 -130 C 662 -152 653 -173 653 -195 C 653 -206 656 -216 662 -224 C 668 -232 678 -236 692 -236 C 703 -236 714 -232 724 -225 C 734 -218 742 -211 750 -203 L 844 -276 C 820 -316 790 -348 755 -373 C 719 -397 677 -410 629 -410 C 581 -410 541 -396 508 -370 C 474 -343 458 -305 458 -257 C 458 -227 464 -199 478 -173 C 492 -147 509 -123 530 -101 C 551 -79 574 -60 599 -43 C 624 -26 648 -12 672 0 L 883 0 Z" unicode="ą" />
<glyph horiz-adv-x="1333" d="M 1112 1057 C 1096 1087 1080 1113 1064 1134 C 1048 1155 1028 1174 1005 1191 C 981 1208 955 1221 925 1231 C 895 1240 861 1245 823 1245 C 759 1245 698 1228 641 1196 C 584 1164 534 1119 492 1062 C 450 1004 416 936 391 857 C 366 778 354 692 354 598 C 354 532 361 474 376 424 C 390 373 411 330 439 295 C 466 260 499 233 538 215 C 576 197 620 188 668 188 C 736 188 798 204 853 238 C 907 272 959 318 1008 377 L 1163 242 C 1131 200 1099 163 1065 133 C 1031 102 992 74 948 50 C 903 25 857 7 809 -5 C 761 -17 709 -23 655 -23 C 579 -23 509 -10 445 14 C 381 39 326 76 280 126 C 234 175 198 236 172 310 C 146 384 133 469 133 567 C 133 656 141 740 159 818 C 176 896 200 969 232 1035 C 263 1101 300 1160 344 1212 C 388 1264 436 1308 489 1344 C 542 1380 599 1408 660 1427 C 720 1446 783 1456 848 1456 C 906 1456 960 1449 1009 1435 C 1058 1421 1102 1400 1141 1374 C 1180 1348 1214 1316 1243 1279 C 1272 1241 1296 1199 1315 1153 L 1112 1057 Z M 899 1526 L 731 1526 L 1008 1853 L 1294 1853 L 899 1526 Z" unicode="Ć" />
<glyph horiz-adv-x="1061" d="M 856 748 C 825 796 790 832 751 858 C 711 884 666 897 616 897 C 577 897 540 888 505 871 C 469 854 437 827 407 791 C 377 754 352 707 334 649 C 315 591 306 526 306 455 C 306 370 327 303 369 253 C 411 203 470 178 547 178 C 590 178 631 187 669 207 C 707 227 746 255 786 293 L 899 150 C 841 93 780 50 718 21 C 656 -8 590 -23 520 -23 C 450 -23 388 -10 333 15 C 277 41 231 77 194 123 C 157 169 131 220 115 276 C 99 332 92 387 92 443 C 92 543 107 636 138 721 C 168 805 211 876 265 934 C 319 991 377 1033 441 1059 C 505 1085 569 1098 633 1098 C 684 1098 729 1092 769 1080 C 808 1068 843 1053 873 1034 C 903 1014 929 992 952 967 C 974 941 994 915 1012 889 L 856 748 Z M 723 1219 L 555 1219 L 832 1546 L 1118 1546 L 723 1219 Z" unicode="ć" />
<glyph horiz-adv-x="1333" d="" unicode="Ĉ" />
<glyph horiz-adv-x="1061" d="" unicode="ĉ" />
<glyph horiz-adv-x="1333" d="" unicode="Ċ" />
<glyph horiz-adv-x="1061" d="" unicode="ċ" />
<glyph horiz-adv-x="1333" d="M 1112 1057 C 1096 1087 1080 1113 1064 1134 C 1048 1155 1028 1174 1005 1191 C 981 1208 955 1221 925 1231 C 895 1240 861 1245 823 1245 C 759 1245 698 1228 641 1196 C 584 1164 534 1119 492 1062 C 450 1004 416 936 391 857 C 366 778 354 692 354 598 C 354 532 361 474 376 424 C 390 373 411 330 439 295 C 466 260 499 233 538 215 C 576 197 620 188 668 188 C 736 188 798 204 853 238 C 907 272 959 318 1008 377 L 1163 242 C 1131 200 1099 163 1065 133 C 1031 102 992 74 948 50 C 903 25 857 7 809 -5 C 761 -17 709 -23 655 -23 C 579 -23 509 -10 445 14 C 381 39 326 76 280 126 C 234 175 198 236 172 310 C 146 384 133 469 133 567 C 133 656 141 740 159 818 C 176 896 200 969 232 1035 C 263 1101 300 1160 344 1212 C 388 1264 436 1308 489 1344 C 542 1380 599 1408 660 1427 C 720 1446 783 1456 848 1456 C 906 1456 960 1449 1009 1435 C 1058 1421 1102 1400 1141 1374 C 1180 1348 1214 1316 1243 1279 C 1272 1241 1296 1199 1315 1153 L 1112 1057 Z M 990 1526 L 744 1526 L 562 1853 L 723 1853 L 887 1673 L 1113 1853 L 1287 1853 L 990 1526 Z" unicode="Č" />
<glyph horiz-adv-x="1061" d="M 856 748 C 825 796 790 832 751 858 C 711 884 666 897 616 897 C 577 897 540 888 505 871 C 469 854 437 827 407 791 C 377 754 352 707 334 649 C 315 591 306 526 306 455 C 306 370 327 303 369 253 C 411 203 470 178 547 178 C 590 178 631 187 669 207 C 707 227 746 255 786 293 L 899 150 C 841 93 780 50 718 21 C 656 -8 590 -23 520 -23 C 450 -23 388 -10 333 15 C 277 41 231 77 194 123 C 157 169 131 220 115 276 C 99 332 92 387 92 443 C 92 543 107 636 138 721 C 168 805 211 876 265 934 C 319 991 377 1033 441 1059 C 505 1085 569 1098 633 1098 C 684 1098 729 1092 769 1080 C 808 1068 843 1053 873 1034 C 903 1014 929 992 952 967 C 974 941 994 915 1012 889 L 856 748 Z M 807 1219 L 561 1219 L 379 1546 L 540 1546 L 704 1366 L 930 1546 L 1104 1546 L 807 1219 Z" unicode="č" />
<glyph horiz-adv-x="1382" d="M 1315 841 C 1315 761 1305 679 1287 597 C 1268 515 1238 439 1197 369 C 1155 299 1107 240 1053 194 C 999 147 940 109 878 81 C 815 52 753 31 692 19 C 630 6 567 0 502 0 L 92 0 L 346 1434 L 631 1434 C 745 1434 847 1420 936 1393 C 1024 1365 1097 1324 1155 1270 C 1213 1215 1254 1151 1278 1078 C 1302 1005 1315 926 1315 841 Z M 1092 822 C 1092 872 1085 921 1073 970 C 1060 1019 1035 1063 998 1103 C 960 1143 911 1173 849 1194 C 787 1214 711 1225 621 1225 L 524 1225 L 344 209 L 526 209 C 597 209 665 220 731 243 C 797 265 857 301 912 350 C 967 399 1011 464 1043 544 C 1075 624 1092 716 1092 822 Z M 932 1526 L 686 1526 L 504 1853 L 665 1853 L 829 1673 L 1055 1853 L 1229 1853 L 932 1526 Z" unicode="Ď" />
<glyph horiz-adv-x="1303" d="M 1342 971 L 1216 971 L 1323 1432 L 1564 1432 L 1342 971 Z M 94 426 C 94 529 107 622 133 705 C 159 788 195 859 240 917 C 285 975 337 1019 397 1051 C 456 1082 518 1098 584 1098 C 615 1098 645 1094 675 1088 C 705 1082 732 1073 757 1061 C 781 1049 803 1035 821 1021 C 839 1007 856 991 872 973 L 944 1384 L 1174 1493 L 909 0 L 700 0 L 717 90 C 681 54 641 27 597 7 C 553 -13 504 -23 451 -23 C 400 -23 353 -13 309 5 C 265 24 228 52 196 90 C 164 128 139 175 121 231 C 103 287 94 352 94 426 Z M 309 438 C 309 351 327 285 364 240 C 400 194 451 172 516 172 C 543 172 569 176 594 185 C 619 194 642 205 663 218 C 683 231 702 244 718 258 C 734 272 746 283 756 293 L 838 760 C 828 774 815 790 799 807 C 782 823 763 839 741 853 C 719 867 696 879 670 889 C 644 898 618 903 592 903 C 546 903 506 889 471 863 C 435 837 406 802 382 759 C 358 715 339 666 327 610 C 315 554 309 496 309 438 Z" unicode="ď" />
<glyph horiz-adv-x="1423" d="M 1347 848 C 1347 738 1334 639 1308 550 C 1281 460 1245 384 1201 322 C 1156 260 1107 209 1055 169 C 1003 129 948 97 890 72 C 832 47 772 29 711 17 C 649 5 589 0 530 0 L 123 0 L 238 647 L 102 647 L 137 852 L 272 852 L 375 1434 L 659 1434 C 773 1434 874 1420 963 1393 C 1052 1365 1126 1324 1186 1268 C 1245 1212 1287 1149 1311 1077 C 1335 1005 1347 928 1347 848 Z M 1124 814 C 1124 888 1114 950 1095 999 C 1075 1047 1046 1089 1006 1123 C 966 1157 916 1182 856 1198 C 796 1214 727 1223 649 1223 L 547 1223 L 481 852 L 733 852 L 698 647 L 446 647 L 369 211 L 557 211 C 615 211 671 218 724 233 C 776 247 823 267 865 292 C 907 317 943 347 975 382 C 1007 416 1033 453 1053 493 C 1073 532 1090 575 1102 622 C 1114 669 1121 733 1124 814 Z" unicode="Đ" />
<glyph horiz-adv-x="1176" d="M 838 760 C 828 774 815 790 799 807 C 782 823 763 839 741 853 C 719 867 696 879 670 889 C 644 898 618 903 592 903 C 546 903 506 889 471 863 C 435 837 406 802 382 759 C 358 715 339 666 327 610 C 315 554 309 496 309 438 C 309 351 327 285 364 240 C 400 194 451 172 516 172 C 543 172 569 176 594 185 C 619 194 642 205 663 218 C 683 231 702 244 718 258 C 734 272 746 283 756 293 L 838 760 Z M 1313 1288 L 1282 1104 L 1104 1104 L 909 0 L 700 0 L 717 90 C 697 70 679 54 662 42 C 644 30 624 18 600 8 C 576 -2 551 -10 527 -15 C 503 -20 477 -23 451 -23 C 400 -23 353 -13 309 5 C 265 24 228 52 196 90 C 164 128 139 175 121 231 C 103 287 94 352 94 426 C 94 529 107 622 133 705 C 159 788 195 859 240 917 C 285 975 337 1019 397 1051 C 456 1082 518 1098 584 1098 C 612 1098 642 1095 672 1089 C 702 1083 730 1073 756 1061 C 782 1048 804 1034 822 1020 C 840 1006 856 990 872 973 L 895 1104 L 709 1104 L 739 1288 L 928 1288 L 944 1384 L 1174 1493 L 1137 1288 L 1313 1288 Z" unicode="đ" />
<glyph horiz-adv-x="1251" d="M 92 0 L 344 1434 L 1260 1434 L 1223 1225 L 522 1225 L 461 870 L 1026 870 L 989 662 L 424 662 L 344 209 L 1075 209 L 1038 0 L 92 0 Z M 1094 1556 L 520 1556 L 551 1741 L 1124 1741 L 1094 1556 Z" unicode="Ē" />
<glyph horiz-adv-x="1116" d="M 1006 664 C 1006 628 1003 594 998 560 C 993 526 987 495 979 465 L 297 465 C 293 418 296 376 307 340 C 317 303 334 272 356 246 C 378 220 405 201 437 188 C 469 174 505 168 545 168 C 589 168 630 175 668 191 C 706 207 746 227 786 252 L 879 104 C 823 62 765 30 707 9 C 648 -12 584 -23 516 -23 C 446 -23 384 -10 329 14 C 273 39 227 74 190 120 C 153 166 127 217 113 274 C 99 330 92 387 92 444 C 92 540 107 631 137 717 C 167 803 207 875 259 933 C 310 990 366 1032 427 1058 C 488 1084 551 1098 616 1098 C 680 1098 737 1087 786 1065 C 834 1043 875 1012 908 974 C 940 935 965 889 981 836 C 997 783 1006 726 1006 664 Z M 805 635 C 808 673 806 709 800 743 C 794 776 782 805 765 829 C 747 853 724 872 696 886 C 668 900 634 907 594 907 C 558 907 525 900 496 886 C 467 872 441 854 419 830 C 397 806 378 777 362 744 C 346 710 333 674 324 635 L 805 635 Z M 969 1249 L 395 1249 L 426 1434 L 999 1434 L 969 1249 Z" unicode="ē" />
<glyph horiz-adv-x="1251" d="" unicode="Ĕ" />
<glyph horiz-adv-x="1116" d="" unicode="ĕ" />
<glyph horiz-adv-x="1251" d="M 92 0 L 344 1434 L 1260 1434 L 1223 1225 L 522 1225 L 461 870 L 1026 870 L 989 662 L 424 662 L 344 209 L 1075 209 L 1038 0 L 92 0 Z M 959 1663 C 959 1644 955 1626 948 1610 C 940 1593 930 1578 918 1566 C 905 1554 890 1544 874 1537 C 857 1529 839 1526 821 1526 C 802 1526 784 1529 767 1537 C 750 1544 735 1554 723 1566 C 710 1578 700 1593 693 1610 C 685 1626 682 1644 682 1663 C 682 1681 685 1699 693 1716 C 700 1733 710 1748 723 1761 C 735 1773 750 1783 767 1791 C 784 1798 802 1802 821 1802 C 839 1802 857 1798 874 1791 C 890 1783 905 1773 918 1761 C 930 1748 940 1733 948 1716 C 955 1699 959 1681 959 1663 Z" unicode="Ė" />
<glyph horiz-adv-x="1116" d="M 1006 664 C 1006 628 1003 594 998 560 C 993 526 987 495 979 465 L 297 465 C 293 418 296 376 307 340 C 317 303 334 272 356 246 C 378 220 405 201 437 188 C 469 174 505 168 545 168 C 589 168 630 175 668 191 C 706 207 746 227 786 252 L 879 104 C 823 62 765 30 707 9 C 648 -12 584 -23 516 -23 C 446 -23 384 -10 329 14 C 273 39 227 74 190 120 C 153 166 127 217 113 274 C 99 330 92 387 92 444 C 92 540 107 631 137 717 C 167 803 207 875 259 933 C 310 990 366 1032 427 1058 C 488 1084 551 1098 616 1098 C 680 1098 737 1087 786 1065 C 834 1043 875 1012 908 974 C 940 935 965 889 981 836 C 997 783 1006 726 1006 664 Z M 805 635 C 808 673 806 709 800 743 C 794 776 782 805 765 829 C 747 853 724 872 696 886 C 668 900 634 907 594 907 C 558 907 525 900 496 886 C 467 872 441 854 419 830 C 397 806 378 777 362 744 C 346 710 333 674 324 635 L 805 635 Z M 838 1356 C 838 1337 834 1319 827 1303 C 819 1286 809 1271 797 1259 C 784 1247 769 1237 753 1230 C 736 1222 718 1219 700 1219 C 681 1219 663 1222 646 1230 C 629 1237 614 1247 602 1259 C 589 1271 579 1286 572 1303 C 564 1319 561 1337 561 1356 C 561 1374 564 1392 572 1409 C 579 1426 589 1441 602 1454 C 614 1466 629 1476 646 1484 C 663 1491 681 1495 700 1495 C 718 1495 736 1491 753 1484 C 769 1476 784 1466 797 1454 C 809 1441 819 1426 827 1409 C 834 1392 838 1374 838 1356 Z" unicode="ė" />
<glyph horiz-adv-x="1251" d="M 92 0 L 344 1434 L 1260 1434 L 1223 1225 L 522 1225 L 461 870 L 1026 870 L 989 662 L 424 662 L 344 209 L 1075 209 L 1038 0 L 92 0 Z M 1025 0 C 1011 -3 991 -11 965 -24 C 939 -36 914 -52 889 -70 C 863 -88 841 -108 823 -130 C 804 -152 795 -173 795 -195 C 795 -206 798 -216 804 -224 C 810 -232 820 -236 834 -236 C 845 -236 856 -232 866 -225 C 876 -218 884 -211 892 -203 L 986 -276 C 962 -316 932 -348 897 -373 C 861 -397 819 -410 771 -410 C 723 -410 683 -396 650 -370 C 616 -343 600 -305 600 -257 C 600 -227 606 -199 620 -173 C 634 -147 651 -123 672 -101 C 693 -79 716 -60 741 -43 C 766 -26 790 -12 814 0 L 1025 0 Z" unicode="Ę" />
<glyph horiz-adv-x="1116" d="M 805 635 C 809 686 806 728 796 761 C 786 794 772 821 754 842 C 736 863 714 879 688 890 C 662 901 630 907 594 907 C 558 907 525 900 496 886 C 467 872 441 853 419 829 C 396 805 377 776 361 743 C 345 710 333 674 324 635 L 805 635 Z M 451 -196 C 451 -207 454 -216 460 -224 C 466 -232 475 -236 489 -236 C 500 -236 511 -232 521 -225 C 531 -218 539 -211 547 -203 L 641 -276 C 617 -316 587 -348 551 -373 C 515 -397 474 -410 426 -410 C 402 -410 379 -406 359 -399 C 338 -392 320 -382 305 -369 C 289 -356 277 -340 268 -321 C 259 -302 255 -281 255 -257 C 255 -230 260 -205 272 -181 C 284 -157 298 -134 316 -114 C 334 -94 353 -75 375 -59 C 397 -42 418 -28 438 -16 C 384 -8 336 8 293 33 C 250 57 214 89 184 128 C 154 167 131 213 115 265 C 99 317 91 374 91 438 C 91 536 106 629 138 718 C 169 807 209 879 259 933 C 308 987 363 1028 423 1056 C 483 1084 548 1098 616 1098 C 680 1098 737 1087 786 1065 C 834 1043 875 1012 908 974 C 940 935 965 889 981 836 C 997 783 1006 726 1006 664 C 1006 628 1003 593 998 560 C 993 526 987 495 979 465 L 297 465 C 293 410 297 364 311 326 C 325 288 343 258 365 236 C 387 214 413 197 444 185 C 474 173 508 168 545 168 C 589 168 630 175 668 191 C 706 207 746 227 786 252 L 879 104 C 849 81 815 60 778 41 C 740 21 703 3 667 -14 C 647 -23 625 -34 600 -46 C 575 -58 552 -71 530 -86 C 508 -101 489 -118 474 -136 C 458 -154 451 -174 451 -196 Z" unicode="ę" />
<glyph horiz-adv-x="1251" d="M 92 0 L 344 1434 L 1260 1434 L 1223 1225 L 522 1225 L 461 870 L 1026 870 L 989 662 L 424 662 L 344 209 L 1075 209 L 1038 0 L 92 0 Z M 928 1526 L 682 1526 L 500 1853 L 661 1853 L 825 1673 L 1051 1853 L 1225 1853 L 928 1526 Z" unicode="Ě" />
<glyph horiz-adv-x="1116" d="M 1006 664 C 1006 628 1003 594 998 560 C 993 526 987 495 979 465 L 297 465 C 293 418 296 376 307 340 C 317 303 334 272 356 246 C 378 220 405 201 437 188 C 469 174 505 168 545 168 C 589 168 630 175 668 191 C 706 207 746 227 786 252 L 879 104 C 823 62 765 30 707 9 C 648 -12 584 -23 516 -23 C 446 -23 384 -10 329 14 C 273 39 227 74 190 120 C 153 166 127 217 113 274 C 99 330 92 387 92 444 C 92 540 107 631 137 717 C 167 803 207 875 259 933 C 310 990 366 1032 427 1058 C 488 1084 551 1098 616 1098 C 680 1098 737 1087 786 1065 C 834 1043 875 1012 908 974 C 940 935 965 889 981 836 C 997 783 1006 726 1006 664 Z M 805 635 C 808 673 806 709 800 743 C 794 776 782 805 765 829 C 747 853 724 872 696 886 C 668 900 634 907 594 907 C 558 907 525 900 496 886 C 467 872 441 854 419 830 C 397 806 378 777 362 744 C 346 710 333 674 324 635 L 805 635 Z M 799 1219 L 553 1219 L 371 1546 L 532 1546 L 696 1366 L 922 1546 L 1096 1546 L 799 1219 Z" unicode="ě" />
<glyph horiz-adv-x="1380" d="" unicode="Ĝ" />
<glyph horiz-adv-x="1159" d="" unicode="ĝ" />
<glyph horiz-adv-x="1380" d="M 1114 1040 C 1096 1077 1079 1106 1063 1128 C 1047 1150 1028 1170 1004 1189 C 980 1207 953 1221 923 1231 C 893 1240 860 1245 825 1245 C 761 1245 701 1229 644 1197 C 586 1165 536 1121 493 1063 C 449 1005 415 937 390 857 C 364 777 352 688 352 592 C 352 524 360 465 377 415 C 394 364 418 322 448 288 C 478 254 513 228 554 211 C 594 194 638 186 686 186 C 778 186 854 213 913 269 C 972 324 1013 404 1036 508 L 1038 520 L 801 520 L 836 727 L 1290 727 L 1266 592 C 1248 484 1221 392 1185 315 C 1149 237 1106 173 1055 123 C 1003 72 945 35 879 11 C 813 -13 742 -25 664 -25 C 585 -25 513 -11 448 15 C 383 41 327 80 281 132 C 234 184 198 247 172 323 C 146 399 133 486 133 584 C 133 671 141 753 159 830 C 177 907 201 978 233 1043 C 265 1107 303 1165 347 1216 C 391 1267 439 1310 492 1346 C 545 1382 602 1409 662 1428 C 722 1446 784 1456 848 1456 C 965 1456 1063 1428 1142 1374 C 1221 1319 1280 1238 1319 1130 L 1114 1040 Z M 1289 1853 C 1263 1749 1217 1668 1149 1611 C 1081 1554 992 1526 883 1526 C 831 1526 785 1533 744 1548 C 702 1562 667 1584 639 1612 C 611 1640 590 1674 577 1714 C 563 1754 559 1801 564 1853 L 709 1853 C 707 1794 722 1751 756 1723 C 790 1695 839 1681 904 1681 C 966 1681 1017 1694 1056 1722 C 1094 1749 1124 1793 1145 1853 L 1289 1853 Z" unicode="Ğ" />
<glyph horiz-adv-x="1159" d="M 453 -23 C 402 -23 355 -13 311 5 C 267 24 230 52 198 90 C 166 128 141 175 123 231 C 105 287 96 352 96 426 C 96 529 109 622 135 705 C 161 788 197 859 242 917 C 287 975 339 1019 399 1051 C 458 1082 520 1098 586 1098 C 620 1098 652 1094 680 1088 C 708 1082 734 1072 760 1059 C 786 1046 807 1033 825 1019 C 842 1005 858 990 874 973 L 891 1075 L 1102 1075 L 938 135 C 922 48 901 -27 874 -93 C 846 -158 808 -213 760 -258 C 711 -302 649 -337 575 -361 C 500 -385 408 -399 299 -403 L 268 -227 C 348 -226 415 -219 469 -205 C 522 -191 565 -172 599 -147 C 632 -122 657 -91 675 -55 C 692 -19 705 22 715 70 L 719 90 C 683 54 643 27 599 7 C 555 -13 506 -23 453 -23 Z M 311 438 C 311 351 329 285 366 240 C 402 194 453 172 518 172 C 545 172 571 176 596 185 C 621 194 644 205 665 218 C 685 231 704 244 720 258 C 736 272 748 283 758 293 L 840 760 C 830 774 817 790 801 807 C 784 823 765 839 743 853 C 721 867 698 879 672 889 C 646 898 620 903 594 903 C 548 903 508 889 473 863 C 437 837 408 802 384 759 C 360 715 341 666 329 610 C 317 554 311 496 311 438 Z M 1100 1546 C 1074 1442 1028 1361 960 1304 C 892 1247 803 1219 694 1219 C 642 1219 596 1226 555 1241 C 513 1255 478 1277 450 1305 C 422 1333 401 1367 388 1407 C 374 1447 370 1494 375 1546 L 520 1546 C 518 1487 533 1444 567 1416 C 601 1388 650 1374 715 1374 C 777 1374 828 1387 867 1415 C 905 1442 935 1486 956 1546 L 1100 1546 Z" unicode="ğ" />
<glyph horiz-adv-x="1380" d="" unicode="Ġ" />
<glyph horiz-adv-x="1159" d="" unicode="ġ" />
<glyph horiz-adv-x="1380" d="M 1114 1040 C 1096 1077 1079 1106 1063 1128 C 1047 1150 1028 1170 1004 1189 C 980 1207 953 1221 923 1231 C 893 1240 860 1245 825 1245 C 761 1245 701 1229 644 1197 C 586 1165 536 1121 493 1063 C 449 1005 415 937 390 857 C 364 777 352 688 352 592 C 352 524 360 465 377 415 C 394 364 418 322 448 288 C 478 254 513 228 554 211 C 594 194 638 186 686 186 C 778 186 854 213 913 269 C 972 324 1013 404 1036 508 L 1038 520 L 801 520 L 836 727 L 1290 727 L 1266 592 C 1248 484 1221 392 1185 315 C 1149 237 1106 173 1055 123 C 1003 72 945 35 879 11 C 813 -13 742 -25 664 -25 C 585 -25 513 -11 448 15 C 383 41 327 80 281 132 C 234 184 198 247 172 323 C 146 399 133 486 133 584 C 133 671 141 753 159 830 C 177 907 201 978 233 1043 C 265 1107 303 1165 347 1216 C 391 1267 439 1310 492 1346 C 545 1382 602 1409 662 1428 C 722 1446 784 1456 848 1456 C 965 1456 1063 1428 1142 1374 C 1221 1319 1280 1238 1319 1130 L 1114 1040 Z M 509 -491 L 384 -491 L 475 -98 L 691 -98 L 509 -491 Z" unicode="Ģ" />
<glyph horiz-adv-x="1159" d="M 453 -23 C 402 -23 355 -13 311 5 C 267 24 230 52 198 90 C 166 128 141 175 123 231 C 105 287 96 352 96 426 C 96 529 109 622 135 705 C 161 788 197 859 242 917 C 287 975 339 1019 399 1051 C 458 1082 520 1098 586 1098 C 620 1098 652 1094 680 1088 C 708 1082 734 1072 760 1059 C 786 1046 807 1033 825 1019 C 842 1005 858 990 874 973 L 891 1075 L 1102 1075 L 938 135 C 922 48 901 -27 874 -93 C 846 -158 808 -213 760 -258 C 711 -302 649 -337 575 -361 C 500 -385 408 -399 299 -403 L 268 -227 C 348 -226 415 -219 469 -205 C 522 -191 565 -172 599 -147 C 632 -122 657 -91 675 -55 C 692 -19 705 22 715 70 L 719 90 C 683 54 643 27 599 7 C 555 -13 506 -23 453 -23 Z M 311 438 C 311 351 329 285 366 240 C 402 194 453 172 518 172 C 545 172 571 176 596 185 C 621 194 644 205 665 218 C 685 231 704 244 720 258 C 736 272 748 283 758 293 L 840 760 C 830 774 817 790 801 807 C 784 823 765 839 743 853 C 721 867 698 879 672 889 C 646 898 620 903 594 903 C 548 903 508 889 473 863 C 437 837 408 802 384 759 C 360 715 341 666 329 610 C 317 554 311 496 311 438 Z M 777 1619 L 901 1619 L 811 1226 L 595 1226 L 777 1619 Z" unicode="ģ" />
<glyph horiz-adv-x="1454" d="" unicode="Ĥ" />
<glyph horiz-adv-x="1159" d="" unicode="ĥ" />
<glyph horiz-adv-x="1454" d="" unicode="Ħ" />
<glyph horiz-adv-x="1159" d="" unicode="ħ" />
<glyph horiz-adv-x="608" d="" unicode="Ĩ" />
<glyph horiz-adv-x="543" d="" unicode="ĩ" />
<glyph horiz-adv-x="608" d="M 317 0 L 102 0 L 356 1434 L 571 1434 L 317 0 Z M 771 1556 L 197 1556 L 228 1741 L 801 1741 L 771 1556 Z" unicode="Ī" />
<glyph horiz-adv-x="543" d="M 283 0 L 72 0 L 260 1075 L 471 1075 L 283 0 Z M 683 1249 L 109 1249 L 140 1434 L 713 1434 L 683 1249 Z" unicode="ī" />
<glyph horiz-adv-x="608" d="" unicode="Ĭ" />
<glyph horiz-adv-x="543" d="" unicode="ĭ" />
<glyph horiz-adv-x="608" d="M 317 0 L 102 0 L 356 1434 L 571 1434 L 317 0 Z M 314 0 C 300 -3 280 -11 254 -24 C 228 -36 203 -52 178 -70 C 152 -88 130 -108 112 -130 C 93 -152 84 -173 84 -195 C 84 -206 87 -216 93 -224 C 99 -232 109 -236 123 -236 C 134 -236 145 -232 155 -225 C 165 -218 173 -211 181 -203 L 275 -276 C 251 -316 221 -348 186 -373 C 150 -397 108 -410 60 -410 C 12 -410 -27 -396 -61 -370 C -94 -343 -111 -305 -111 -257 C -111 -227 -104 -199 -90 -173 C -76 -147 -59 -123 -38 -101 C -17 -79 5 -60 30 -43 C 55 -26 79 -12 103 0 L 314 0 Z" unicode="Į" />
<glyph horiz-adv-x="543" d="M 541 1350 C 541 1331 537 1313 530 1297 C 523 1281 514 1266 502 1254 C 490 1242 476 1232 460 1225 C 444 1217 428 1214 410 1214 C 391 1214 373 1217 357 1225 C 341 1232 327 1242 315 1254 C 303 1266 293 1281 286 1297 C 279 1313 276 1331 276 1350 C 276 1368 279 1386 286 1403 C 293 1419 303 1434 315 1446 C 327 1458 341 1468 357 1476 C 373 1483 391 1487 410 1487 C 428 1487 444 1483 460 1476 C 476 1468 490 1458 502 1446 C 514 1434 523 1419 530 1403 C 537 1386 541 1368 541 1350 Z M 283 0 L 72 0 L 260 1075 L 471 1075 L 283 0 Z M 284 0 C 270 -3 250 -11 224 -24 C 198 -36 173 -52 148 -70 C 122 -88 100 -108 82 -130 C 63 -152 54 -173 54 -195 C 54 -206 57 -216 63 -224 C 69 -232 79 -236 93 -236 C 104 -236 115 -232 125 -225 C 135 -218 143 -211 151 -203 L 245 -276 C 221 -316 191 -348 156 -373 C 120 -397 78 -410 30 -410 C -17 -410 -57 -396 -91 -370 C -124 -343 -141 -305 -141 -257 C -141 -227 -134 -199 -120 -173 C -106 -147 -89 -123 -68 -101 C -47 -79 -24 -60 0 -43 C 25 -26 49 -12 73 0 L 284 0 Z" unicode="į" />
<glyph horiz-adv-x="608" d="M 317 0 L 102 0 L 356 1434 L 571 1434 L 317 0 Z M 643 1663 C 643 1644 639 1626 632 1610 C 624 1593 614 1578 602 1566 C 589 1554 574 1544 558 1537 C 541 1529 523 1526 505 1526 C 486 1526 468 1529 451 1537 C 434 1544 419 1554 407 1566 C 394 1578 384 1593 377 1610 C 369 1626 366 1644 366 1663 C 366 1681 369 1699 377 1716 C 384 1733 394 1748 407 1761 C 419 1773 434 1783 451 1791 C 468 1798 486 1802 505 1802 C 523 1802 541 1798 558 1791 C 574 1783 589 1773 602 1761 C 614 1748 624 1733 632 1716 C 639 1699 643 1681 643 1663 Z" unicode="İ" />
<glyph horiz-adv-x="543" d="M 283 0 L 72 0 L 260 1075 L 471 1075 L 283 0 Z" unicode="ı" />
<glyph horiz-adv-x="1847" d="" unicode="Ĳ" />
<glyph horiz-adv-x="1085" d="" unicode="ĳ" />
<glyph horiz-adv-x="1239" d="" unicode="Ĵ" />
<glyph horiz-adv-x="543" d="" unicode="ĵ" />
<glyph horiz-adv-x="1395" d="M 870 913 L 1214 0 L 987 0 L 707 741 L 371 401 L 301 0 L 92 0 L 344 1434 L 553 1434 L 428 709 L 1120 1434 L 1374 1434 L 870 913 Z M 548 -491 L 423 -491 L 514 -98 L 730 -98 L 548 -491 Z" unicode="Ķ" />
<glyph horiz-adv-x="1075" d="M 707 717 L 897 0 L 684 0 L 541 541 L 330 317 L 272 0 L 61 0 L 305 1382 L 537 1493 L 382 620 L 801 1075 L 1044 1075 L 707 717 Z M 415 -491 L 290 -491 L 381 -98 L 597 -98 L 415 -491 Z" unicode="ķ" />
<glyph horiz-adv-x="1075" d="" unicode="ĸ" />
<glyph horiz-adv-x="1210" d="M 1014 0 L 92 0 L 344 1434 L 559 1434 L 344 211 L 1051 211 L 1014 0 Z M 527 1526 L 359 1526 L 636 1853 L 922 1853 L 527 1526 Z" unicode="Ĺ" />
<glyph horiz-adv-x="543" d="M 283 0 L 72 0 L 315 1382 L 547 1493 L 283 0 Z M 499 1526 L 331 1526 L 608 1853 L 894 1853 L 499 1526 Z" unicode="ĺ" />
<glyph horiz-adv-x="1210" d="M 1014 0 L 92 0 L 344 1434 L 559 1434 L 344 211 L 1051 211 L 1014 0 Z M 449 -491 L 324 -491 L 415 -98 L 631 -98 L 449 -491 Z" unicode="Ļ" />
<glyph horiz-adv-x="543" d="M 283 0 L 72 0 L 315 1382 L 547 1493 L 283 0 Z M 89 -491 L -36 -491 L 55 -98 L 271 -98 L 89 -491 Z" unicode="ļ" />
<glyph horiz-adv-x="1210" d="M 1014 0 L 92 0 L 344 1434 L 559 1434 L 344 211 L 1051 211 L 1014 0 Z M 797 1125 L 656 1125 L 776 1639 L 1045 1639 L 797 1125 Z" unicode="Ľ" />
<glyph horiz-adv-x="686" d="M 283 0 L 72 0 L 315 1382 L 547 1493 L 283 0 Z M 705 974 L 579 974 L 686 1435 L 927 1435 L 705 974 Z" unicode="ľ" />
<glyph horiz-adv-x="1210" d="" unicode="Ŀ" />
<glyph horiz-adv-x="1063" d="" unicode="ŀ" />
<glyph horiz-adv-x="1241" d="M 1044 0 L 123 0 L 209 479 L 53 373 L 96 608 L 250 715 L 377 1434 L 588 1434 L 487 862 L 815 1098 L 774 862 L 444 627 L 371 211 L 1081 211 L 1044 0 Z" unicode="Ł" />
<glyph horiz-adv-x="584" d="M 457 877 L 578 967 L 537 731 L 414 639 L 301 0 L 94 0 L 180 487 L 59 408 L 102 643 L 223 725 L 338 1384 L 565 1493 L 457 877 Z" unicode="ł" />
<glyph horiz-adv-x="1454" d="M 1174 0 L 977 0 L 489 1071 L 303 0 L 92 0 L 346 1434 L 553 1434 L 1031 368 L 1217 1434 L 1427 1434 L 1174 0 Z M 876 1526 L 708 1526 L 985 1853 L 1271 1853 L 876 1526 Z" unicode="Ń" />
<glyph horiz-adv-x="1159" d="M 1040 764 C 1040 743 1038 721 1036 697 C 1033 673 1030 650 1026 627 L 915 0 L 705 0 L 809 600 C 812 618 814 637 816 655 C 818 673 819 689 819 705 C 819 773 805 823 779 855 C 752 887 707 903 645 903 C 613 903 583 896 555 884 C 526 872 500 854 478 830 C 455 806 435 776 418 740 C 400 704 386 656 375 598 L 270 0 L 59 0 L 250 1075 L 461 1075 L 444 983 C 480 1020 520 1048 564 1068 C 608 1088 657 1098 711 1098 C 817 1098 898 1069 955 1013 C 1011 957 1040 874 1040 764 Z M 668 1219 L 500 1219 L 777 1546 L 1063 1546 L 668 1219 Z" unicode="ń" />
<glyph horiz-adv-x="1454" d="M 1174 0 L 977 0 L 489 1071 L 303 0 L 92 0 L 346 1434 L 553 1434 L 1031 368 L 1217 1434 L 1427 1434 L 1174 0 Z M 605 -491 L 480 -491 L 571 -98 L 787 -98 L 605 -491 Z" unicode="Ņ" />
<glyph horiz-adv-x="1159" d="M 1040 764 C 1040 743 1038 721 1036 697 C 1033 673 1030 650 1026 627 L 915 0 L 705 0 L 809 600 C 812 618 814 637 816 655 C 818 673 819 689 819 705 C 819 773 805 823 779 855 C 752 887 707 903 645 903 C 613 903 583 896 555 884 C 526 872 500 854 478 830 C 455 806 435 776 418 740 C 400 704 386 656 375 598 L 270 0 L 59 0 L 250 1075 L 461 1075 L 444 983 C 480 1020 520 1048 564 1068 C 608 1088 657 1098 711 1098 C 817 1098 898 1069 955 1013 C 1011 957 1040 874 1040 764 Z M 458 -491 L 333 -491 L 424 -98 L 640 -98 L 458 -491 Z" unicode="ņ" />
<glyph horiz-adv-x="1454" d="M 1174 0 L 977 0 L 489 1071 L 303 0 L 92 0 L 346 1434 L 553 1434 L 1031 368 L 1217 1434 L 1427 1434 L 1174 0 Z M 1037 1526 L 791 1526 L 609 1853 L 770 1853 L 934 1673 L 1160 1853 L 1334 1853 L 1037 1526 Z" unicode="Ň" />
<glyph horiz-adv-x="1159" d="M 1040 764 C 1040 743 1038 721 1036 697 C 1033 673 1030 650 1026 627 L 915 0 L 705 0 L 809 600 C 812 618 814 637 816 655 C 818 673 819 689 819 705 C 819 773 805 823 779 855 C 752 887 707 903 645 903 C 613 903 583 896 555 884 C 526 872 500 854 478 830 C 455 806 435 776 418 740 C 400 704 386 656 375 598 L 270 0 L 59 0 L 250 1075 L 461 1075 L 444 983 C 480 1020 520 1048 564 1068 C 608 1088 657 1098 711 1098 C 817 1098 898 1069 955 1013 C 1011 957 1040 874 1040 764 Z M 822 1219 L 576 1219 L 394 1546 L 555 1546 L 719 1366 L 945 1546 L 1119 1546 L 822 1219 Z" unicode="ň" />
<glyph horiz-adv-x="1620" d="" unicode="ŉ" />
<glyph horiz-adv-x="1454" d="" unicode="Ŋ" />
<glyph horiz-adv-x="1159" d="" unicode="ŋ" />
<glyph horiz-adv-x="1448" d="M 1382 875 C 1382 798 1373 719 1356 638 C 1339 556 1316 483 1286 418 C 1256 352 1222 295 1185 245 C 1147 195 1103 150 1051 109 C 999 67 940 35 876 12 C 812 -11 744 -23 672 -23 C 574 -23 487 -4 413 34 C 339 72 279 125 233 194 C 187 262 158 331 147 401 C 136 470 131 528 131 575 C 131 639 140 712 157 793 C 173 873 197 947 227 1013 C 257 1079 290 1135 326 1183 C 362 1231 404 1275 454 1316 C 503 1356 562 1390 631 1416 C 699 1442 773 1456 852 1456 C 948 1456 1032 1436 1105 1398 C 1177 1360 1234 1310 1275 1248 C 1316 1186 1344 1123 1359 1059 C 1373 995 1381 934 1382 875 Z M 1158 810 C 1159 860 1155 909 1147 955 C 1139 1001 1121 1048 1095 1094 C 1069 1140 1032 1178 985 1206 C 937 1234 882 1249 819 1249 C 754 1249 692 1231 633 1196 C 574 1161 523 1109 479 1040 C 435 971 403 897 385 817 C 366 737 356 672 355 620 C 353 584 356 541 364 490 C 371 438 388 388 416 340 C 444 291 481 253 527 225 C 573 197 626 184 686 184 C 753 184 817 201 877 235 C 937 269 988 320 1032 387 C 1076 453 1108 527 1128 609 C 1148 690 1158 757 1158 810 Z M 1135 1556 L 561 1556 L 592 1741 L 1165 1741 L 1135 1556 Z" unicode="Ō" />
<glyph horiz-adv-x="1159" d="M 92 451 C 92 541 107 630 139 716 C 170 802 213 873 267 930 C 321 987 379 1029 441 1057 C 503 1084 565 1098 629 1098 C 699 1098 763 1084 820 1058 C 877 1032 924 996 961 950 C 998 904 1025 854 1041 799 C 1057 743 1066 689 1066 635 C 1066 529 1050 435 1018 352 C 986 268 943 198 889 142 C 835 86 777 44 715 17 C 653 -9 589 -23 524 -23 C 454 -23 392 -10 336 16 C 280 42 234 78 196 125 C 158 171 131 223 115 279 C 99 335 92 393 92 451 Z M 306 470 C 305 430 309 393 317 359 C 325 325 339 294 359 266 C 379 238 404 217 435 201 C 465 185 501 178 543 178 C 585 178 625 188 661 208 C 697 228 730 257 758 295 C 786 333 809 379 827 435 C 844 490 853 550 853 614 C 853 648 849 681 841 715 C 833 748 819 779 799 807 C 779 835 753 857 721 873 C 689 889 652 897 610 897 C 569 897 531 887 495 867 C 459 847 426 818 398 780 C 369 741 346 694 330 639 C 314 583 306 527 306 470 Z M 992 1249 L 418 1249 L 449 1434 L 1022 1434 L 992 1249 Z" unicode="ō" />
<glyph horiz-adv-x="1448" d="" unicode="Ŏ" />
<glyph horiz-adv-x="1159" d="" unicode="ŏ" />
<glyph horiz-adv-x="1448" d="M 1382 875 C 1382 798 1373 719 1356 638 C 1339 556 1316 483 1286 418 C 1256 352 1222 295 1185 245 C 1147 195 1103 150 1051 109 C 999 67 940 35 876 12 C 812 -11 744 -23 672 -23 C 574 -23 487 -4 413 34 C 339 72 279 125 233 194 C 187 262 158 331 147 401 C 136 470 131 528 131 575 C 131 639 140 712 157 793 C 173 873 197 947 227 1013 C 257 1079 290 1135 326 1183 C 362 1231 404 1275 454 1316 C 503 1356 562 1390 631 1416 C 699 1442 773 1456 852 1456 C 948 1456 1032 1436 1105 1398 C 1177 1360 1234 1310 1275 1248 C 1316 1186 1344 1123 1359 1059 C 1373 995 1381 934 1382 875 Z M 1158 810 C 1159 860 1155 909 1147 955 C 1139 1001 1121 1048 1095 1094 C 1069 1140 1032 1178 985 1206 C 937 1234 882 1249 819 1249 C 754 1249 692 1231 633 1196 C 574 1161 523 1109 479 1040 C 435 971 403 897 385 817 C 366 737 356 672 355 620 C 353 584 356 541 364 490 C 371 438 388 388 416 340 C 444 291 481 253 527 225 C 573 197 626 184 686 184 C 753 184 817 201 877 235 C 937 269 988 320 1032 387 C 1076 453 1108 527 1128 609 C 1148 690 1158 757 1158 810 Z M 1143 1526 L 975 1526 L 1252 1853 L 1538 1853 L 1143 1526 Z M 723 1526 L 555 1526 L 832 1853 L 1118 1853 L 723 1526 Z" unicode="Ő" />
<glyph horiz-adv-x="1159" d="M 92 451 C 92 541 107 630 139 716 C 170 802 213 873 267 930 C 321 987 379 1029 441 1057 C 503 1084 565 1098 629 1098 C 699 1098 763 1084 820 1058 C 877 1032 924 996 961 950 C 998 904 1025 854 1041 799 C 1057 743 1066 689 1066 635 C 1066 529 1050 435 1018 352 C 986 268 943 198 889 142 C 835 86 777 44 715 17 C 653 -9 589 -23 524 -23 C 454 -23 392 -10 336 16 C 280 42 234 78 196 125 C 158 171 131 223 115 279 C 99 335 92 393 92 451 Z M 306 470 C 305 430 309 393 317 359 C 325 325 339 294 359 266 C 379 238 404 217 435 201 C 465 185 501 178 543 178 C 585 178 625 188 661 208 C 697 228 730 257 758 295 C 786 333 809 379 827 435 C 844 490 853 550 853 614 C 853 648 849 681 841 715 C 833 748 819 779 799 807 C 779 835 753 857 721 873 C 689 889 652 897 610 897 C 569 897 531 887 495 867 C 459 847 426 818 398 780 C 369 741 346 694 330 639 C 314 583 306 527 306 470 Z M 918 1219 L 750 1219 L 1027 1546 L 1313 1546 L 918 1219 Z M 498 1219 L 330 1219 L 607 1546 L 893 1546 L 498 1219 Z" unicode="ő" />
<glyph horiz-adv-x="2167" d="M 1158 810 C 1159 860 1155 909 1147 955 C 1139 1001 1121 1048 1095 1094 C 1069 1140 1032 1178 985 1206 C 937 1234 882 1249 819 1249 C 754 1249 692 1231 633 1196 C 574 1161 523 1109 479 1040 C 435 971 403 897 385 817 C 366 737 356 672 355 620 C 353 584 356 541 364 490 C 371 438 388 388 416 340 C 444 291 481 253 527 225 C 573 197 626 184 686 184 C 753 184 817 201 877 235 C 937 269 988 320 1032 387 C 1076 453 1108 527 1128 609 C 1148 690 1158 757 1158 810 Z M 1260 209 L 1991 209 L 1974 0 L 1028 0 L 1055 156 C 1032 128 1008 103 982 81 C 956 59 927 40 896 25 C 865 9 831 -2 794 -10 C 757 -18 716 -23 672 -23 C 574 -23 487 -4 413 34 C 339 72 279 125 233 194 C 187 262 158 331 147 401 C 136 470 131 528 131 575 C 131 639 140 712 157 793 C 173 873 197 947 227 1013 C 257 1079 290 1135 326 1183 C 362 1231 404 1275 454 1316 C 503 1356 562 1390 631 1416 C 699 1442 773 1456 852 1456 C 896 1456 938 1451 978 1443 C 1018 1434 1054 1421 1087 1405 C 1119 1389 1149 1369 1176 1345 C 1203 1321 1227 1294 1249 1264 L 1280 1434 L 2175 1434 L 2138 1225 L 1438 1225 L 1376 870 L 1941 870 L 1904 662 L 1339 662 L 1260 209 Z" unicode="Œ" />
<glyph horiz-adv-x="1872" d="M 1053 465 C 1049 418 1052 376 1062 340 C 1072 303 1089 272 1111 246 C 1133 220 1160 201 1192 188 C 1224 174 1260 168 1300 168 C 1344 168 1386 175 1424 191 C 1462 207 1502 227 1542 252 L 1634 104 C 1578 62 1521 30 1463 9 C 1404 -12 1340 -23 1272 -23 C 1185 -23 1112 -4 1052 32 C 992 69 947 122 915 190 C 867 121 808 68 740 32 C 672 -4 599 -23 522 -23 C 454 -23 392 -10 336 16 C 280 42 234 78 196 125 C 158 171 130 225 114 285 C 98 345 90 401 90 451 C 90 541 105 629 136 715 C 166 800 209 871 264 929 C 318 987 376 1029 438 1057 C 500 1084 563 1098 629 1098 C 712 1098 784 1079 846 1041 C 908 1003 955 950 987 883 C 1011 918 1037 949 1065 975 C 1093 1001 1124 1024 1160 1044 C 1195 1064 1231 1078 1268 1086 C 1304 1094 1339 1098 1372 1098 C 1436 1098 1493 1087 1541 1065 C 1589 1043 1630 1012 1663 974 C 1695 935 1720 889 1736 836 C 1752 783 1761 726 1761 664 C 1761 628 1758 594 1754 560 C 1749 526 1743 495 1735 465 L 1053 465 Z M 1561 635 C 1564 673 1562 709 1556 743 C 1549 776 1537 805 1520 829 C 1502 853 1480 872 1452 886 C 1424 900 1390 907 1350 907 C 1314 907 1281 900 1252 886 C 1223 872 1197 854 1175 830 C 1152 806 1133 777 1117 744 C 1101 710 1089 674 1079 635 L 1561 635 Z M 304 470 C 303 431 307 394 316 359 C 325 324 339 293 359 265 C 378 237 403 216 434 201 C 465 185 501 178 543 178 C 585 178 625 188 661 208 C 697 228 730 257 758 295 C 786 333 809 379 826 435 C 842 490 851 550 851 614 C 851 648 846 681 838 715 C 830 748 816 779 796 807 C 776 835 750 857 718 873 C 686 889 650 897 610 897 C 569 897 530 887 493 867 C 456 847 423 818 395 780 C 367 741 344 694 328 639 C 312 583 304 527 304 470 Z" unicode="œ" />
<glyph horiz-adv-x="1413" d="M 1360 1051 C 1360 991 1352 936 1336 886 C 1320 836 1295 791 1263 752 C 1231 712 1190 679 1142 651 C 1094 623 1037 602 973 588 L 1171 0 L 942 0 L 750 567 L 403 567 L 303 0 L 92 0 L 346 1434 L 895 1434 C 967 1434 1032 1426 1090 1410 C 1148 1394 1197 1371 1237 1339 C 1277 1307 1307 1268 1328 1220 C 1349 1172 1360 1115 1360 1051 Z M 1137 1036 C 1137 1096 1116 1144 1075 1179 C 1033 1213 968 1231 879 1231 L 520 1231 L 440 770 L 840 770 C 932 770 1004 791 1057 835 C 1110 879 1137 946 1137 1036 Z M 795 1526 L 627 1526 L 904 1853 L 1190 1853 L 795 1526 Z" unicode="Ŕ" />
<glyph horiz-adv-x="848" d="M 791 834 C 774 847 753 859 728 869 C 702 879 673 885 639 885 C 607 885 577 880 549 870 C 521 860 495 844 473 821 C 450 798 430 768 414 730 C 398 692 385 644 375 588 L 272 0 L 61 0 L 252 1075 L 463 1075 L 444 977 C 475 1013 512 1042 555 1064 C 597 1086 644 1098 696 1098 C 739 1098 776 1092 806 1080 C 836 1068 860 1054 879 1038 L 791 834 Z M 614 1219 L 446 1219 L 723 1546 L 1009 1546 L 614 1219 Z" unicode="ŕ" />
<glyph horiz-adv-x="1413" d="M 1360 1051 C 1360 991 1352 936 1336 886 C 1320 836 1295 791 1263 752 C 1231 712 1190 679 1142 651 C 1094 623 1037 602 973 588 L 1171 0 L 942 0 L 750 567 L 403 567 L 303 0 L 92 0 L 346 1434 L 895 1434 C 967 1434 1032 1426 1090 1410 C 1148 1394 1197 1371 1237 1339 C 1277 1307 1307 1268 1328 1220 C 1349 1172 1360 1115 1360 1051 Z M 1137 1036 C 1137 1096 1116 1144 1075 1179 C 1033 1213 968 1231 879 1231 L 520 1231 L 440 770 L 840 770 C 932 770 1004 791 1057 835 C 1110 879 1137 946 1137 1036 Z M 535 -491 L 410 -491 L 501 -98 L 717 -98 L 535 -491 Z" unicode="Ŗ" />
<glyph horiz-adv-x="848" d="M 791 834 C 774 847 753 859 728 869 C 702 879 673 885 639 885 C 607 885 577 880 549 870 C 521 860 495 844 473 821 C 450 798 430 768 414 730 C 398 692 385 644 375 588 L 272 0 L 61 0 L 252 1075 L 463 1075 L 444 977 C 475 1013 512 1042 555 1064 C 597 1086 644 1098 696 1098 C 739 1098 776 1092 806 1080 C 836 1068 860 1054 879 1038 L 791 834 Z M 81 -491 L -44 -491 L 47 -98 L 263 -98 L 81 -491 Z" unicode="ŗ" />
<glyph horiz-adv-x="1413" d="M 1360 1051 C 1360 991 1352 936 1336 886 C 1320 836 1295 791 1263 752 C 1231 712 1190 679 1142 651 C 1094 623 1037 602 973 588 L 1171 0 L 942 0 L 750 567 L 403 567 L 303 0 L 92 0 L 346 1434 L 895 1434 C 967 1434 1032 1426 1090 1410 C 1148 1394 1197 1371 1237 1339 C 1277 1307 1307 1268 1328 1220 C 1349 1172 1360 1115 1360 1051 Z M 1137 1036 C 1137 1096 1116 1144 1075 1179 C 1033 1213 968 1231 879 1231 L 520 1231 L 440 770 L 840 770 C 932 770 1004 791 1057 835 C 1110 879 1137 946 1137 1036 Z M 949 1526 L 703 1526 L 521 1853 L 682 1853 L 846 1673 L 1072 1853 L 1246 1853 L 949 1526 Z" unicode="Ř" />
<glyph horiz-adv-x="848" d="M 791 834 C 774 847 753 859 728 869 C 702 879 673 885 639 885 C 607 885 577 880 549 870 C 521 860 495 844 473 821 C 450 798 430 768 414 730 C 398 692 385 644 375 588 L 272 0 L 61 0 L 252 1075 L 463 1075 L 444 977 C 475 1013 512 1042 555 1064 C 597 1086 644 1098 696 1098 C 739 1098 776 1092 806 1080 C 836 1068 860 1054 879 1038 L 791 834 Z M 667 1219 L 421 1219 L 239 1546 L 400 1546 L 564 1366 L 790 1546 L 964 1546 L 667 1219 Z" unicode="ř" />
<glyph horiz-adv-x="1282" d="M 1051 1087 C 1029 1111 1007 1133 984 1153 C 960 1173 934 1190 906 1204 C 878 1218 847 1230 813 1238 C 779 1246 741 1251 700 1251 C 660 1251 625 1246 595 1236 C 565 1226 541 1213 521 1197 C 501 1181 485 1161 473 1137 C 461 1113 456 1088 456 1062 C 456 1040 459 1020 466 1003 C 473 985 487 968 507 950 C 527 932 555 913 593 894 C 630 875 679 854 739 831 C 798 807 852 782 902 756 C 951 729 993 698 1027 663 C 1061 627 1086 589 1100 549 C 1114 509 1122 464 1122 415 C 1122 353 1109 293 1083 235 C 1057 177 1018 129 968 90 C 918 51 861 22 798 4 C 735 -13 667 -23 594 -23 C 526 -23 465 -15 409 -1 C 353 12 302 32 257 56 C 212 80 172 108 138 140 C 104 172 75 205 53 240 L 225 379 C 251 345 276 318 301 296 C 326 274 357 254 394 236 C 430 218 467 204 505 196 C 542 188 581 184 623 184 C 660 184 695 188 728 197 C 761 206 790 219 816 237 C 842 255 862 277 878 304 C 893 331 901 361 901 394 C 901 422 896 447 886 469 C 876 491 860 511 838 530 C 816 549 786 569 747 589 C 707 609 658 630 600 653 C 537 677 482 702 436 728 C 390 754 353 780 327 808 C 300 836 279 868 263 904 C 247 940 240 987 240 1045 C 240 1113 254 1174 283 1228 C 311 1281 348 1324 393 1357 C 437 1389 489 1414 547 1431 C 605 1447 667 1456 735 1456 C 792 1456 845 1450 893 1439 C 941 1428 984 1413 1024 1394 C 1064 1374 1100 1351 1132 1324 C 1164 1296 1194 1267 1221 1235 L 1051 1087 Z M 729 1526 L 561 1526 L 838 1853 L 1124 1853 L 729 1526 Z" unicode="Ś" />
<glyph horiz-adv-x="1014" d="M 836 801 C 814 817 792 832 772 844 C 751 856 728 867 702 878 C 676 888 648 896 620 902 C 592 908 562 911 532 911 C 485 911 449 901 423 883 C 397 864 385 838 385 804 C 385 786 387 772 392 762 C 397 752 406 741 418 730 C 430 719 450 706 477 692 C 503 677 539 659 584 639 C 630 617 672 596 709 574 C 745 552 776 528 800 502 C 824 476 842 446 853 413 C 864 380 868 341 864 297 C 859 236 844 185 819 145 C 794 104 763 71 726 46 C 688 21 647 3 601 -7 C 555 -17 510 -23 465 -23 C 381 -23 303 -9 230 17 C 157 44 91 84 33 137 L 145 293 C 190 255 240 224 295 200 C 349 176 412 164 483 164 C 535 164 577 174 608 196 C 639 217 655 251 657 297 C 657 312 654 325 649 337 C 643 348 635 359 623 371 C 611 382 592 394 568 408 C 544 422 513 437 475 453 C 421 475 375 498 336 521 C 296 543 264 568 240 594 C 216 620 199 647 190 675 C 180 703 176 733 176 763 C 176 867 209 949 275 1009 C 341 1068 433 1098 551 1098 C 595 1098 636 1094 674 1087 C 712 1079 748 1070 781 1058 C 813 1046 843 1032 871 1016 C 898 1000 922 985 944 969 L 836 801 Z M 595 1219 L 427 1219 L 704 1546 L 990 1546 L 595 1219 Z" unicode="ś" />
<glyph horiz-adv-x="1282" d="" unicode="Ŝ" />
<glyph horiz-adv-x="1014" d="" unicode="ŝ" />
<glyph horiz-adv-x="1282" d="M 1051 1087 C 1029 1111 1007 1133 984 1153 C 960 1173 934 1190 906 1204 C 878 1218 847 1230 813 1238 C 779 1246 741 1251 700 1251 C 660 1251 625 1246 595 1236 C 565 1226 541 1213 521 1197 C 501 1181 485 1161 473 1137 C 461 1113 456 1088 456 1062 C 456 1040 459 1020 466 1003 C 473 985 487 968 507 950 C 527 932 555 913 593 894 C 630 875 679 854 739 831 C 798 807 852 782 902 756 C 951 729 993 698 1027 663 C 1061 627 1086 589 1100 549 C 1114 509 1122 464 1122 415 C 1122 353 1109 293 1083 235 C 1057 177 1018 129 968 90 C 918 51 861 22 798 4 C 735 -13 667 -23 594 -23 C 526 -23 465 -15 409 -1 C 353 12 302 32 257 56 C 212 80 172 108 138 140 C 104 172 75 205 53 240 L 225 379 C 251 345 276 318 301 296 C 326 274 357 254 394 236 C 430 218 467 204 505 196 C 542 188 581 184 623 184 C 660 184 695 188 728 197 C 761 206 790 219 816 237 C 842 255 862 277 878 304 C 893 331 901 361 901 394 C 901 422 896 447 886 469 C 876 491 860 511 838 530 C 816 549 786 569 747 589 C 707 609 658 630 600 653 C 537 677 482 702 436 728 C 390 754 353 780 327 808 C 300 836 279 868 263 904 C 247 940 240 987 240 1045 C 240 1113 254 1174 283 1228 C 311 1281 348 1324 393 1357 C 437 1389 489 1414 547 1431 C 605 1447 667 1456 735 1456 C 792 1456 845 1450 893 1439 C 941 1428 984 1413 1024 1394 C 1064 1374 1100 1351 1132 1324 C 1164 1296 1194 1267 1221 1235 L 1051 1087 Z M 762 -208 C 762 -239 755 -267 742 -291 C 728 -315 711 -334 690 -349 C 669 -364 644 -375 616 -383 C 587 -391 556 -395 522 -395 C 464 -395 412 -386 364 -368 C 316 -350 276 -328 244 -303 L 299 -236 C 327 -256 358 -271 390 -283 C 422 -295 458 -301 498 -301 C 532 -301 559 -295 580 -283 C 601 -271 612 -253 614 -227 C 616 -207 612 -191 602 -181 C 592 -171 575 -166 553 -166 C 537 -166 524 -167 512 -171 C 500 -175 487 -180 475 -188 L 405 -160 L 494 39 L 594 39 L 537 -94 C 548 -88 560 -84 574 -81 C 588 -77 604 -76 623 -76 C 666 -76 700 -87 725 -111 C 749 -134 762 -166 762 -208 Z" unicode="Ş" />
<glyph horiz-adv-x="1014" d="M 836 801 C 814 817 792 832 772 844 C 751 856 728 867 702 878 C 676 888 648 896 620 902 C 592 908 562 911 532 911 C 485 911 449 901 423 883 C 397 864 385 838 385 804 C 385 786 387 772 392 762 C 397 752 406 741 418 730 C 430 719 450 706 477 692 C 503 677 539 659 584 639 C 630 617 672 596 709 574 C 745 552 776 528 800 502 C 824 476 842 446 853 413 C 864 380 868 341 864 297 C 859 236 844 185 819 145 C 794 104 763 71 726 46 C 688 21 647 3 601 -7 C 555 -17 510 -23 465 -23 C 381 -23 303 -9 230 17 C 157 44 91 84 33 137 L 145 293 C 190 255 240 224 295 200 C 349 176 412 164 483 164 C 535 164 577 174 608 196 C 639 217 655 251 657 297 C 657 312 654 325 649 337 C 643 348 635 359 623 371 C 611 382 592 394 568 408 C 544 422 513 437 475 453 C 421 475 375 498 336 521 C 296 543 264 568 240 594 C 216 620 199 647 190 675 C 180 703 176 733 176 763 C 176 867 209 949 275 1009 C 341 1068 433 1098 551 1098 C 595 1098 636 1094 674 1087 C 712 1079 748 1070 781 1058 C 813 1046 843 1032 871 1016 C 898 1000 922 985 944 969 L 836 801 Z M 628 -208 C 628 -239 621 -267 608 -291 C 594 -315 577 -334 556 -349 C 535 -364 510 -375 482 -383 C 453 -391 422 -395 388 -395 C 330 -395 278 -386 230 -368 C 182 -350 142 -328 110 -303 L 165 -236 C 193 -256 224 -271 256 -283 C 288 -295 324 -301 364 -301 C 398 -301 425 -295 446 -283 C 467 -271 478 -253 480 -227 C 482 -207 478 -191 468 -181 C 458 -171 441 -166 419 -166 C 403 -166 390 -167 378 -171 C 366 -175 353 -180 341 -188 L 271 -160 L 360 39 L 460 39 L 403 -94 C 414 -88 426 -84 440 -81 C 454 -77 470 -76 489 -76 C 532 -76 566 -87 591 -111 C 615 -134 628 -166 628 -208 Z" unicode="ş" />
<glyph horiz-adv-x="1282" d="M 1051 1087 C 1029 1111 1007 1133 984 1153 C 960 1173 934 1190 906 1204 C 878 1218 847 1230 813 1238 C 779 1246 741 1251 700 1251 C 660 1251 625 1246 595 1236 C 565 1226 541 1213 521 1197 C 501 1181 485 1161 473 1137 C 461 1113 456 1088 456 1062 C 456 1040 459 1020 466 1003 C 473 985 487 968 507 950 C 527 932 555 913 593 894 C 630 875 679 854 739 831 C 798 807 852 782 902 756 C 951 729 993 698 1027 663 C 1061 627 1086 589 1100 549 C 1114 509 1122 464 1122 415 C 1122 353 1109 293 1083 235 C 1057 177 1018 129 968 90 C 918 51 861 22 798 4 C 735 -13 667 -23 594 -23 C 526 -23 465 -15 409 -1 C 353 12 302 32 257 56 C 212 80 172 108 138 140 C 104 172 75 205 53 240 L 225 379 C 251 345 276 318 301 296 C 326 274 357 254 394 236 C 430 218 467 204 505 196 C 542 188 581 184 623 184 C 660 184 695 188 728 197 C 761 206 790 219 816 237 C 842 255 862 277 878 304 C 893 331 901 361 901 394 C 901 422 896 447 886 469 C 876 491 860 511 838 530 C 816 549 786 569 747 589 C 707 609 658 630 600 653 C 537 677 482 702 436 728 C 390 754 353 780 327 808 C 300 836 279 868 263 904 C 247 940 240 987 240 1045 C 240 1113 254 1174 283 1228 C 311 1281 348 1324 393 1357 C 437 1389 489 1414 547 1431 C 605 1447 667 1456 735 1456 C 792 1456 845 1450 893 1439 C 941 1428 984 1413 1024 1394 C 1064 1374 1100 1351 1132 1324 C 1164 1296 1194 1267 1221 1235 L 1051 1087 Z M 914 1541 L 668 1541 L 486 1868 L 647 1868 L 811 1688 L 1037 1868 L 1211 1868 L 914 1541 Z" unicode="Š" />
<glyph horiz-adv-x="1014" d="M 836 801 C 814 817 792 832 772 844 C 751 856 728 867 702 878 C 676 888 648 896 620 902 C 592 908 562 911 532 911 C 485 911 449 901 423 883 C 397 864 385 838 385 804 C 385 786 387 772 392 762 C 397 752 406 741 418 730 C 430 719 450 706 477 692 C 503 677 539 659 584 639 C 630 617 672 596 709 574 C 745 552 776 528 800 502 C 824 476 842 446 853 413 C 864 380 868 341 864 297 C 859 236 844 185 819 145 C 794 104 763 71 726 46 C 688 21 647 3 601 -7 C 555 -17 510 -23 465 -23 C 381 -23 303 -9 230 17 C 157 44 91 84 33 137 L 145 293 C 190 255 240 224 295 200 C 349 176 412 164 483 164 C 535 164 577 174 608 196 C 639 217 655 251 657 297 C 657 312 654 325 649 337 C 643 348 635 359 623 371 C 611 382 592 394 568 408 C 544 422 513 437 475 453 C 421 475 375 498 336 521 C 296 543 264 568 240 594 C 216 620 199 647 190 675 C 180 703 176 733 176 763 C 176 867 209 949 275 1009 C 341 1068 433 1098 551 1098 C 595 1098 636 1094 674 1087 C 712 1079 748 1070 781 1058 C 813 1046 843 1032 871 1016 C 898 1000 922 985 944 969 L 836 801 Z M 739 1219 L 493 1219 L 311 1546 L 472 1546 L 636 1366 L 862 1546 L 1036 1546 L 739 1219 Z" unicode="š" />
<glyph horiz-adv-x="1235" d="M 1260 1223 L 846 1223 L 631 0 L 416 0 L 631 1223 L 217 1223 L 254 1434 L 1296 1434 L 1260 1223 Z M 754 -208 C 754 -239 747 -267 734 -291 C 720 -315 703 -334 682 -349 C 661 -364 636 -375 608 -383 C 579 -391 548 -395 514 -395 C 456 -395 404 -386 356 -368 C 308 -350 268 -328 236 -303 L 291 -236 C 319 -256 350 -271 382 -283 C 414 -295 450 -301 490 -301 C 524 -301 551 -295 572 -283 C 593 -271 604 -253 606 -227 C 608 -207 604 -191 594 -181 C 584 -171 567 -166 545 -166 C 529 -166 516 -167 504 -171 C 492 -175 479 -180 467 -188 L 397 -160 L 486 39 L 586 39 L 529 -94 C 540 -88 552 -84 566 -81 C 580 -77 596 -76 615 -76 C 658 -76 692 -87 717 -111 C 741 -134 754 -166 754 -208 Z" unicode="Ţ" />
<glyph horiz-adv-x="817" d="M 743 883 L 489 883 L 389 307 C 387 297 385 287 384 277 C 383 267 383 258 383 250 C 383 222 391 202 408 190 C 424 178 448 172 479 172 C 512 172 540 176 564 184 C 587 192 610 203 633 219 L 571 18 C 544 4 515 -6 485 -13 C 455 -19 427 -23 401 -23 C 323 -23 264 -4 225 33 C 185 71 166 124 166 193 C 166 207 168 232 174 266 L 283 883 L 129 883 L 164 1075 L 317 1075 L 371 1378 L 598 1493 L 524 1075 L 778 1075 L 743 883 Z M 530 -208 C 530 -239 523 -267 510 -291 C 496 -315 479 -334 458 -349 C 437 -364 412 -375 384 -383 C 355 -391 324 -395 290 -395 C 232 -395 180 -386 132 -368 C 84 -350 44 -328 12 -303 L 67 -236 C 95 -256 126 -271 158 -283 C 190 -295 226 -301 266 -301 C 300 -301 327 -295 348 -283 C 369 -271 380 -253 382 -227 C 384 -207 380 -191 370 -181 C 360 -171 343 -166 321 -166 C 305 -166 292 -167 280 -171 C 268 -175 255 -180 243 -188 L 173 -160 L 262 39 L 362 39 L 305 -94 C 316 -88 328 -84 342 -81 C 356 -77 372 -76 391 -76 C 434 -76 468 -87 493 -111 C 517 -134 530 -166 530 -208 Z" unicode="ţ" />
<glyph horiz-adv-x="1235" d="M 1260 1223 L 846 1223 L 631 0 L 416 0 L 631 1223 L 217 1223 L 254 1434 L 1296 1434 L 1260 1223 Z M 899 1526 L 653 1526 L 471 1853 L 632 1853 L 796 1673 L 1022 1853 L 1196 1853 L 899 1526 Z" unicode="Ť" />
<glyph horiz-adv-x="817" d="M 743 883 L 489 883 L 389 307 C 387 297 385 287 384 277 C 383 267 383 258 383 250 C 383 222 391 202 408 190 C 424 178 448 172 479 172 C 512 172 540 176 564 184 C 587 192 610 203 633 219 L 571 18 C 544 4 515 -6 485 -13 C 455 -19 427 -23 401 -23 C 323 -23 264 -4 225 33 C 185 71 166 124 166 193 C 166 207 168 232 174 266 L 283 883 L 129 883 L 164 1075 L 317 1075 L 371 1378 L 598 1493 L 524 1075 L 778 1075 L 743 883 Z M 785 1145 L 671 1145 L 768 1560 L 986 1560 L 785 1145 Z" unicode="ť" />
<glyph horiz-adv-x="1235" d="" unicode="Ŧ" />
<glyph horiz-adv-x="817" d="" unicode="ŧ" />
<glyph horiz-adv-x="1434" d="" unicode="Ũ" />
<glyph horiz-adv-x="1159" d="" unicode="ũ" />
<glyph horiz-adv-x="1434" d="M 1266 580 C 1248 484 1224 398 1194 324 C 1164 249 1125 186 1077 135 C 1029 83 971 44 904 17 C 837 -9 759 -23 670 -23 C 592 -23 522 -12 461 8 C 399 29 347 60 305 100 C 262 140 229 190 207 250 C 185 309 174 377 174 455 C 175 478 177 504 180 534 C 183 563 187 593 193 623 L 336 1434 L 551 1434 L 408 623 C 403 597 399 573 397 549 C 394 525 393 503 393 483 C 393 385 418 311 468 261 C 518 211 592 186 688 186 C 743 186 791 195 831 213 C 871 231 905 257 935 292 C 964 326 987 366 1005 411 C 1023 456 1039 518 1055 596 L 1202 1434 L 1417 1434 L 1266 580 Z M 1184 1556 L 610 1556 L 641 1741 L 1214 1741 L 1184 1556 Z" unicode="Ū" />
<glyph horiz-adv-x="1159" d="M 117 311 C 117 331 118 353 121 377 C 123 401 127 425 131 449 L 242 1075 L 453 1075 L 348 475 C 344 456 342 438 340 420 C 338 402 338 386 338 371 C 338 303 351 252 378 220 C 404 188 449 172 512 172 C 544 172 575 178 604 191 C 633 203 659 222 683 248 C 707 273 727 305 744 343 C 760 381 773 425 782 477 L 887 1075 L 1098 1075 L 907 0 L 696 0 L 713 92 C 669 48 626 18 584 2 C 542 -14 496 -23 446 -23 C 340 -23 259 5 202 61 C 145 117 117 201 117 311 Z M 992 1249 L 418 1249 L 449 1434 L 1022 1434 L 992 1249 Z" unicode="ū" />
<glyph horiz-adv-x="1434" d="" unicode="Ŭ" />
<glyph horiz-adv-x="1159" d="" unicode="ŭ" />
<glyph horiz-adv-x="1434" d="M 1266 580 C 1248 484 1224 398 1194 324 C 1164 249 1125 186 1077 135 C 1029 83 971 44 904 17 C 837 -9 759 -23 670 -23 C 592 -23 522 -12 461 8 C 399 29 347 60 305 100 C 262 140 229 190 207 250 C 185 309 174 377 174 455 C 175 478 177 504 180 534 C 183 563 187 593 193 623 L 336 1434 L 551 1434 L 408 623 C 403 597 399 573 397 549 C 394 525 393 503 393 483 C 393 385 418 311 468 261 C 518 211 592 186 688 186 C 743 186 791 195 831 213 C 871 231 905 257 935 292 C 964 326 987 366 1005 411 C 1023 456 1039 518 1055 596 L 1202 1434 L 1417 1434 L 1266 580 Z M 1161 1782 C 1161 1744 1154 1710 1141 1679 C 1128 1648 1110 1621 1087 1598 C 1064 1575 1037 1557 1005 1545 C 973 1532 939 1526 903 1526 C 865 1526 831 1532 800 1545 C 768 1557 741 1575 718 1598 C 695 1621 677 1648 664 1679 C 651 1710 645 1744 645 1782 C 645 1818 651 1852 664 1884 C 677 1916 695 1943 718 1966 C 741 1989 768 2007 800 2020 C 831 2033 865 2040 903 2040 C 939 2040 973 2033 1005 2020 C 1037 2007 1064 1989 1087 1966 C 1110 1943 1128 1916 1141 1884 C 1154 1852 1161 1818 1161 1782 Z M 1028 1782 C 1028 1800 1024 1816 1018 1832 C 1012 1848 1003 1861 992 1873 C 980 1884 967 1893 952 1899 C 937 1905 921 1909 903 1909 C 885 1909 868 1905 853 1899 C 837 1893 824 1884 813 1873 C 802 1861 793 1848 787 1832 C 781 1816 778 1800 778 1782 C 778 1763 781 1746 787 1731 C 793 1715 802 1702 813 1691 C 824 1679 837 1670 853 1664 C 868 1658 885 1655 903 1655 C 921 1655 937 1658 952 1664 C 967 1670 980 1679 992 1691 C 1003 1702 1012 1715 1018 1731 C 1024 1746 1028 1763 1028 1782 Z" unicode="Ů" />
<glyph horiz-adv-x="1159" d="M 117 311 C 117 331 118 353 121 377 C 123 401 127 425 131 449 L 242 1075 L 453 1075 L 348 475 C 344 456 342 438 340 420 C 338 402 338 386 338 371 C 338 303 351 252 378 220 C 404 188 449 172 512 172 C 544 172 575 178 604 191 C 633 203 659 222 683 248 C 707 273 727 305 744 343 C 760 381 773 425 782 477 L 887 1075 L 1098 1075 L 907 0 L 696 0 L 713 92 C 669 48 626 18 584 2 C 542 -14 496 -23 446 -23 C 340 -23 259 5 202 61 C 145 117 117 201 117 311 Z M 1000 1475 C 1000 1437 993 1403 980 1372 C 967 1341 949 1314 926 1291 C 903 1268 876 1250 844 1238 C 812 1225 778 1219 742 1219 C 704 1219 670 1225 639 1238 C 607 1250 580 1268 557 1291 C 534 1314 516 1341 503 1372 C 490 1403 484 1437 484 1475 C 484 1511 490 1545 503 1577 C 516 1609 534 1636 557 1659 C 580 1682 607 1700 639 1713 C 670 1726 704 1733 742 1733 C 778 1733 812 1726 844 1713 C 876 1700 903 1682 926 1659 C 949 1636 967 1609 980 1577 C 993 1545 1000 1511 1000 1475 Z M 867 1475 C 867 1493 863 1509 857 1525 C 851 1541 842 1554 831 1566 C 819 1577 806 1586 791 1592 C 776 1598 760 1602 742 1602 C 724 1602 707 1598 692 1592 C 676 1586 663 1577 652 1566 C 641 1554 632 1541 626 1525 C 620 1509 617 1493 617 1475 C 617 1456 620 1439 626 1424 C 632 1408 641 1395 652 1384 C 663 1372 676 1363 692 1357 C 707 1351 724 1348 742 1348 C 760 1348 776 1351 791 1357 C 806 1363 819 1372 831 1384 C 842 1395 851 1408 857 1424 C 863 1439 867 1456 867 1475 Z" unicode="ů" />
<glyph horiz-adv-x="1434" d="M 1266 580 C 1248 484 1224 398 1194 324 C 1164 249 1125 186 1077 135 C 1029 83 971 44 904 17 C 837 -9 759 -23 670 -23 C 592 -23 522 -12 461 8 C 399 29 347 60 305 100 C 262 140 229 190 207 250 C 185 309 174 377 174 455 C 175 478 177 504 180 534 C 183 563 187 593 193 623 L 336 1434 L 551 1434 L 408 623 C 403 597 399 573 397 549 C 394 525 393 503 393 483 C 393 385 418 311 468 261 C 518 211 592 186 688 186 C 743 186 791 195 831 213 C 871 231 905 257 935 292 C 964 326 987 366 1005 411 C 1023 456 1039 518 1055 596 L 1202 1434 L 1417 1434 L 1266 580 Z M 1161 1526 L 993 1526 L 1270 1853 L 1556 1853 L 1161 1526 Z M 741 1526 L 573 1526 L 850 1853 L 1136 1853 L 741 1526 Z" unicode="Ű" />
<glyph horiz-adv-x="1159" d="M 117 311 C 117 331 118 353 121 377 C 123 401 127 425 131 449 L 242 1075 L 453 1075 L 348 475 C 344 456 342 438 340 420 C 338 402 338 386 338 371 C 338 303 351 252 378 220 C 404 188 449 172 512 172 C 544 172 575 178 604 191 C 633 203 659 222 683 248 C 707 273 727 305 744 343 C 760 381 773 425 782 477 L 887 1075 L 1098 1075 L 907 0 L 696 0 L 713 92 C 669 48 626 18 584 2 C 542 -14 496 -23 446 -23 C 340 -23 259 5 202 61 C 145 117 117 201 117 311 Z M 963 1219 L 795 1219 L 1072 1546 L 1358 1546 L 963 1219 Z M 543 1219 L 375 1219 L 652 1546 L 938 1546 L 543 1219 Z" unicode="ű" />
<glyph horiz-adv-x="1434" d="M 623 -195 C 623 -206 626 -216 632 -224 C 638 -232 648 -236 662 -236 C 673 -236 683 -232 693 -225 C 703 -218 711 -211 719 -203 L 813 -276 C 789 -316 759 -348 723 -373 C 686 -397 644 -410 598 -410 C 574 -410 551 -406 531 -399 C 510 -392 492 -382 477 -369 C 461 -356 449 -340 440 -321 C 431 -302 427 -281 427 -257 C 427 -231 432 -206 443 -183 C 454 -159 468 -138 486 -118 C 504 -98 523 -79 544 -63 C 565 -46 586 -32 606 -20 C 538 -14 477 0 423 23 C 369 46 324 78 287 118 C 250 158 222 207 203 263 C 183 319 174 383 174 455 C 175 478 177 504 180 534 C 183 563 187 593 193 623 L 336 1434 L 551 1434 L 408 623 C 403 597 399 573 397 549 C 394 525 393 503 393 483 C 393 437 398 396 410 360 C 421 324 439 293 463 267 C 487 241 517 221 554 207 C 591 193 636 186 688 186 C 742 186 790 195 831 213 C 871 231 906 258 935 292 C 963 326 987 366 1005 411 C 1023 455 1040 517 1055 596 L 1202 1434 L 1417 1434 L 1266 580 C 1252 501 1233 429 1210 365 C 1187 301 1159 244 1125 196 C 1091 147 1052 106 1006 73 C 960 40 908 16 848 0 C 829 -8 807 -19 781 -32 C 755 -45 731 -60 707 -76 C 683 -92 663 -111 647 -132 C 631 -152 623 -173 623 -195 Z" unicode="Ų" />
<glyph horiz-adv-x="1159" d="M 117 311 C 117 331 118 353 121 377 C 123 401 127 425 131 449 L 242 1075 L 453 1075 L 348 475 C 344 456 342 438 340 420 C 338 402 338 386 338 371 C 338 303 351 252 378 220 C 404 188 449 172 512 172 C 544 172 575 178 604 191 C 633 203 659 222 683 248 C 707 273 727 305 744 343 C 760 381 773 425 782 477 L 887 1075 L 1098 1075 L 907 0 L 696 0 L 713 92 C 669 48 626 18 584 2 C 542 -14 496 -23 446 -23 C 340 -23 259 5 202 61 C 145 117 117 201 117 311 Z M 907 0 C 893 -3 873 -11 847 -24 C 821 -36 796 -52 771 -70 C 745 -88 723 -108 705 -130 C 686 -152 677 -173 677 -195 C 677 -206 680 -216 686 -224 C 692 -232 702 -236 716 -236 C 727 -236 738 -232 748 -225 C 758 -218 766 -211 774 -203 L 868 -276 C 844 -316 814 -348 779 -373 C 743 -397 701 -410 653 -410 C 605 -410 565 -396 532 -370 C 498 -343 482 -305 482 -257 C 482 -227 488 -199 502 -173 C 516 -147 533 -123 554 -101 C 575 -79 598 -60 623 -43 C 648 -26 672 -12 696 0 L 907 0 Z" unicode="ų" />
<glyph horiz-adv-x="1759" d="" unicode="Ŵ" />
<glyph horiz-adv-x="1509" d="" unicode="ŵ" />
<glyph horiz-adv-x="1403" d="" unicode="Ŷ" />
<glyph horiz-adv-x="1128" d="" unicode="ŷ" />
<glyph horiz-adv-x="1403" d="M 813 565 L 715 0 L 500 0 L 600 567 L 244 1434 L 483 1434 L 741 783 L 1229 1434 L 1479 1434 L 813 565 Z M 1210 1643 C 1210 1624 1206 1606 1199 1590 C 1191 1573 1181 1558 1169 1546 C 1156 1534 1141 1524 1125 1517 C 1109 1509 1091 1506 1073 1506 C 1053 1506 1035 1509 1019 1517 C 1002 1524 987 1534 975 1546 C 962 1558 952 1573 945 1590 C 937 1606 934 1624 934 1643 C 934 1661 937 1679 945 1696 C 952 1713 962 1728 975 1741 C 987 1753 1002 1763 1019 1771 C 1035 1778 1053 1782 1073 1782 C 1091 1782 1109 1778 1125 1771 C 1141 1763 1156 1753 1169 1741 C 1181 1728 1191 1713 1199 1696 C 1206 1679 1210 1661 1210 1643 Z M 811 1643 C 811 1624 807 1606 800 1590 C 792 1573 782 1558 770 1546 C 757 1534 742 1524 726 1517 C 709 1509 692 1506 674 1506 C 654 1506 636 1509 620 1517 C 603 1524 588 1534 575 1546 C 562 1558 552 1573 545 1590 C 537 1606 534 1624 534 1643 C 534 1661 537 1679 545 1696 C 552 1713 562 1728 575 1741 C 588 1753 603 1763 620 1771 C 636 1778 654 1782 674 1782 C 692 1782 709 1778 726 1771 C 742 1763 757 1753 770 1741 C 782 1728 792 1713 800 1696 C 807 1679 811 1661 811 1643 Z" unicode="Ÿ" />
<glyph horiz-adv-x="1352" d="M 1309 1237 L 334 199 L 1147 199 L 1112 0 L 31 0 L 63 195 L 1044 1235 L 291 1235 L 326 1434 L 1341 1434 L 1309 1237 Z M 764 1526 L 596 1526 L 873 1853 L 1159 1853 L 764 1526 Z" unicode="Ź" />
<glyph horiz-adv-x="1055" d="M 989 915 L 328 184 L 879 184 L 846 0 L 27 0 L 53 160 L 724 891 L 215 891 L 244 1075 L 1016 1075 L 989 915 Z M 614 1219 L 446 1219 L 723 1546 L 1009 1546 L 614 1219 Z" unicode="ź" />
<glyph horiz-adv-x="1352" d="M 1309 1237 L 334 199 L 1147 199 L 1112 0 L 31 0 L 63 195 L 1044 1235 L 291 1235 L 326 1434 L 1341 1434 L 1309 1237 Z M 957 1663 C 957 1644 953 1626 946 1610 C 938 1593 928 1578 916 1566 C 903 1554 888 1544 872 1537 C 855 1529 837 1526 819 1526 C 800 1526 782 1529 765 1537 C 748 1544 733 1554 721 1566 C 708 1578 698 1593 691 1610 C 683 1626 680 1644 680 1663 C 680 1681 683 1699 691 1716 C 698 1733 708 1748 721 1761 C 733 1773 748 1783 765 1791 C 782 1798 800 1802 819 1802 C 837 1802 855 1798 872 1791 C 888 1783 903 1773 916 1761 C 928 1748 938 1733 946 1716 C 953 1699 957 1681 957 1663 Z" unicode="Ż" />
<glyph horiz-adv-x="1055" d="M 989 915 L 328 184 L 879 184 L 846 0 L 27 0 L 53 160 L 724 891 L 215 891 L 244 1075 L 1016 1075 L 989 915 Z M 807 1356 C 807 1337 803 1319 796 1303 C 788 1286 778 1271 766 1259 C 753 1247 738 1237 722 1230 C 705 1222 687 1219 669 1219 C 650 1219 632 1222 615 1230 C 598 1237 583 1247 571 1259 C 558 1271 548 1286 541 1303 C 533 1319 530 1337 530 1356 C 530 1374 533 1392 541 1409 C 548 1426 558 1441 571 1454 C 583 1466 598 1476 615 1484 C 632 1491 650 1495 669 1495 C 687 1495 705 1491 722 1484 C 738 1476 753 1466 766 1454 C 778 1441 788 1426 796 1409 C 803 1392 807 1374 807 1356 Z" unicode="ż" />
<glyph horiz-adv-x="1352" d="M 1309 1237 L 334 199 L 1147 199 L 1112 0 L 31 0 L 63 195 L 1044 1235 L 291 1235 L 326 1434 L 1341 1434 L 1309 1237 Z M 955 1526 L 709 1526 L 527 1853 L 688 1853 L 852 1673 L 1078 1853 L 1252 1853 L 955 1526 Z" unicode="Ž" />
<glyph horiz-adv-x="1055" d="M 989 915 L 328 184 L 879 184 L 846 0 L 27 0 L 53 160 L 724 891 L 215 891 L 244 1075 L 1016 1075 L 989 915 Z M 785 1219 L 539 1219 L 357 1546 L 518 1546 L 682 1366 L 908 1546 L 1082 1546 L 785 1219 Z" unicode="ž" />
<glyph horiz-adv-x="733" d="" unicode="ſ" />
<glyph horiz-adv-x="1270" d="M 1138 1260 C 1119 1267 1094 1273 1062 1277 C 1030 1281 994 1284 954 1284 C 900 1284 857 1272 826 1250 C 795 1227 774 1191 763 1141 L 747 1059 L 1056 1059 L 1019 885 L 712 885 L 522 0 L 309 0 L 499 885 L 260 885 L 296 1059 L 534 1059 L 552 1143 C 563 1199 580 1246 602 1286 C 624 1326 652 1358 686 1383 C 719 1408 758 1426 802 1438 C 846 1450 895 1456 950 1456 C 999 1456 1043 1453 1082 1448 C 1120 1443 1151 1437 1175 1430 L 1138 1260 Z" unicode="ƒ" />
<glyph horiz-adv-x="1448" d="" unicode="Ǻ" />
<glyph horiz-adv-x="1110" d="" unicode="ǻ" />
<glyph horiz-adv-x="2085" d="" unicode="Ǽ" />
<glyph horiz-adv-x="1747" d="" unicode="ǽ" />
<glyph horiz-adv-x="1448" d="" unicode="Ǿ" />
<glyph horiz-adv-x="1159" d="" unicode="ǿ" />
<glyph horiz-adv-x="1282" d="" unicode="Ș" />
<glyph horiz-adv-x="1014" d="" unicode="ș" />
<glyph horiz-adv-x="1235" d="" unicode="Ț" />
<glyph horiz-adv-x="817" d="" unicode="ț" />
<glyph horiz-adv-x="1024" d="M 831 1219 L 668 1399 L 442 1219 L 268 1219 L 565 1546 L 811 1546 L 993 1219 L 831 1219 Z" unicode="ˆ" />
<glyph horiz-adv-x="1024" d="M 754 1219 L 508 1219 L 326 1546 L 487 1546 L 651 1366 L 877 1546 L 1051 1546 L 754 1219 Z" unicode="ˇ" />
</font>
</defs>
</svg>
