<?xml version="1.0" encoding="UTF-8"?><svg xmlns="http://www.w3.org/2000/svg" width="100%" height="100%"><defs><font id="web" horiz-adv-x="1246"><!--



NOTICE: This font software is the valuable property 
of Webtype LLC, The Font Bureau, Webtype and/or its 
suppliers and its use by you is covered under the terms 
of the Web Font license agreement between you and Webtype 
LLC. You may ONLY use this font software with the licensed 
web site. Except as specifically permitted by the license, 
you may not copy this font software. If you have any 
questions, please contact Webtype.com. 

For more information, please visit http://www.webtype.com/store/license/?id=23

Licensed to: mazdausa.com

Serial number: SH-1164
--><font-face font-family="" units-per-em="2048" panose-1="2 0 8 3 3 0 0 2 0 4" ascent="1966" descent="-492" alphabetic="0"/><missing-glyph horiz-adv-x="1024"/><glyph unicode=" " horiz-adv-x="594"/><glyph unicode="!" horiz-adv-x="696" d="M444 451H252L205 844V1434H492V844L444 451ZM522 152Q522 116 508 85T470 29T415 -9T348 -23Q313 -23 282 -9T226 29T188 84T174 152Q174 187 188 218T226 274T281 312T348 326Q383 326 414 312T470 274T508 219T522 152Z"/><glyph unicode="&quot;" horiz-adv-x="1081" d="M893 764H698L627 1434H965L893 764ZM383 764H188L117 1434H455L383 764Z"/><glyph unicode="#" horiz-adv-x="1270" d="M1001 311V0H758V311H512V0H268V311H86V524H268V909H86V1122H268V1434H512V1122H758V1434H1001V1122H1184V909H1001V524H1184V311H1001ZM766 915H506V518H766V915Z"/><glyph unicode="$" horiz-adv-x="1270" d="M1159 416Q1159 330 1133 261T1056 140T935 55T776 8V-199H489V4Q429 14 377 29T270 69T170 122T84 184L246 399Q287 366 334 338T432 289T534 256T633 244Q748 244 806 281T864 397Q864 430 852 456T808 505T723 551T586 598Q463 635 376 673T233 760T151 876T125 1036Q125 1114 150 1179T223 1294T339 1378T492 1427V1632H776V1430Q832 1422 881 1408T976 1373T1058 1329T1137 1274L977 1057Q932 1090 890 1115T804 1156T714 1181T616 1190Q562 1190 524 1180T463 1151T429 1108T418 1055Q418 1024 429 1000T471 954T556 911T694 864Q821 826 909 786T1053 693T1134 574T1159 416Z"/><glyph unicode="%" horiz-adv-x="1270" d="M537 1063Q537 879 471 773T293 666Q184 666 118 768T51 1059Q51 1247 119 1351T297 1456Q407 1456 472 1354T537 1063ZM365 1059Q365 1184 347 1242T293 1300Q255 1300 239 1243T223 1063Q223 937 242 879T297 821Q334 821 349 879T365 1059ZM360 0H195L909 1434H1075L360 0ZM1219 375Q1219 191 1153 85T975 -22Q866 -22 800 80T733 371Q733 559 801 663T979 768Q1089 768 1154 666T1219 375ZM1047 371Q1047 496 1029 554T975 612Q937 612 921 555T905 375Q905 249 924 191T979 133Q1016 133 1031 191T1047 371Z"/><glyph unicode="&amp;" horiz-adv-x="1434" d="M1409 0H1081L973 117Q888 48 785 13T555 -23Q445 -23 358 0T210 70T117 189T84 358Q84 433 104 494T162 606T254 696T377 770L340 811Q283 874 249 944T215 1102Q215 1189 247 1255T337 1366T472 1433T641 1456Q707 1456 763 1446T870 1418T969 1371T1069 1307L932 1100Q861 1154 786 1178T633 1202Q570 1202 534 1178T498 1108Q498 1062 518 1028T573 952L969 502Q1017 600 1069 739L1300 666Q1266 560 1227 471T1139 307L1409 0ZM809 295L528 602Q444 558 408 503T371 383Q371 314 425 273T588 231Q721 231 809 295Z"/><glyph unicode="'" horiz-adv-x="582" d="M393 764H188L117 1434H465L393 764Z"/><glyph unicode="(" horiz-adv-x="1270" d="M938 -225Q813 -159 731 -100T600 6T498 115T407 253T343 414T319 625Q319 723 342 815T407 987T499 1129T599 1237T731 1342T938 1468L1059 1337Q957 1263 880 1189T750 1031T672 847T645 625Q645 497 671 397T750 212T879 53T1059 -94L938 -225Z"/><glyph unicode=")" horiz-adv-x="1270" d="M950 631Q950 520 927 427T861 254T770 114T671 6T539 -99T332 -225L211 -94Q313 -21 390 53T520 211T598 396T625 625Q625 748 599 847T521 1030T391 1189T211 1337L332 1468Q460 1399 538 1343T668 1239T770 1129T863 989T927 820T950 631Z"/><glyph unicode="*" horiz-adv-x="1024" d="M899 926L803 766L588 909L606 649H418L436 913L217 768L125 928L377 1042L125 1157L217 1319L436 1171L418 1434H606L588 1174L803 1321L899 1159L641 1044L899 926Z"/><glyph unicode="+" horiz-adv-x="1270" d="M778 569V180H492V569H125V840H492V1229H778V840H1145V569H778Z"/><glyph unicode="," horiz-adv-x="635" d="M342 -250H143L172 354H514L342 -250Z"/><glyph unicode="-" horiz-adv-x="834" d="M123 602V885H711V602H123Z"/><glyph unicode="." horiz-adv-x="635" d="M514 174Q514 132 499 96T458 33T395 -8T317 -23Q275 -23 239 -8T177 33T136 95T121 174Q121 216 136 252T177 314T239 354T317 369Q359 369 395 355T457 314T499 252T514 174Z"/><glyph unicode="/" horiz-adv-x="963" d="M287 -184H8L676 1618H954L287 -184Z"/><glyph unicode="0" horiz-adv-x="1270" d="M1182 719Q1182 538 1142 400T1030 167T856 25T633 -23Q511 -23 411 24T239 165T128 396T88 715Q88 896 128 1034T240 1266T414 1408T637 1456Q758 1456 858 1409T1031 1268T1142 1037T1182 719ZM891 719Q891 857 871 951T816 1100T735 1182T633 1208Q577 1208 532 1182T452 1101T398 951T379 719Q379 585 397 491T450 340T530 254T637 225Q694 225 740 254T820 339T872 490T891 719Z"/><glyph unicode="1" horiz-adv-x="1270" d="M203 0V233H532V1049H231V1243Q313 1246 372 1257T472 1291T537 1349T575 1434H821V233H1120V0H203Z"/><glyph unicode="2" horiz-adv-x="1270" d="M100 0Q106 160 143 278T245 489T401 653T606 793Q677 836 721 868T791 929T825 986T834 1051Q834 1125 783 1166T631 1208Q579 1208 533 1199T445 1172T361 1126T276 1061L119 1255Q172 1300 227 1337T345 1401T480 1441T637 1456Q748 1456 837 1431T988 1357T1083 1237T1116 1071Q1116 998 1100 941T1046 831T943 730T784 623Q682 560 615 510T507 415T445 330T414 246H1126V0H100Z"/><glyph unicode="3" horiz-adv-x="1270" d="M1149 432Q1149 319 1111 234T1002 92T828 6T598 -23Q515 -23 441 -7T302 38T180 107T76 197L250 379Q324 308 411 266T604 223Q739 223 802 276T866 428Q866 476 851 515T804 578T724 616T608 629H465V864H602Q713 864 762 909T811 1040Q811 1079 799 1111T759 1166T690 1201T586 1214Q496 1214 423 1180T283 1085L123 1268Q163 1305 212 1339T319 1399T446 1440T594 1456Q705 1456 797 1434T955 1364T1059 1244T1096 1071Q1096 1008 1081 960T1040 874T978 809T901 762Q949 749 994 724T1073 658T1128 562T1149 432Z"/><glyph unicode="4" horiz-adv-x="1270" d="M1030 293V0H778V299H74V508L750 1434H1030V530H1194V293H1030ZM778 1086L381 530H778V1086Z"/><glyph unicode="5" horiz-adv-x="1270" d="M1161 489Q1161 363 1123 268T1012 108T837 10T604 -23Q451 -23 329 26T102 160L250 360Q333 295 425 258T614 221Q687 221 738 239T819 289T866 367T883 479Q883 595 824 656T649 717Q607 717 573 711T509 693T454 665T403 627L154 707L199 1434H1085V1190H434L414 881Q471 915 539 933T698 952Q809 952 895 922T1040 832T1130 687T1161 489Z"/><glyph unicode="6" horiz-adv-x="1270" d="M1188 467Q1188 349 1148 258T1035 104T859 10T629 -23Q513 -23 415 11T246 115T136 293T96 547Q96 646 115 749T178 951T289 1137T456 1293T684 1404T979 1458L1004 1221Q772 1202 610 1098T377 797Q408 822 444 843T522 879T616 902T731 911Q830 911 914 884T1058 803T1153 665T1188 467ZM907 449Q907 506 890 550T839 624T757 669T647 684Q582 684 531 669T444 623T391 549T373 449Q373 396 390 353T442 279T526 232T641 215Q708 215 758 231T841 279T891 353T907 449Z"/><glyph unicode="7" horiz-adv-x="1270" d="M1157 1206Q1029 1072 939 939T791 660T706 353T678 0H391Q394 183 422 345T505 654T638 933T821 1186H96V1434H1157V1206Z"/><glyph unicode="8" horiz-adv-x="1270" d="M1176 426Q1176 318 1138 235T1029 94T858 7T633 -23Q508 -23 409 6T239 93T132 233T94 424Q94 494 112 549T160 646T231 719T317 770Q281 789 250 816T195 878T159 958T145 1055Q145 1145 179 1219T278 1345T433 1427T637 1456Q751 1456 841 1428T994 1347T1090 1221T1124 1057Q1124 1004 1111 961T1075 884T1020 822T950 774Q995 754 1036 724T1108 650T1157 552T1176 426ZM852 1049Q852 1087 840 1121T802 1180T734 1220T633 1235Q574 1235 533 1221T465 1182T428 1124T416 1053Q416 1014 429 981T471 923T540 884T637 870Q691 870 731 884T798 922T838 979T852 1049ZM901 428Q901 475 885 516T835 589T753 636T633 653Q573 653 522 639T437 595T385 524T367 430Q367 377 384 336T436 265T522 221T637 207Q709 207 757 222T837 266T885 336T901 428Z"/><glyph unicode="9" horiz-adv-x="1270" d="M895 985Q895 1038 878 1081T826 1155T741 1202T627 1219Q563 1219 513 1203T429 1156T379 1083T362 985Q362 871 428 811T627 750Q686 750 738 765T826 812T878 886T895 985ZM1174 887Q1174 787 1155 684T1092 482T980 296T813 140T584 29T289 -25L266 213Q519 238 670 341T891 637Q860 611 825 590T748 554T654 531T539 522Q440 522 356 549T210 631T115 769T80 967Q80 1085 120 1176T233 1329T410 1424T641 1456Q757 1456 854 1422T1023 1318T1134 1141T1174 887Z"/><glyph unicode=":" horiz-adv-x="635" d="M510 905Q510 864 495 829T454 769T393 728T317 713Q276 713 241 728T181 768T140 829T125 905Q125 947 140 982T180 1043T241 1083T317 1098Q358 1098 393 1084T454 1043T495 982T510 905ZM510 170Q510 129 495 94T454 33T393 -8T317 -23Q276 -23 241 -8T181 33T140 94T125 170Q125 211 140 246T180 307T241 347T317 362Q358 362 393 348T454 307T495 246T510 170Z"/><glyph unicode=";" horiz-adv-x="635" d="M510 905Q510 864 495 829T454 769T393 728T317 713Q276 713 241 728T180 768T140 829T125 905Q125 947 139 982T179 1043T240 1083T317 1098Q358 1098 393 1084T454 1043T495 982T510 905ZM317 -246H125L154 348H487L317 -246Z"/><glyph unicode="&lt;" horiz-adv-x="1270" d="M143 596V827L1124 1411V1096L438 715L1124 334V12L143 596Z"/><glyph unicode="=" horiz-adv-x="1270" d="M143 821V1094H1126V821H143ZM143 315V588H1126V315H143Z"/><glyph unicode="&gt;" horiz-adv-x="1270" d="M145 12V328L831 709L145 1090V1411L1126 827V596L145 12Z"/><glyph unicode="?" horiz-adv-x="1196" d="M1118 1038Q1118 967 1100 912T1052 816T985 747T911 700Q846 669 805 643T738 590T703 529T690 451H410Q410 524 422 584T467 694T555 788T698 872Q737 890 762 906T803 939T824 977T831 1026Q831 1103 770 1139T588 1176Q472 1176 382 1126T229 1004L45 1219Q92 1268 149 1311T273 1386T419 1437T588 1456Q705 1456 802 1431T970 1354T1079 1224T1118 1038ZM725 152Q725 116 711 85T673 29T618 -9T551 -23Q516 -23 485 -9T429 29T391 84T377 152Q377 187 391 218T429 274T484 312T551 326Q586 326 617 312T673 274T711 219T725 152Z"/><glyph unicode="@" horiz-adv-x="1712" d="M1595 737Q1595 623 1572 543T1508 412T1410 338T1286 315Q1239 315 1203 323T1139 345T1088 381T1047 428Q993 367 930 340T784 313Q729 313 676 330T582 382T515 470T489 596Q489 661 514 710T582 792T684 841T811 858Q869 858 904 847T971 819V870Q971 917 942 949T850 981Q782 981 732 969T631 928L555 1063Q623 1104 691 1123T850 1143Q921 1143 980 1125T1081 1071T1147 985T1171 866V573Q1171 506 1204 471T1298 436Q1345 436 1379 455T1435 516T1467 612T1477 739Q1477 861 1430 970T1300 1161T1103 1291T856 1339Q722 1339 608 1292T412 1163T283 966T236 719Q236 584 282 470T411 273T608 143T856 96Q925 96 989 109T1122 156L1171 47Q1127 27 1089 14T1014 -8T939 -19T856 -23Q749 -23 653 2T474 73T326 186T214 335T142 513T117 717Q117 824 142 920T213 1099T326 1247T474 1359T652 1431T856 1456Q965 1456 1062 1430T1241 1357T1389 1243T1500 1096T1570 925T1595 737ZM971 668Q934 689 903 697T817 705Q783 705 760 698T720 676T696 640T688 596Q688 546 721 515T817 483Q844 483 867 489T911 507T946 533T971 563V668Z"/><glyph unicode="A" horiz-adv-x="1536" d="M1454 0H1139L1026 319H502L389 0H82L631 1434H909L1454 0ZM928 592L764 1059L600 592H928Z"/><glyph unicode="B" horiz-adv-x="1454" d="M1346 463Q1346 241 1207 121T836 0H184V1434H842Q946 1434 1030 1409T1173 1336T1264 1218T1296 1055Q1296 1006 1286 965T1254 888T1208 826T1145 776Q1188 757 1225 728T1289 660T1331 572T1346 463ZM1006 1032Q1006 1064 997 1088T970 1130T917 1158T829 1169H465V897H844Q889 897 919 907T969 934T997 977T1006 1032ZM1051 459Q1051 507 1039 540T1003 595T942 630T846 643H465V272H846Q901 272 940 285T1004 326T1040 386T1051 459Z"/><glyph unicode="C" horiz-adv-x="1372" d="M1004 1016Q980 1062 958 1085T904 1128T833 1160T741 1171Q660 1171 598 1138T492 1044T426 901T403 717Q403 620 426 537T492 393T599 297T743 262Q831 262 895 300T1024 444L1266 301Q1229 225 1178 165T1061 63T914 -1T735 -23Q637 -23 557 0T405 69T279 179T191 314T134 485T109 717Q109 880 156 1016T287 1250T488 1402T745 1456Q926 1456 1059 1378T1270 1139L1004 1016Z"/><glyph unicode="D" horiz-adv-x="1448" d="M1346 717Q1346 591 1318 489T1238 307T1118 170T967 74T795 18T612 0H184V1434H633Q786 1434 917 1396T1143 1272T1292 1050T1346 717ZM1051 717Q1051 827 1027 909T951 1046T818 1128T623 1155H471V279H612Q725 279 807 310T944 399T1024 538T1051 717Z"/><glyph unicode="E" horiz-adv-x="1331" d="M1210 0H184V1434H1180V1153H471V905H1047V627H471V281H1210V0Z"/><glyph unicode="F" horiz-adv-x="1280" d="M471 1153V883H903V604H471V0H184V1434H1210V1153H471Z"/><glyph unicode="G" horiz-adv-x="1430" d="M1311 555Q1311 417 1268 309T1148 128T965 16T735 -23Q594 -23 479 29T282 177T154 410T109 717Q109 880 156 1016T287 1250T488 1402T745 1456Q960 1456 1091 1360T1288 1098L1016 985Q996 1025 973 1059T917 1118T842 1157T741 1171Q660 1171 598 1138T492 1044T426 901T403 717Q403 618 426 534T492 389T599 293T743 258Q865 258 934 306T1022 461L1024 475H797V743H1311V555Z"/><glyph unicode="H" horiz-adv-x="1530" d="M1059 0V602H471V0H184V1434H471V885H1059V1434H1346V0H1059Z"/><glyph unicode="I" horiz-adv-x="696" d="M205 0V1434H492V0H205Z"/><glyph unicode="J" horiz-adv-x="1331" d="M1157 598Q1157 295 1017 136T614 -23Q507 -23 418 8T260 95T142 229T66 401L346 477Q370 414 391 380T445 317T519 276T614 262Q682 262 730 283T810 348T855 451T870 590V1434H1157V598Z"/><glyph unicode="K" horiz-adv-x="1475" d="M1434 0H1090L700 692L471 422V0H184V1434H471V811L981 1434H1327L907 938L1434 0Z"/><glyph unicode="L" horiz-adv-x="1270" d="M184 0V1434H471V283H1190V0H184Z"/><glyph unicode="M" horiz-adv-x="1710" d="M1526 0H1239V816L852 -33L465 816V0H184V1434H461L858 567L1243 1434H1526V0Z"/><glyph unicode="N" horiz-adv-x="1530" d="M1346 0H1090L467 925V0H184V1434H459L1063 532V1434H1346V0Z"/><glyph unicode="O" horiz-adv-x="1473" d="M1368 719Q1368 545 1322 408T1192 175T992 28T735 -23Q594 -23 478 27T279 172T150 404T104 715Q104 889 150 1026T281 1259T482 1405T739 1456Q879 1456 994 1406T1193 1261T1322 1030T1368 719ZM1073 715Q1073 824 1048 909T978 1052T871 1140T733 1171Q658 1171 596 1142T491 1055T423 913T399 719Q399 610 424 525T494 382T601 293T739 262Q814 262 876 292T981 379T1049 521T1073 715Z"/><glyph unicode="P" horiz-adv-x="1393" d="M1305 979Q1305 854 1266 765T1157 619T992 535T786 508H471V0H184V1434H811Q912 1434 1002 1406T1159 1321T1266 1179T1305 979ZM1010 973Q1010 1017 997 1051T956 1109T888 1143T801 1155H471V786H805Q905 786 957 832T1010 973Z"/><glyph unicode="Q" horiz-adv-x="1462" d="M1354 717Q1354 627 1343 551T1305 402T1242 272T1159 166L1266 10L1047 -133L944 16Q895 -4 843 -13T731 -23Q584 -23 469 31T273 183T151 417T109 717Q109 880 151 1016T273 1250T468 1402T731 1456Q878 1456 993 1402T1189 1250T1311 1016T1354 717ZM1059 717Q1059 813 1041 896T982 1040T880 1136T731 1171Q644 1171 582 1136T481 1040T422 896T403 717Q403 619 422 534T483 385T587 285T737 248Q762 248 784 252L688 395L907 539L999 401Q1033 461 1046 543T1059 717Z"/><glyph unicode="R" horiz-adv-x="1462" d="M1016 0L760 516H471V0H184V1434H852Q953 1434 1043 1406T1200 1321T1307 1179T1346 979Q1346 893 1328 828T1275 711T1190 622T1071 557L1346 0H1016ZM1051 973Q1051 1025 1036 1059T993 1115T928 1145T846 1155H471V786H846Q900 786 937 798T1000 834T1038 892T1051 973Z"/><glyph unicode="S" horiz-adv-x="1354" d="M1235 434Q1235 332 1202 248T1100 104T925 10T672 -23Q582 -23 499 -5T344 47T214 129T115 238L322 422Q397 334 491 296T688 258Q761 258 806 268T881 297T925 341T938 414Q938 448 926 474T880 523T783 565T618 608Q519 631 437 661T295 739T203 858T170 1036Q170 1133 210 1211T319 1343T482 1427T682 1456Q764 1456 837 1442T981 1394T1101 1324T1204 1231L997 1030Q956 1072 925 1095T854 1137T770 1167T672 1178Q614 1178 575 1167T512 1137T478 1096T467 1049Q467 1015 480 991T526 949T614 914T756 877Q878 848 959 817T1102 736T1199 612T1235 434Z"/><glyph unicode="T" horiz-adv-x="1294" d="M791 1151V0H504V1151H92V1434H1202V1151H791Z"/><glyph unicode="U" horiz-adv-x="1509" d="M1335 633Q1335 477 1296 355T1181 149T998 21T754 -23Q624 -23 518 20T335 146T216 350T174 629V1434H461V633Q461 459 540 359T754 258Q890 258 969 358T1049 629V1434H1335V633Z"/><glyph unicode="V" horiz-adv-x="1462" d="M1381 1434L870 0H592L82 1434H399L737 398L1067 1434H1381Z"/><glyph unicode="W" horiz-adv-x="1804" d="M1702 1434L1403 0H1122L898 939L670 0H402L102 1434H402L561 533L778 1434H1028L1248 533L1407 1434H1702Z"/><glyph unicode="X" horiz-adv-x="1438" d="M1346 0H1004L719 483L434 0H92L547 733L113 1434H455L719 982L983 1434H1325L889 733L1346 0Z"/><glyph unicode="Y" horiz-adv-x="1462" d="M1418 1434L875 567V0H588V561L45 1434H375L733 834L1092 1434H1418Z"/><glyph unicode="Z" horiz-adv-x="1409" d="M1270 0H139V254L909 1171H180V1434H1260V1180L498 262H1270V0Z"/><glyph unicode="[" horiz-adv-x="850" d="M195 -225V1434H721V1208H471V0H721V-225H195Z"/><glyph unicode="\" horiz-adv-x="963" d="M676 -184L8 1618H287L954 -184H676Z"/><glyph unicode="]" horiz-adv-x="850" d="M129 -225V0H379V1208H129V1434H655V-225H129Z"/><glyph unicode="^" horiz-adv-x="1184" d="M797 782L590 1163L383 782H96L479 1434H705L1087 782H797Z"/><glyph unicode="_" horiz-adv-x="1024" d="M0 -383V-147H1024V-383H0Z"/><glyph unicode="`" horiz-adv-x="1024" d="M502 1219L205 1546H563L741 1219H502Z"/><glyph unicode="a" horiz-adv-x="1139" d="M729 0V72Q710 52 686 36T628 5T559 -16T487 -23Q412 -23 340 0T212 71T121 190T86 360Q86 449 120 516T213 627T351 694T522 717Q597 717 646 704T729 674V727Q729 787 689 825T575 864Q481 864 422 851T281 793L172 989Q274 1049 365 1073T575 1098Q673 1098 753 1073T891 1000T980 882T1012 721V0H729ZM729 451Q711 462 692 470T650 484T599 493T532 496Q452 496 411 461T369 360Q369 332 377 306T405 261T456 229T532 217Q567 217 597 225T653 246T698 278T729 315V451Z"/><glyph unicode="b" horiz-adv-x="1151" d="M1065 524Q1065 404 1037 304T956 131T825 18T647 -23Q576 -23 517 1T420 61V0H137V1352L420 1493V1008Q440 1026 463 1042T515 1070T576 1090T647 1098Q733 1098 809 1065T942 962T1032 784T1065 524ZM778 518Q778 674 731 752T594 831Q561 831 536 825T490 806T452 778T420 741V336Q436 314 452 299T495 270T548 250T610 244Q692 244 735 313T778 518Z"/><glyph unicode="c" horiz-adv-x="1100" d="M1026 217Q987 165 944 121T847 45T730 -5T586 -23Q481 -23 389 18T229 133T121 310T82 537Q82 660 120 763T228 941T391 1056T598 1098Q734 1098 840 1039T1024 860L838 672Q814 706 789 734T734 782T670 813T592 825Q541 825 500 805T430 747T385 656T369 537Q369 472 385 420T430 329T500 271T592 250Q633 250 667 259T732 285T790 328T846 387L1026 217Z"/><glyph unicode="d" horiz-adv-x="1151" d="M727 0V68Q706 49 684 35T634 6T573 -16T500 -23Q414 -23 338 10T205 114T115 292T82 551Q82 671 110 771T191 944T322 1057T500 1098Q537 1098 569 1092T632 1073T685 1045T727 1014V1352L1010 1493V0H727ZM727 739Q711 761 693 777T652 805T599 824T537 831Q455 831 412 762T369 557Q369 474 382 415T419 318T477 262T553 244Q586 244 611 250T657 269T695 297T727 334V739Z"/><glyph unicode="e" horiz-adv-x="1102" d="M1014 537Q1014 506 1013 484T1010 446H367Q371 391 391 353T442 290T511 255T588 244Q617 244 642 248T692 263T737 288T772 319L973 152Q941 110 897 78T802 23T697 -11T588 -23Q499 -23 429 -2T305 56T211 139T142 245T98 376T82 537Q82 660 118 763T219 941T371 1056T561 1098Q669 1098 753 1054T895 933T983 754T1014 537ZM739 659Q736 695 724 730T688 792T630 835T547 852Q508 852 478 837T425 796T389 735T371 659H739Z"/><glyph unicode="f" horiz-adv-x="758" d="M692 1229Q671 1240 648 1245T594 1251Q561 1251 540 1246T509 1229T494 1201T489 1165V1075H672V809H489V0H207V809H78V1075H207V1204Q207 1279 227 1333T287 1421T383 1471T514 1487Q571 1487 615 1479T692 1456V1229Z"/><glyph unicode="g" horiz-adv-x="1151" d="M1010 166Q1010 16 976 -88T874 -256Q812 -315 720 -352T496 -397L412 -172Q506 -164 567 -149T662 -109Q692 -87 709 -48T727 61V68Q707 50 685 35T634 6T573 -16T500 -23Q414 -23 338 10T205 114T115 292T82 551Q82 671 110 771T191 944T322 1057T500 1098Q534 1098 567 1092T632 1073T686 1045T727 1014V1075H1010V166ZM553 244Q611 244 652 266T727 334V739Q711 761 695 776T654 804T601 824T537 831Q455 831 412 762T369 557Q369 396 417 320T553 244Z"/><glyph unicode="h" horiz-adv-x="1196" d="M786 0V582Q786 710 746 770T604 831Q560 831 526 819T469 779T433 705T420 588V0H137V1352L420 1493V1004Q437 1022 464 1039T523 1070T591 1091T672 1098Q775 1098 849 1064T973 966T1045 811T1069 606V0H786Z"/><glyph unicode="i" horiz-adv-x="578" d="M451 1325Q451 1292 438 1263T403 1211T352 1176T289 1163Q256 1163 227 1176T175 1211T140 1262T127 1325Q127 1358 140 1387T175 1439T226 1474T289 1487Q322 1487 351 1474T403 1439T438 1388T451 1325ZM147 0V1075H430V0H147Z"/><glyph unicode="j" horiz-adv-x="578" d="M451 1325Q451 1292 438 1263T403 1211T352 1176T289 1163Q256 1163 227 1176T175 1211T140 1262T127 1325Q127 1358 140 1387T175 1439T226 1474T289 1487Q322 1487 351 1474T403 1439T438 1388T451 1325ZM430 80Q430 -33 411 -114T343 -250T214 -340T8 -395L-90 -178Q-17 -164 29 -148T101 -104T137 -36T147 68V1075H430V80Z"/><glyph unicode="k" horiz-adv-x="1128" d="M762 0L557 496L420 326V0H137V1352L420 1493V707L705 1075H1038L762 733L1071 0H762Z"/><glyph unicode="l" horiz-adv-x="578" d="M147 0V1352L430 1493V0H147Z"/><glyph unicode="m" horiz-adv-x="1804" d="M1395 0V582Q1395 654 1385 702T1353 778T1299 819T1223 831Q1179 831 1147 819T1092 779T1060 705T1049 588V0H766V582Q766 654 756 702T724 778T671 819T594 831Q550 831 518 819T463 779T431 705T420 588V0H137V1075H420V1004Q457 1042 514 1070T655 1098Q760 1098 826 1066T952 961Q980 989 1011 1014T1083 1057T1175 1087T1294 1098Q1397 1098 1470 1064T1589 966T1656 811T1677 606V0H1395Z"/><glyph unicode="n" horiz-adv-x="1196" d="M786 0V582Q786 709 746 770T604 831Q560 831 526 819T469 779T433 705T420 588V0H137V1075H420V1004Q438 1022 463 1039T523 1070T594 1091T672 1098Q775 1098 849 1064T973 966T1045 811T1069 606V0H786Z"/><glyph unicode="o" horiz-adv-x="1137" d="M1055 537Q1055 413 1019 310T917 133T762 18T567 -23Q462 -23 373 18T220 133T119 310T82 537Q82 660 118 763T219 941T373 1056T567 1098Q672 1098 761 1057T916 941T1018 764T1055 537ZM768 537Q768 598 756 650T718 742T656 803T567 825Q516 825 479 803T418 743T381 652T369 537Q369 475 381 422T417 331T479 272T567 250Q618 250 655 273T718 337T755 429T768 537Z"/><glyph unicode="p" horiz-adv-x="1151" d="M1065 524Q1065 404 1037 304T956 131T825 18T647 -23Q576 -23 517 1T420 61V-254L137 -395V1075H420V1008Q467 1051 524 1074T647 1098Q733 1098 809 1065T942 962T1032 784T1065 524ZM778 518Q778 671 732 751T594 831Q537 831 497 810T420 741V336Q438 312 456 296T499 268T551 250T610 244Q692 244 735 313T778 518Z"/><glyph unicode="q" horiz-adv-x="1151" d="M727 -395V68Q687 32 632 5T500 -23Q414 -23 338 10T205 114T115 292T82 551Q82 671 110 771T191 944T322 1057T500 1098Q538 1098 570 1092T634 1072T688 1044T727 1014V1075H1010V-254L727 -395ZM727 739Q713 759 693 777T646 808T592 826T537 831Q455 831 412 762T369 557Q369 404 415 324T553 244Q608 244 649 264T727 334V739Z"/><glyph unicode="r" horiz-adv-x="877" d="M766 745Q732 776 691 795T602 815Q502 815 461 758T420 582V0H137V1075H420V1004Q437 1022 460 1039T512 1070T574 1091T641 1098Q710 1098 761 1075T840 1022L766 745Z"/><glyph unicode="s" horiz-adv-x="1100" d="M954 993L864 770Q784 813 702 834T551 856Q476 856 441 842T406 786Q406 769 414 756T446 730T513 701T629 662Q701 638 766 611T880 544T958 450T987 313Q987 220 953 156T859 53T720 -5T549 -23Q426 -23 307 10T98 102L193 317Q279 269 370 244T565 219Q645 219 677 238T709 301Q709 319 701 333T675 360T626 385T551 410Q454 439 376 468T243 537T157 635T127 778Q127 862 158 922T247 1022T383 1079T557 1098Q659 1098 763 1070T954 993Z"/><glyph unicode="t" horiz-adv-x="905" d="M737 43Q702 15 643 -4T518 -23Q453 -23 400 1T310 68T252 171T231 301V809H51V1075H231V1352L514 1493V1075H772V809H514V377Q514 338 521 313T541 274T573 254T618 248Q656 248 692 267T778 330L737 43Z"/><glyph unicode="u" horiz-adv-x="1196" d="M776 0V72Q739 33 674 5T524 -23Q330 -23 229 102T127 469V1075H410V494Q410 364 451 304T592 244Q693 244 734 305T776 487V1075H1059V0H776Z"/><glyph unicode="v" horiz-adv-x="1167" d="M729 0H438L51 1075H362L588 366L813 1075H1116L729 0Z"/><glyph unicode="w" horiz-adv-x="1520" d="M1159 0H924L760 646L596 0H360L51 1075H338L483 459L647 1075H881L1044 459L1190 1075H1468L1159 0Z"/><glyph unicode="x" horiz-adv-x="1176" d="M795 0L588 342L381 0H45L426 582L102 1075H438L588 817L737 1075H1073L750 582L1130 0H795Z"/><glyph unicode="y" horiz-adv-x="1208" d="M604 -379H326L469 0L51 1075H362L608 351L854 1075H1157L604 -379Z"/><glyph unicode="z" horiz-adv-x="1135" d="M123 0V205L639 819H158V1075H1012V870L510 256H1012V0H123Z"/><glyph unicode="{" horiz-adv-x="942" d="M834 -225Q693 -225 591 -198T422 -116T323 19T291 207V352Q291 427 260 460T168 494H123V723H168Q228 723 259 756T291 864V1012Q291 1118 323 1199T421 1334T590 1416T834 1444V1257Q757 1249 708 1231T629 1180T589 1101T578 991V928Q578 845 566 790T530 700T470 644T383 608Q433 593 469 573T530 517T566 427T578 289V227Q578 164 589 118T629 39T707 -12T834 -39V-225Z"/><glyph unicode="|" horiz-adv-x="584" d="M164 -379V1638H420V-379H164Z"/><glyph unicode="}" horiz-adv-x="942" d="M774 496Q714 496 683 463T651 354V207Q651 100 619 19T521 -116T353 -197T109 -225V-39Q185 -31 235 -12T313 39T353 117T365 227V291Q365 374 376 428T412 518T472 574T559 610Q509 625 473 645T412 701T377 792T365 930V991Q365 1054 354 1100T314 1179T235 1230T109 1257V1444Q250 1444 352 1417T521 1335T619 1199T651 1012V866Q651 792 682 759T774 725H819V496H774Z"/><glyph unicode="~" horiz-adv-x="1151" d="M1065 868Q1037 797 1006 740T938 643T855 581T752 559Q720 559 695 563T648 576T603 598T555 629Q496 669 460 690T395 711Q374 711 358 706T327 684T295 640T254 565L86 651Q114 722 145 779T213 876T296 939T399 961Q430 961 455 957T503 944T548 922T596 891Q632 865 677 837T756 809Q777 809 792 814T823 835T855 879T897 954L1065 868Z"/><glyph unicode=" " horiz-adv-x="594"/><glyph unicode="¡" horiz-adv-x="696" d="M522 1282Q522 1247 508 1216T470 1160T415 1122T348 1108Q313 1108 282 1122T226 1160T188 1215T174 1282Q174 1317 188 1348T226 1404T281 1442T348 1456Q383 1456 414 1442T470 1404T508 1349T522 1282ZM205 0V590L252 983H444L492 590V0H205Z"/><glyph unicode="¢" horiz-adv-x="1270" d="M958 907Q932 943 905 970T847 1015T779 1042T694 1051Q629 1051 576 1030T484 968T425 869T403 737Q403 661 423 600T483 497T579 431T711 408Q799 408 866 445T989 547L1167 371Q1104 302 1025 252T842 182V-23H532V184Q435 206 358 253T227 369T144 528T115 727Q115 837 146 927T234 1087T366 1202T532 1270V1462H842V1280Q959 1258 1038 1207T1169 1085L958 907Z"/><glyph unicode="£" horiz-adv-x="1270" d="M156 0V205Q195 244 226 282T281 362T319 452T338 561H158V776H311Q300 802 287 827T258 881Q242 909 233 930T214 977T201 1031T197 1094Q197 1178 229 1245T324 1359T477 1431T684 1456Q828 1456 948 1406T1165 1257L1010 1071Q932 1146 853 1180T680 1214Q629 1214 592 1203T530 1171T493 1124T481 1065Q481 1027 492 993T524 922Q543 890 560 853T592 776H883V561H606Q601 507 590 462T561 376T522 302T475 236H1153V0H156Z"/><glyph unicode="¤" horiz-adv-x="1307" d="M702 -23Q558 -23 446 31T258 182T142 416T102 717Q102 891 145 1028T268 1261T459 1406T707 1456Q813 1456 891 1433T1028 1363T1131 1250T1214 1094L973 977Q947 1028 922 1067T866 1133T796 1172T702 1186Q604 1186 529 1134T416 963H831V774H385Q383 760 383 745T383 715Q383 699 383 685T385 657H831V469H416Q456 353 531 301T707 248Q759 248 799 260T872 297T935 359T997 446L1231 307Q1192 242 1144 182T1033 77T888 4T702 -23Z"/><glyph unicode="¥" horiz-adv-x="1270" d="M776 545V455H1085V225H776V0H496V225H184V455H496V541L31 1434H360L637 819L915 1434H1239L776 545Z"/><glyph unicode="¦" horiz-adv-x="643" d="M193 1638H453V764H193V1638ZM193 496H453V-379H193V496Z"/><glyph unicode="§" horiz-adv-x="1434" d="M1321 514Q1321 450 1304 399T1256 306T1185 233T1096 176Q1115 144 1126 101T1137 -2Q1137 -73 1110 -134T1028 -240T895 -310T711 -336Q586 -336 473 -300T270 -197L412 0Q484 -51 568 -75T729 -100Q797 -100 834 -78T872 -4Q872 20 859 38T810 75T707 117T532 176Q431 210 353 247T221 335T141 450T113 606Q113 670 130 721T178 814T248 888T336 944Q316 979 307 1023T297 1122Q297 1193 324 1254T405 1360T538 1430T723 1456Q848 1456 960 1420T1163 1317L1022 1120Q959 1165 871 1193T705 1221Q664 1221 637 1214T592 1194T568 1163T561 1124Q561 1100 574 1082T623 1045T726 1003T901 944Q1002 910 1080 873T1212 786T1293 670T1321 514ZM1047 494Q1047 537 1023 568T958 624T867 667T762 705Q688 729 627 752T518 799Q453 771 420 730T387 627Q387 583 411 552T475 496T566 453T672 416Q746 391 806 368T915 322Q980 349 1013 390T1047 494Z"/><glyph unicode="¨" horiz-adv-x="1024" d="M893 1376Q893 1344 880 1316T846 1266T795 1232T735 1219Q702 1219 673 1231T621 1266T586 1316T573 1376Q573 1409 586 1438T621 1489T672 1523T735 1536Q766 1536 795 1524T845 1489T880 1438T893 1376ZM451 1376Q451 1344 438 1316T403 1266T352 1232T291 1219Q259 1219 230 1231T179 1266T144 1316T131 1376Q131 1409 144 1438T179 1489T230 1523T291 1536Q323 1536 352 1524T403 1489T438 1438T451 1376Z"/><glyph unicode="©" horiz-adv-x="1712" d="M1595 717Q1595 559 1539 424T1383 190T1149 34T856 -23Q698 -23 563 33T329 189T174 424T117 717Q117 875 173 1010T329 1244T564 1400T856 1456Q1014 1456 1150 1399T1384 1244T1538 1010T1595 717ZM1464 717Q1464 847 1418 958T1290 1150T1097 1278T856 1325Q726 1325 615 1279T423 1151T295 958T248 717Q248 587 294 476T422 284T615 156T856 109Q986 109 1097 155T1289 283T1417 476T1464 717ZM1001 870Q977 914 946 937T866 961Q833 961 802 948T749 903T716 828T705 721Q705 658 716 615T751 540T804 496T868 483Q913 483 947 510T1014 588L1157 489Q1109 400 1039 353T864 305Q785 305 720 334T609 418T538 549T512 721Q512 812 538 889T611 1021T724 1108T868 1139Q972 1139 1046 1094T1163 961L1001 870Z"/><glyph unicode="ª" horiz-adv-x="977" d="M627 565V629Q592 592 540 571T426 549Q365 549 307 567T202 624T128 721T100 858Q100 930 127 984T203 1075T315 1129T455 1147Q515 1147 557 1137T627 1112V1155Q627 1203 594 1236T498 1270Q415 1270 363 1256T256 1210L170 1370Q248 1413 322 1434T498 1456Q577 1456 642 1436T753 1377T824 1281T850 1151V565H627ZM627 934Q595 952 559 960T463 969Q397 969 362 941T326 858Q326 803 362 770T463 737Q510 737 555 760T627 821V934Z"/><glyph unicode="«" horiz-adv-x="1286" d="M911 0L578 537L911 1075H1204L881 539L1204 0H911ZM395 0L61 537L395 1075H688L365 539L688 0H395Z"/><glyph unicode="¬" horiz-adv-x="1270" d="M1150 182H869V571H120V838H1150V182Z"/><glyph unicode="­" horiz-adv-x="834" d="M123 602V885H711V602H123Z"/><glyph unicode="®" horiz-adv-x="1712" d="M1595 717Q1595 559 1539 424T1383 190T1149 34T856 -23Q698 -23 563 33T329 189T174 424T117 717Q117 875 173 1010T329 1244T564 1400T856 1456Q1014 1456 1150 1399T1384 1244T1538 1010T1595 717ZM1464 717Q1464 847 1418 958T1290 1150T1097 1278T856 1325Q726 1325 615 1279T423 1151T295 958T248 717Q248 587 294 476T422 284T615 156T856 109Q986 109 1097 155T1289 283T1417 476T1464 717ZM1208 881Q1208 796 1171 737T1049 645L1204 328H1012L866 623H727V328H557V1135H932Q990 1135 1040 1120T1128 1073T1186 993T1208 881ZM1034 877Q1034 931 1004 955T920 979H727V772H920Q975 772 1004 799T1034 877Z"/><glyph unicode="¯" horiz-adv-x="1024" d="M215 1249V1464H809V1249H215Z"/><glyph unicode="°" horiz-adv-x="995" d="M903 1053Q903 966 872 892T787 762T658 676T498 645Q412 645 338 676T210 762T124 891T92 1053Q92 1137 123 1210T209 1338T338 1424T498 1456Q584 1456 658 1425T786 1339T872 1211T903 1053ZM688 1053Q688 1092 674 1126T634 1187T573 1228T498 1243Q458 1243 423 1228T363 1187T322 1127T307 1053Q307 1011 322 976T362 914T423 873T498 858Q538 858 573 873T633 914T673 975T688 1053Z"/><glyph unicode="±" horiz-adv-x="1270" d="M775 797V428H494V797H120V1063H494V1432H775V1063H1150V797H775ZM120 61V311H1150V61H120Z"/><glyph unicode="²" horiz-adv-x="850" d="M72 530Q76 640 101 719T169 857T272 962T406 1049Q446 1071 471 1088T511 1120T531 1151T537 1186Q537 1223 509 1243T426 1264Q394 1264 365 1259T307 1242T249 1212T188 1169L78 1333Q119 1362 159 1384T241 1422T330 1446T430 1454Q505 1454 565 1438T670 1385T733 1301T752 1196Q752 1148 741 1110T705 1037T637 971T530 903Q479 874 443 850T382 805T342 765T317 725H760V530H72Z"/><glyph unicode="³" horiz-adv-x="801" d="M373 518Q271 518 183 558T23 668L150 809Q207 758 261 733T377 707Q452 707 489 734T526 815Q526 866 490 889T389 913H272V1094H383Q439 1094 464 1116T489 1184Q489 1222 461 1246T367 1270Q314 1270 270 1249T172 1184L51 1327Q116 1384 193 1419T371 1454Q444 1454 505 1439T611 1393T680 1313T705 1198Q705 1132 680 1090T608 1020Q639 1007 663 989T705 945T731 887T739 817Q739 743 714 688T641 594T526 537T373 518Z"/><glyph unicode="´" horiz-adv-x="1024" d="M522 1219H283L461 1546H819L522 1219Z"/><glyph unicode="µ" horiz-adv-x="1206" d="M786 0V72Q749 33 685 5T535 -23Q519 -23 489 -21T420 -10V-254L137 -395V1075H420V494Q420 422 432 374T467 297T524 256T602 244Q646 244 680 256T737 296T773 370T786 487V1075H1069V0H786Z"/><glyph unicode="¶" horiz-adv-x="1483" d="M1067 -379V1217H936V-379H702V535H561Q466 535 382 564T234 651T133 793T96 985Q96 1093 133 1176T234 1317T382 1404T561 1434H1300V-379H1067Z"/><glyph unicode="·" horiz-adv-x="557" d="M471 752Q471 713 456 678T414 616T353 575T278 559Q239 559 204 574T143 616T102 677T86 752Q86 791 101 826T143 887T204 928T278 944Q317 944 352 929T414 887T455 826T471 752Z"/><glyph unicode="¸" horiz-adv-x="1024" d="M453 76H567L532 -86Q545 -80 564 -76T612 -72Q645 -72 674 -80T725 -107T759 -152T772 -217Q772 -263 755 -296T705 -352T628 -384T528 -395Q445 -395 378 -374T260 -322L303 -244Q402 -293 485 -293Q539 -293 567 -276T596 -223Q596 -192 577 -181T532 -170Q497 -169 471 -184L397 -156L453 76Z"/><glyph unicode="¹" horiz-adv-x="625" d="M244 1161H94V1315Q136 1318 166 1324T219 1344T256 1379T279 1434H459V524H244V1161Z"/><glyph unicode="º" horiz-adv-x="1006" d="M897 1001Q897 901 867 818T785 675T660 582T502 549Q416 549 344 582T220 675T139 818T109 1001Q109 1101 138 1184T220 1328T344 1422T502 1456Q587 1456 659 1423T784 1329T867 1185T897 1001ZM664 1001Q664 1051 654 1094T624 1168T573 1217T502 1235Q461 1235 431 1218T380 1169T350 1095T340 1001Q340 950 350 908T380 835T430 787T502 770Q542 770 572 789T623 840T654 914T664 1001Z"/><glyph unicode="»" horiz-adv-x="1286" d="M891 0H598L922 537L598 1075H891L1225 539L891 0ZM375 0H82L406 537L82 1075H375L709 539L375 0Z"/><glyph unicode="¼" horiz-adv-x="1905" d="M284 1161H134V1315Q176 1318 206 1324T259 1344T296 1379T319 1434H499V524H284V1161ZM564 0H261L1222 1434H1525L564 0ZM1461 189H988V341L1455 910H1664V370H1777V185H1664V1H1461V189ZM1461 370V648L1238 370H1461Z"/><glyph unicode="½" horiz-adv-x="1905" d="M262 1161H112V1315Q154 1318 184 1324T237 1344T274 1379T297 1434H477V524H262V1161ZM512 0H209L1170 1434H1473L512 0ZM1103 0Q1107 110 1132 189T1200 327T1303 432T1437 519Q1477 541 1502 558T1542 590T1562 621T1568 656Q1568 693 1540 713T1457 734Q1425 734 1396 729T1338 712T1280 682T1219 639L1109 803Q1150 832 1190 854T1272 892T1361 916T1461 924Q1536 924 1596 908T1701 855T1764 771T1783 666Q1783 618 1772 580T1736 507T1668 441T1561 373Q1510 344 1474 320T1413 275T1373 235T1348 195H1791V0H1103Z"/><glyph unicode="¾" horiz-adv-x="1905" d="M421 518Q319 518 231 558T71 668L198 809Q255 758 309 733T425 707Q500 707 537 734T574 815Q574 866 538 889T437 913H320V1094H431Q487 1094 512 1116T537 1184Q537 1222 509 1246T415 1270Q362 1270 318 1249T220 1184L99 1327Q164 1384 241 1419T419 1454Q492 1454 553 1439T659 1393T728 1313T753 1198Q753 1132 728 1090T656 1020Q687 1007 711 989T753 945T779 887T787 817Q787 743 762 688T689 594T574 537T421 518ZM703 0H400L1361 1434H1664L703 0ZM1516 188H1043V340L1510 909H1719V369H1832V184H1719V0H1516V188ZM1516 369V647L1293 369H1516Z"/><glyph unicode="¿" horiz-adv-x="1196" d="M819 1282Q819 1247 805 1216T767 1160T712 1122T645 1108Q610 1108 579 1122T523 1160T485 1215T471 1282Q471 1317 485 1348T523 1404T578 1442T645 1456Q680 1456 711 1442T767 1404T805 1349T819 1282ZM1151 215Q1104 166 1047 123T923 47T777 -4T608 -23Q491 -23 394 2T226 79T117 209T78 395Q78 467 96 522T144 618T211 687T285 733Q349 764 391 790T457 843T493 904T506 983H786Q786 910 774 850T729 739T641 645T498 561Q459 543 434 528T393 495T372 456T365 408Q365 372 378 345T421 298T496 268T608 258Q666 258 716 271T811 307T893 361T967 430L1151 215Z"/><glyph unicode="À" horiz-adv-x="1536" d="M1454 0H1139L1026 319H502L389 0H82L631 1434H909L1454 0ZM928 592L764 1059L600 592H928ZM676 1526L379 1853H737L915 1526H676Z"/><glyph unicode="Á" horiz-adv-x="1536" d="M1454 0H1139L1026 319H502L389 0H82L631 1434H909L1454 0ZM928 592L764 1059L600 592H928ZM839 1526H600L778 1853H1136L839 1526Z"/><glyph unicode="Â" horiz-adv-x="1536" d="M1454 0H1139L1026 319H502L389 0H82L631 1434H909L1454 0ZM928 592L764 1059L600 592H928ZM969 1526L764 1679L559 1526H373L623 1853H909L1159 1526H969Z"/><glyph unicode="Ã" horiz-adv-x="1536" d="M1454 0H1139L1026 319H502L389 0H82L631 1434H909L1454 0ZM928 592L764 1059L600 592H928ZM1174 1814Q1174 1746 1157 1691T1108 1598T1034 1540T938 1519Q906 1519 881 1522T833 1533T786 1553T731 1583Q708 1597 680 1610T625 1624Q596 1624 580 1602T555 1526H371Q371 1594 388 1648T436 1741T510 1799T606 1820Q638 1820 663 1817T711 1807T758 1787T813 1757Q837 1743 865 1730T920 1716Q949 1716 964 1738T989 1814H1174Z"/><glyph unicode="Ä" horiz-adv-x="1536" d="M1454 0H1139L1026 319H502L389 0H82L631 1434H909L1454 0ZM928 592L764 1059L600 592H928ZM1147 1683Q1147 1651 1134 1623T1100 1573T1049 1539T989 1526Q956 1526 927 1538T875 1573T840 1623T827 1683Q827 1716 840 1745T875 1796T926 1830T989 1843Q1020 1843 1049 1831T1099 1796T1134 1745T1147 1683ZM705 1683Q705 1651 692 1623T657 1573T606 1539T545 1526Q513 1526 484 1538T433 1573T398 1623T385 1683Q385 1716 398 1745T433 1796T484 1830T545 1843Q577 1843 606 1831T657 1796T692 1745T705 1683Z"/><glyph unicode="Å" horiz-adv-x="1536" d="M1139 0L1026 319H502L389 0H82L586 1317Q542 1354 518 1407T494 1526Q494 1585 515 1635T573 1723T660 1781T770 1802Q829 1802 880 1781T968 1723T1026 1636T1047 1526Q1047 1461 1022 1408T952 1317L1454 0H1139ZM891 1526Q891 1552 882 1574T856 1613T818 1639T770 1649Q744 1649 722 1640T684 1614T659 1575T649 1526Q649 1500 658 1478T684 1439T722 1413T770 1403Q795 1403 817 1412T856 1438T881 1477T891 1526ZM928 592L764 1059L600 592H928Z"/><glyph unicode="Æ" horiz-adv-x="2126" d="M1974 1434V1159H1307V901H1841V631H1307V274H2005V0H1032V256H522L356 0H29L991 1434H1974ZM686 508H1032V1040L686 508Z"/><glyph unicode="Ç" horiz-adv-x="1372" d="M1004 1016Q980 1062 958 1085T904 1128T833 1160T741 1171Q660 1171 598 1138T492 1044T426 901T403 717Q403 620 426 537T492 393T599 297T743 262Q831 262 895 300T1024 444L1266 301Q1229 225 1178 165T1061 63T914 -1T735 -23Q637 -23 557 0T405 69T279 179T191 314T134 485T109 717Q109 880 156 1016T287 1250T488 1402T745 1456Q926 1456 1059 1378T1270 1139L1004 1016ZM657 76H771L736 -86Q749 -80 768 -76T816 -72Q849 -72 878 -80T929 -107T963 -152T976 -217Q976 -263 959 -296T909 -352T832 -384T732 -395Q649 -395 582 -374T464 -322L507 -244Q606 -293 689 -293Q743 -293 771 -276T800 -223Q800 -192 781 -181T736 -170Q701 -169 675 -184L601 -156L657 76Z"/><glyph unicode="È" horiz-adv-x="1331" d="M1210 0H184V1434H1180V1153H471V905H1047V627H471V281H1210V0ZM598 1526L301 1853H659L837 1526H598Z"/><glyph unicode="É" horiz-adv-x="1331" d="M1210 0H184V1434H1180V1153H471V905H1047V627H471V281H1210V0ZM762 1526H523L701 1853H1059L762 1526Z"/><glyph unicode="Ê" horiz-adv-x="1331" d="M1210 0H184V1434H1180V1153H471V905H1047V627H471V281H1210V0ZM891 1526L686 1679L481 1526H295L545 1853H831L1081 1526H891Z"/><glyph unicode="Ë" horiz-adv-x="1331" d="M1210 0H184V1434H1180V1153H471V905H1047V627H471V281H1210V0ZM1069 1683Q1069 1651 1056 1623T1022 1573T971 1539T911 1526Q878 1526 849 1538T797 1573T762 1623T749 1683Q749 1716 762 1745T797 1796T848 1830T911 1843Q942 1843 971 1831T1021 1796T1056 1745T1069 1683ZM627 1683Q627 1651 614 1623T579 1573T528 1539T467 1526Q435 1526 406 1538T355 1573T320 1623T307 1683Q307 1716 320 1745T355 1796T406 1830T467 1843Q499 1843 528 1831T579 1796T614 1745T627 1683Z"/><glyph unicode="Ì" horiz-adv-x="696" d="M205 0V1434H492V0H205ZM239 1526L-58 1853H300L478 1526H239Z"/><glyph unicode="Í" horiz-adv-x="696" d="M205 0V1434H492V0H205ZM443 1526H204L382 1853H740L443 1526Z"/><glyph unicode="Î" horiz-adv-x="696" d="M205 0V1434H492V0H205ZM552 1506L347 1659L142 1506H-44L206 1833H492L742 1506H552Z"/><glyph unicode="Ï" horiz-adv-x="696" d="M205 0V1434H492V0H205ZM730 1673Q730 1641 717 1613T683 1563T632 1529T572 1516Q539 1516 510 1528T458 1563T423 1613T410 1673Q410 1706 423 1735T458 1786T509 1820T572 1833Q603 1833 632 1821T682 1786T717 1735T730 1673ZM288 1673Q288 1641 275 1613T240 1563T189 1529T128 1516Q96 1516 67 1528T16 1563T-19 1613T-32 1673Q-32 1706 -19 1735T16 1786T67 1820T128 1833Q160 1833 189 1821T240 1786T275 1735T288 1673Z"/><glyph unicode="Ð" horiz-adv-x="1479" d="M1376 717Q1376 554 1326 423T1177 197T940 51T643 0H215V631H82V866H215V1434H664Q817 1434 947 1396T1173 1272T1322 1050T1376 717ZM1081 717Q1081 827 1057 909T981 1046T848 1128T653 1155H494V866H686V631H494V279H643Q756 279 838 310T975 399T1055 538T1081 717Z"/><glyph unicode="Ñ" horiz-adv-x="1530" d="M1346 0H1090L467 925V0H184V1434H459L1063 532V1434H1346V0ZM1174 1814Q1174 1746 1157 1691T1108 1598T1034 1540T938 1519Q906 1519 881 1522T833 1533T786 1553T731 1583Q708 1597 680 1610T625 1624Q596 1624 580 1602T555 1526H371Q371 1594 388 1648T436 1741T510 1799T606 1820Q638 1820 663 1817T711 1807T758 1787T813 1757Q837 1743 865 1730T920 1716Q949 1716 964 1738T989 1814H1174Z"/><glyph unicode="Ò" horiz-adv-x="1473" d="M1368 719Q1368 545 1322 408T1192 175T992 28T735 -23Q594 -23 478 27T279 172T150 404T104 715Q104 889 150 1026T281 1259T482 1405T739 1456Q879 1456 994 1406T1193 1261T1322 1030T1368 719ZM1073 715Q1073 824 1048 909T978 1052T871 1140T733 1171Q658 1171 596 1142T491 1055T423 913T399 719Q399 610 424 525T494 382T601 293T739 262Q814 262 876 292T981 379T1049 521T1073 715ZM637 1526L340 1853H698L876 1526H637Z"/><glyph unicode="Ó" horiz-adv-x="1473" d="M1368 719Q1368 545 1322 408T1192 175T992 28T735 -23Q594 -23 478 27T279 172T150 404T104 715Q104 889 150 1026T281 1259T482 1405T739 1456Q879 1456 994 1406T1193 1261T1322 1030T1368 719ZM1073 715Q1073 824 1048 909T978 1052T871 1140T733 1171Q658 1171 596 1142T491 1055T423 913T399 719Q399 610 424 525T494 382T601 293T739 262Q814 262 876 292T981 379T1049 521T1073 715ZM801 1526H562L740 1853H1098L801 1526Z"/><glyph unicode="Ô" horiz-adv-x="1473" d="M1368 719Q1368 545 1322 408T1192 175T992 28T735 -23Q594 -23 478 27T279 172T150 404T104 715Q104 889 150 1026T281 1259T482 1405T739 1456Q879 1456 994 1406T1193 1261T1322 1030T1368 719ZM1073 715Q1073 824 1048 909T978 1052T871 1140T733 1171Q658 1171 596 1142T491 1055T423 913T399 719Q399 610 424 525T494 382T601 293T739 262Q814 262 876 292T981 379T1049 521T1073 715ZM930 1516L725 1669L520 1516H334L584 1843H870L1120 1516H930Z"/><glyph unicode="Õ" horiz-adv-x="1473" d="M1368 719Q1368 545 1322 408T1192 175T992 28T735 -23Q594 -23 478 27T279 172T150 404T104 715Q104 889 150 1026T281 1259T482 1405T739 1456Q879 1456 994 1406T1193 1261T1322 1030T1368 719ZM1073 715Q1073 824 1048 909T978 1052T871 1140T733 1171Q658 1171 596 1142T491 1055T423 913T399 719Q399 610 424 525T494 382T601 293T739 262Q814 262 876 292T981 379T1049 521T1073 715ZM1135 1814Q1135 1746 1118 1691T1069 1598T995 1540T899 1519Q867 1519 842 1522T794 1533T747 1553T692 1583Q669 1597 641 1610T586 1624Q557 1624 541 1602T516 1526H332Q332 1594 349 1648T397 1741T471 1799T567 1820Q599 1820 624 1817T672 1807T719 1787T774 1757Q798 1743 826 1730T881 1716Q910 1716 925 1738T950 1814H1135Z"/><glyph unicode="Ö" horiz-adv-x="1473" d="M1368 719Q1368 545 1322 408T1192 175T992 28T735 -23Q594 -23 478 27T279 172T150 404T104 715Q104 889 150 1026T281 1259T482 1405T739 1456Q879 1456 994 1406T1193 1261T1322 1030T1368 719ZM1073 715Q1073 824 1048 909T978 1052T871 1140T733 1171Q658 1171 596 1142T491 1055T423 913T399 719Q399 610 424 525T494 382T601 293T739 262Q814 262 876 292T981 379T1049 521T1073 715ZM1108 1683Q1108 1651 1095 1623T1061 1573T1010 1539T950 1526Q917 1526 888 1538T836 1573T801 1623T788 1683Q788 1716 801 1745T836 1796T887 1830T950 1843Q981 1843 1010 1831T1060 1796T1095 1745T1108 1683ZM666 1683Q666 1651 653 1623T618 1573T567 1539T506 1526Q474 1526 445 1538T394 1573T359 1623T346 1683Q346 1716 359 1745T394 1796T445 1830T506 1843Q538 1843 567 1831T618 1796T653 1745T666 1683Z"/><glyph unicode="×" horiz-adv-x="1270" d="M977 184L635 532L293 184L115 362L463 705L115 1047L293 1225L635 877L977 1225L1155 1047L807 705L1155 362L977 184Z"/><glyph unicode="Ø" horiz-adv-x="1473" d="M1354 717Q1354 553 1312 417T1189 184T994 32T731 -23Q635 -23 520 16L463 -102H193L317 152Q220 251 165 394T109 717Q109 880 151 1016T273 1250T468 1402T731 1456Q839 1456 934 1419L991 1536H1262L1141 1286Q1189 1239 1228 1179T1298 1039T1341 882T1354 717ZM815 1176Q775 1186 731 1186Q642 1186 578 1150T473 1051T413 902T393 717Q393 633 407 559T449 426L815 1176ZM1069 717Q1069 803 1055 879T1008 1018L639 260Q682 248 731 248Q820 248 884 284T989 383T1049 532T1069 717Z"/><glyph unicode="Ù" horiz-adv-x="1509" d="M1335 633Q1335 477 1296 355T1181 149T998 21T754 -23Q624 -23 518 20T335 146T216 350T174 629V1434H461V633Q461 459 540 359T754 258Q890 258 969 358T1049 629V1434H1335V633ZM668 1495L371 1822H729L907 1495H668Z"/><glyph unicode="Ú" horiz-adv-x="1509" d="M1335 633Q1335 477 1296 355T1181 149T998 21T754 -23Q624 -23 518 20T335 146T216 350T174 629V1434H461V633Q461 459 540 359T754 258Q890 258 969 358T1049 629V1434H1335V633ZM831 1495H592L770 1822H1128L831 1495Z"/><glyph unicode="Û" horiz-adv-x="1509" d="M1335 633Q1335 477 1296 355T1181 149T998 21T754 -23Q624 -23 518 20T335 146T216 350T174 629V1434H461V633Q461 459 540 359T754 258Q890 258 969 358T1049 629V1434H1335V633ZM961 1526L756 1679L551 1526H365L615 1853H901L1151 1526H961Z"/><glyph unicode="Ü" horiz-adv-x="1509" d="M1335 633Q1335 477 1296 355T1181 149T998 21T754 -23Q624 -23 518 20T335 146T216 350T174 629V1434H461V633Q461 459 540 359T754 258Q890 258 969 358T1049 629V1434H1335V633ZM1137 1683Q1137 1651 1124 1623T1090 1573T1039 1539T979 1526Q946 1526 917 1538T865 1573T830 1623T817 1683Q817 1716 830 1745T865 1796T916 1830T979 1843Q1010 1843 1039 1831T1089 1796T1124 1745T1137 1683ZM695 1683Q695 1651 682 1623T647 1573T596 1539T535 1526Q503 1526 474 1538T423 1573T388 1623T375 1683Q375 1716 388 1745T423 1796T474 1830T535 1843Q567 1843 596 1831T647 1796T682 1745T695 1683Z"/><glyph unicode="Ý" horiz-adv-x="1462" d="M1418 1434L875 567V0H588V561L45 1434H375L733 834L1092 1434H1418ZM807 1506H568L746 1833H1104L807 1506Z"/><glyph unicode="Þ" horiz-adv-x="1393" d="M1305 758Q1305 633 1266 544T1157 398T992 314T786 287H471V0H184V1434H471V1212H811Q912 1212 1002 1184T1159 1100T1266 958T1305 758ZM1010 752Q1010 846 953 890T801 934H471V565H805Q905 565 957 611T1010 752Z"/><glyph unicode="ß" horiz-adv-x="1200" d="M1118 453Q1118 342 1089 261T1002 122T850 32T621 0H575V256H612Q659 256 699 266T769 299T815 360T831 453Q831 506 818 548T776 620T700 666T588 682H575V928H586Q649 928 685 968T721 1077Q721 1140 684 1180T567 1221Q491 1221 456 1184T420 1053V-254L137 -395V1067Q137 1182 168 1262T256 1392T393 1464T571 1487Q662 1487 741 1463T880 1390T973 1271T1008 1108Q1008 995 958 925T817 823Q875 812 929 786T1025 715T1092 606T1118 453Z"/><glyph unicode="à" horiz-adv-x="1139" d="M729 0V72Q710 52 686 36T628 5T559 -16T487 -23Q412 -23 340 0T212 71T121 190T86 360Q86 449 120 516T213 627T351 694T522 717Q597 717 646 704T729 674V727Q729 787 689 825T575 864Q481 864 422 851T281 793L172 989Q274 1049 365 1073T575 1098Q673 1098 753 1073T891 1000T980 882T1012 721V0H729ZM729 451Q711 462 692 470T650 484T599 493T532 496Q452 496 411 461T369 360Q369 332 377 306T405 261T456 229T532 217Q567 217 597 225T653 246T698 278T729 315V451ZM736 1219L439 1546H797L975 1219H736Z"/><glyph unicode="á" horiz-adv-x="1139" d="M729 0V72Q710 52 686 36T628 5T559 -16T487 -23Q412 -23 340 0T212 71T121 190T86 360Q86 449 120 516T213 627T351 694T522 717Q597 717 646 704T729 674V727Q729 787 689 825T575 864Q481 864 422 851T281 793L172 989Q274 1049 365 1073T575 1098Q673 1098 753 1073T891 1000T980 882T1012 721V0H729ZM729 451Q711 462 692 470T650 484T599 493T532 496Q452 496 411 461T369 360Q369 332 377 306T405 261T456 229T532 217Q567 217 597 225T653 246T698 278T729 315V451ZM643 1219H404L582 1546H940L643 1219Z"/><glyph unicode="â" horiz-adv-x="1139" d="M729 0V72Q710 52 686 36T628 5T559 -16T487 -23Q412 -23 340 0T212 71T121 190T86 360Q86 449 120 516T213 627T351 694T522 717Q597 717 646 704T729 674V727Q729 787 689 825T575 864Q481 864 422 851T281 793L172 989Q274 1049 365 1073T575 1098Q673 1098 753 1073T891 1000T980 882T1012 721V0H729ZM729 451Q711 462 692 470T650 484T599 493T532 496Q452 496 411 461T369 360Q369 332 377 306T405 261T456 229T532 217Q567 217 597 225T653 246T698 278T729 315V451ZM772 1466L567 1619L362 1466H176L426 1793H712L962 1466H772Z"/><glyph unicode="ã" horiz-adv-x="1139" d="M729 0V72Q710 52 686 36T628 5T559 -16T487 -23Q412 -23 340 0T212 71T121 190T86 360Q86 449 120 516T213 627T351 694T522 717Q597 717 646 704T729 674V727Q729 787 689 825T575 864Q481 864 422 851T281 793L172 989Q274 1049 365 1073T575 1098Q673 1098 753 1073T891 1000T980 882T1012 721V0H729ZM729 451Q711 462 692 470T650 484T599 493T532 496Q452 496 411 461T369 360Q369 332 377 306T405 261T456 229T532 217Q567 217 597 225T653 246T698 278T729 315V451ZM977 1507Q977 1439 960 1384T911 1291T837 1233T741 1212Q709 1212 684 1215T636 1226T589 1246T534 1276Q511 1290 483 1303T428 1317Q399 1317 383 1295T358 1219H174Q174 1287 191 1341T239 1434T313 1492T409 1513Q441 1513 466 1510T514 1500T561 1480T616 1450Q640 1436 668 1423T723 1409Q752 1409 767 1431T792 1507H977Z"/><glyph unicode="ä" horiz-adv-x="1139" d="M729 0V72Q710 52 686 36T628 5T559 -16T487 -23Q412 -23 340 0T212 71T121 190T86 360Q86 449 120 516T213 627T351 694T522 717Q597 717 646 704T729 674V727Q729 787 689 825T575 864Q481 864 422 851T281 793L172 989Q274 1049 365 1073T575 1098Q673 1098 753 1073T891 1000T980 882T1012 721V0H729ZM729 451Q711 462 692 470T650 484T599 493T532 496Q452 496 411 461T369 360Q369 332 377 306T405 261T456 229T532 217Q567 217 597 225T653 246T698 278T729 315V451ZM950 1623Q950 1591 937 1563T903 1513T852 1479T792 1466Q759 1466 730 1478T678 1513T643 1563T630 1623Q630 1656 643 1685T678 1736T729 1770T792 1783Q823 1783 852 1771T902 1736T937 1685T950 1623ZM508 1623Q508 1591 495 1563T460 1513T409 1479T348 1466Q316 1466 287 1478T236 1513T201 1563T188 1623Q188 1656 201 1685T236 1736T287 1770T348 1783Q380 1783 409 1771T460 1736T495 1685T508 1623Z"/><glyph unicode="å" horiz-adv-x="1139" d="M729 0V72Q710 52 686 36T628 5T559 -16T487 -23Q412 -23 340 0T212 71T121 190T86 360Q86 449 120 516T213 627T351 694T522 717Q597 717 646 704T729 674V727Q729 787 689 825T575 864Q481 864 422 851T281 793L172 989Q274 1049 365 1073T575 1098Q673 1098 753 1073T891 1000T980 882T1012 721V0H729ZM729 451Q711 462 692 470T650 484T599 493T532 496Q452 496 411 461T369 360Q369 332 377 306T405 261T456 229T532 217Q567 217 597 225T653 246T698 278T729 315V451ZM845 1491Q845 1432 824 1382T766 1296T679 1240T569 1219Q510 1219 460 1239T372 1296T314 1382T293 1491Q293 1550 314 1600T372 1688T459 1746T569 1767Q628 1767 678 1746T766 1688T824 1601T845 1491ZM690 1491Q690 1517 681 1539T655 1578T617 1604T569 1614Q543 1614 521 1605T483 1579T458 1540T448 1491Q448 1465 457 1443T483 1404T521 1378T569 1368Q594 1368 616 1377T655 1403T680 1442T690 1491Z"/><glyph unicode="æ" horiz-adv-x="1726" d="M1638 537Q1638 506 1637 484T1634 446H991Q995 391 1015 353T1067 290T1136 255T1212 244Q1242 244 1268 249T1320 265T1363 288T1397 319L1597 152Q1565 110 1521 78T1427 23T1321 -11T1212 -23Q1085 -23 992 22T836 141Q759 55 676 16T487 -23Q412 -23 340 0T212 71T121 190T86 360Q86 449 120 516T213 627T351 694T522 717Q597 717 646 704T729 674V727Q729 787 689 825T575 864Q474 864 411 847T281 793L172 989Q265 1044 357 1071T575 1098Q690 1098 767 1067T899 973Q952 1030 1023 1064T1186 1098Q1294 1098 1378 1054T1519 933T1607 754T1638 537ZM1364 659Q1361 695 1349 730T1313 792T1254 835T1171 852Q1133 852 1102 837T1049 796T1013 735T995 659H1364ZM729 451Q711 462 692 470T650 484T599 493T532 496Q452 496 411 461T369 360Q369 292 412 255T532 217Q567 217 597 225T653 246T698 278T729 315Q729 349 729 383T729 451Z"/><glyph unicode="ç" horiz-adv-x="1100" d="M1026 217Q987 165 944 121T847 45T730 -5T586 -23Q481 -23 389 18T229 133T121 310T82 537Q82 660 120 763T228 941T391 1056T598 1098Q734 1098 840 1039T1024 860L838 672Q814 706 789 734T734 782T670 813T592 825Q541 825 500 805T430 747T385 656T369 537Q369 472 385 420T430 329T500 271T592 250Q633 250 667 259T732 285T790 328T846 387L1026 217ZM527 76H641L606 -86Q619 -80 638 -76T686 -72Q719 -72 748 -80T799 -107T833 -152T846 -217Q846 -263 829 -296T779 -352T702 -384T602 -395Q519 -395 452 -374T334 -322L377 -244Q476 -293 559 -293Q613 -293 641 -276T670 -223Q670 -192 651 -181T606 -170Q571 -169 545 -184L471 -156L527 76Z"/><glyph unicode="è" horiz-adv-x="1102" d="M1014 537Q1014 506 1013 484T1010 446H367Q371 391 391 353T442 290T511 255T588 244Q617 244 642 248T692 263T737 288T772 319L973 152Q941 110 897 78T802 23T697 -11T588 -23Q499 -23 429 -2T305 56T211 139T142 245T98 376T82 537Q82 660 118 763T219 941T371 1056T561 1098Q669 1098 753 1054T895 933T983 754T1014 537ZM739 659Q736 695 724 730T688 792T630 835T547 852Q508 852 478 837T425 796T389 735T371 659H739ZM726 1219L429 1546H787L965 1219H726Z"/><glyph unicode="é" horiz-adv-x="1102" d="M1014 537Q1014 506 1013 484T1010 446H367Q371 391 391 353T442 290T511 255T588 244Q617 244 642 248T692 263T737 288T772 319L973 152Q941 110 897 78T802 23T697 -11T588 -23Q499 -23 429 -2T305 56T211 139T142 245T98 376T82 537Q82 660 118 763T219 941T371 1056T561 1098Q669 1098 753 1054T895 933T983 754T1014 537ZM739 659Q736 695 724 730T688 792T630 835T547 852Q508 852 478 837T425 796T389 735T371 659H739ZM633 1219H394L572 1546H930L633 1219Z"/><glyph unicode="ê" horiz-adv-x="1102" d="M1014 537Q1014 506 1013 484T1010 446H367Q371 391 391 353T442 290T511 255T588 244Q617 244 642 248T692 263T737 288T772 319L973 152Q941 110 897 78T802 23T697 -11T588 -23Q499 -23 429 -2T305 56T211 139T142 245T98 376T82 537Q82 660 118 763T219 941T371 1056T561 1098Q669 1098 753 1054T895 933T983 754T1014 537ZM739 659Q736 695 724 730T688 792T630 835T547 852Q508 852 478 837T425 796T389 735T371 659H739ZM762 1456L557 1609L352 1456H166L416 1783H702L952 1456H762Z"/><glyph unicode="ë" horiz-adv-x="1102" d="M1014 537Q1014 506 1013 484T1010 446H367Q371 391 391 353T442 290T511 255T588 244Q617 244 642 248T692 263T737 288T772 319L973 152Q941 110 897 78T802 23T697 -11T588 -23Q499 -23 429 -2T305 56T211 139T142 245T98 376T82 537Q82 660 118 763T219 941T371 1056T561 1098Q669 1098 753 1054T895 933T983 754T1014 537ZM739 659Q736 695 724 730T688 792T630 835T547 852Q508 852 478 837T425 796T389 735T371 659H739ZM940 1623Q940 1591 927 1563T893 1513T842 1479T782 1466Q749 1466 720 1478T668 1513T633 1563T620 1623Q620 1656 633 1685T668 1736T719 1770T782 1783Q813 1783 842 1771T892 1736T927 1685T940 1623ZM498 1623Q498 1591 485 1563T450 1513T399 1479T338 1466Q306 1466 277 1478T226 1513T191 1563T178 1623Q178 1656 191 1685T226 1736T277 1770T338 1783Q370 1783 399 1771T450 1736T485 1685T498 1623Z"/><glyph unicode="ì" horiz-adv-x="578" d="M147 0V1075H430V0H147ZM184 1219L-113 1546H245L423 1219H184Z"/><glyph unicode="í" horiz-adv-x="578" d="M147 0V1075H430V0H147ZM650 1219H411L589 1546H947L650 1219Z"/><glyph unicode="î" horiz-adv-x="578" d="M147 0V1075H430V0H147ZM493 1189L288 1342L83 1189H-103L147 1516H433L683 1189H493Z"/><glyph unicode="ï" horiz-adv-x="578" d="M147 0V1075H430V0H147ZM671 1357Q671 1325 658 1297T624 1247T573 1213T513 1200Q480 1200 451 1212T399 1247T364 1297T351 1357Q351 1390 364 1419T399 1470T450 1504T513 1517Q544 1517 573 1505T623 1470T658 1419T671 1357ZM229 1357Q229 1325 216 1297T181 1247T130 1213T69 1200Q37 1200 8 1212T-43 1247T-78 1297T-91 1357Q-91 1390 -78 1419T-43 1470T8 1504T69 1517Q101 1517 130 1505T181 1470T216 1419T229 1357Z"/><glyph unicode="ð" horiz-adv-x="1137" d="M1055 578Q1055 424 1019 311T917 124T762 13T567 -23Q462 -23 373 13T220 114T119 272T82 475Q82 586 117 678T213 836T355 938T526 975Q604 975 664 955T780 897Q765 966 731 1022T647 1124L551 1030L420 1147L494 1219Q400 1256 315 1262V1456Q414 1453 497 1432T651 1374L735 1456L866 1339L797 1272Q864 1210 913 1132T993 964T1040 776T1055 578ZM778 475Q778 530 765 576T726 655T660 708T567 727Q514 727 475 709T410 657T371 577T358 475Q358 420 371 375T410 296T475 245T567 227Q620 227 659 247T725 301T765 380T778 475Z"/><glyph unicode="ñ" horiz-adv-x="1196" d="M786 0V582Q786 709 746 770T604 831Q560 831 526 819T469 779T433 705T420 588V0H137V1075H420V1004Q438 1022 463 1039T523 1070T594 1091T672 1098Q775 1098 849 1064T973 966T1045 811T1069 606V0H786ZM1002 1507Q1002 1439 985 1384T936 1291T862 1233T766 1212Q734 1212 709 1215T661 1226T614 1246T559 1276Q536 1290 508 1303T453 1317Q424 1317 408 1295T383 1219H199Q199 1287 216 1341T264 1434T338 1492T434 1513Q466 1513 491 1510T539 1500T586 1480T641 1450Q665 1436 693 1423T748 1409Q777 1409 792 1431T817 1507H1002Z"/><glyph unicode="ò" horiz-adv-x="1137" d="M1055 537Q1055 413 1019 310T917 133T762 18T567 -23Q462 -23 373 18T220 133T119 310T82 537Q82 660 118 763T219 941T373 1056T567 1098Q672 1098 761 1057T916 941T1018 764T1055 537ZM768 537Q768 598 756 650T718 742T656 803T567 825Q516 825 479 803T418 743T381 652T369 537Q369 475 381 422T417 331T479 272T567 250Q618 250 655 273T718 337T755 429T768 537ZM734 1219L437 1546H795L973 1219H734Z"/><glyph unicode="ó" horiz-adv-x="1137" d="M1055 537Q1055 413 1019 310T917 133T762 18T567 -23Q462 -23 373 18T220 133T119 310T82 537Q82 660 118 763T219 941T373 1056T567 1098Q672 1098 761 1057T916 941T1018 764T1055 537ZM768 537Q768 598 756 650T718 742T656 803T567 825Q516 825 479 803T418 743T381 652T369 537Q369 475 381 422T417 331T479 272T567 250Q618 250 655 273T718 337T755 429T768 537ZM641 1219H402L580 1546H938L641 1219Z"/><glyph unicode="ô" horiz-adv-x="1137" d="M1055 537Q1055 413 1019 310T917 133T762 18T567 -23Q462 -23 373 18T220 133T119 310T82 537Q82 660 118 763T219 941T373 1056T567 1098Q672 1098 761 1057T916 941T1018 764T1055 537ZM768 537Q768 598 756 650T718 742T656 803T567 825Q516 825 479 803T418 743T381 652T369 537Q369 475 381 422T417 331T479 272T567 250Q618 250 655 273T718 337T755 429T768 537ZM770 1456L565 1609L360 1456H174L424 1783H710L960 1456H770Z"/><glyph unicode="õ" horiz-adv-x="1137" d="M1055 537Q1055 413 1019 310T917 133T762 18T567 -23Q462 -23 373 18T220 133T119 310T82 537Q82 660 118 763T219 941T373 1056T567 1098Q672 1098 761 1057T916 941T1018 764T1055 537ZM768 537Q768 598 756 650T718 742T656 803T567 825Q516 825 479 803T418 743T381 652T369 537Q369 475 381 422T417 331T479 272T567 250Q618 250 655 273T718 337T755 429T768 537ZM967 1507Q967 1439 950 1384T901 1291T827 1233T731 1212Q699 1212 674 1215T626 1226T579 1246T524 1276Q501 1290 473 1303T418 1317Q389 1317 373 1295T348 1219H164Q164 1287 181 1341T229 1434T303 1492T399 1513Q431 1513 456 1510T504 1500T551 1480T606 1450Q630 1436 658 1423T713 1409Q742 1409 757 1431T782 1507H967Z"/><glyph unicode="ö" horiz-adv-x="1137" d="M1055 537Q1055 413 1019 310T917 133T762 18T567 -23Q462 -23 373 18T220 133T119 310T82 537Q82 660 118 763T219 941T373 1056T567 1098Q672 1098 761 1057T916 941T1018 764T1055 537ZM768 537Q768 598 756 650T718 742T656 803T567 825Q516 825 479 803T418 743T381 652T369 537Q369 475 381 422T417 331T479 272T567 250Q618 250 655 273T718 337T755 429T768 537ZM948 1613Q948 1581 935 1553T901 1503T850 1469T790 1456Q757 1456 728 1468T676 1503T641 1553T628 1613Q628 1646 641 1675T676 1726T727 1760T790 1773Q821 1773 850 1761T900 1726T935 1675T948 1613ZM506 1613Q506 1581 493 1553T458 1503T407 1469T346 1456Q314 1456 285 1468T234 1503T199 1553T186 1613Q186 1646 199 1675T234 1726T285 1760T346 1773Q378 1773 407 1761T458 1726T493 1675T506 1613Z"/><glyph unicode="÷" horiz-adv-x="1270" d="M807 1143Q807 1108 793 1077T756 1023T701 987T635 973Q599 973 568 986T513 1023T477 1077T463 1143Q463 1178 476 1210T513 1266T568 1304T635 1319Q669 1319 700 1305T755 1266T793 1210T807 1143ZM119 580V829H1149V580H119ZM807 262Q807 226 793 195T756 140T701 104T635 90Q599 90 568 103T513 140T477 194T463 262Q463 297 476 328T513 384T568 422T635 436Q669 436 700 422T755 384T793 329T807 262Z"/><glyph unicode="ø" horiz-adv-x="1137" d="M1055 537Q1055 413 1019 310T917 133T762 18T567 -23Q495 -23 408 4L352 -102H100L223 129Q157 203 120 306T82 537Q82 660 118 763T219 941T373 1056T567 1098Q609 1098 648 1092T723 1071L778 1178H1030L909 948Q978 873 1016 769T1055 537ZM621 858Q595 864 567 864Q511 864 470 839T402 769T362 665T348 537Q348 493 353 455T369 381L621 858ZM788 537Q788 583 782 623T764 700L510 219Q536 211 567 211Q623 211 664 239T733 312T774 416T788 537Z"/><glyph unicode="ù" horiz-adv-x="1196" d="M776 0V72Q739 33 674 5T524 -23Q330 -23 229 102T127 469V1075H410V494Q410 364 451 304T592 244Q693 244 734 305T776 487V1075H1059V0H776ZM504 1219L207 1546H565L743 1219H504Z"/><glyph unicode="ú" horiz-adv-x="1196" d="M776 0V72Q739 33 674 5T524 -23Q330 -23 229 102T127 469V1075H410V494Q410 364 451 304T592 244Q693 244 734 305T776 487V1075H1059V0H776ZM667 1219H428L606 1546H964L667 1219Z"/><glyph unicode="û" horiz-adv-x="1196" d="M776 0V72Q739 33 674 5T524 -23Q330 -23 229 102T127 469V1075H410V494Q410 364 451 304T592 244Q693 244 734 305T776 487V1075H1059V0H776ZM797 1219L592 1372L387 1219H201L451 1546H737L987 1219H797Z"/><glyph unicode="ü" horiz-adv-x="1196" d="M776 0V72Q739 33 674 5T524 -23Q330 -23 229 102T127 469V1075H410V494Q410 364 451 304T592 244Q693 244 734 305T776 487V1075H1059V0H776ZM975 1376Q975 1344 962 1316T928 1266T877 1232T817 1219Q784 1219 755 1231T703 1266T668 1316T655 1376Q655 1409 668 1438T703 1489T754 1523T817 1536Q848 1536 877 1524T927 1489T962 1438T975 1376ZM533 1376Q533 1344 520 1316T485 1266T434 1232T373 1219Q341 1219 312 1231T261 1266T226 1316T213 1376Q213 1409 226 1438T261 1489T312 1523T373 1536Q405 1536 434 1524T485 1489T520 1438T533 1376Z"/><glyph unicode="ý" horiz-adv-x="1208" d="M604 -379H326L469 0L51 1075H362L608 351L854 1075H1157L604 -379ZM676 1200H437L615 1527H973L676 1200Z"/><glyph unicode="þ" horiz-adv-x="1151" d="M1065 524Q1065 404 1037 304T956 131T825 18T647 -23Q576 -23 517 1T420 61V-254L137 -395V1352L420 1493V1008Q440 1026 463 1042T515 1070T576 1090T647 1098Q733 1098 809 1065T942 962T1032 784T1065 524ZM778 518Q778 601 765 660T728 757T670 813T594 831Q529 831 488 805T420 741V336Q437 312 457 295T502 266T551 249T610 244Q692 244 735 313T778 518Z"/><glyph unicode="ÿ" horiz-adv-x="1208" d="M604 -379H326L469 0L51 1075H362L608 351L854 1075H1157L604 -379ZM983 1613Q983 1581 970 1553T936 1503T885 1469T825 1456Q792 1456 763 1468T711 1503T676 1553T663 1613Q663 1646 676 1675T711 1726T762 1760T825 1773Q856 1773 885 1761T935 1726T970 1675T983 1613ZM541 1613Q541 1581 528 1553T493 1503T442 1469T381 1456Q349 1456 320 1468T269 1503T234 1553T221 1613Q221 1646 234 1675T269 1726T320 1760T381 1773Q413 1773 442 1761T493 1726T528 1675T541 1613Z"/><glyph unicode="Ā" horiz-adv-x="1536" d="M1454 0H1139L1026 319H502L389 0H82L631 1434H909L1454 0ZM928 592L764 1059L600 592H928ZM471 1556V1771H1065V1556H471Z"/><glyph unicode="ā" horiz-adv-x="1139" d="M729 0V72Q710 52 686 36T628 5T559 -16T487 -23Q412 -23 340 0T212 71T121 190T86 360Q86 449 120 516T213 627T351 694T522 717Q597 717 646 704T729 674V727Q729 787 689 825T575 864Q481 864 422 851T281 793L172 989Q274 1049 365 1073T575 1098Q673 1098 753 1073T891 1000T980 882T1012 721V0H729ZM729 451Q711 462 692 470T650 484T599 493T532 496Q452 496 411 461T369 360Q369 332 377 306T405 261T456 229T532 217Q567 217 597 225T653 246T698 278T729 315V451ZM272 1249V1464H866V1249H272Z"/><glyph unicode="Ă" horiz-adv-x="1536" d="M1454 0H1139L1026 319H502L389 0H82L631 1434H909L1454 0ZM928 592L764 1059L600 592H928ZM766 1526Q682 1526 617 1548T503 1612T426 1714T385 1853H557Q577 1785 628 1753T770 1720Q863 1720 913 1751T985 1853H1151Q1140 1775 1109 1715T1028 1612T912 1548T766 1526Z"/><glyph unicode="ă" horiz-adv-x="1139" d="M729 0V72Q710 52 686 36T628 5T559 -16T487 -23Q412 -23 340 0T212 71T121 190T86 360Q86 449 120 516T213 627T351 694T522 717Q597 717 646 704T729 674V727Q729 787 689 825T575 864Q481 864 422 851T281 793L172 989Q274 1049 365 1073T575 1098Q673 1098 753 1073T891 1000T980 882T1012 721V0H729ZM729 451Q711 462 692 470T650 484T599 493T532 496Q452 496 411 461T369 360Q369 332 377 306T405 261T456 229T532 217Q567 217 597 225T653 246T698 278T729 315V451ZM567 1219Q483 1219 418 1241T304 1305T227 1407T186 1546H358Q378 1478 429 1446T571 1413Q664 1413 714 1444T786 1546H952Q941 1468 910 1408T829 1305T713 1241T567 1219Z"/><glyph unicode="Ą" horiz-adv-x="1536" d="M1454 0H1139L1026 319H502L389 0H82L631 1434H909L1454 0ZM928 592L764 1059L600 592H928ZM1423 0Q1361 -4 1316 -19T1242 -55T1199 -101T1185 -150Q1185 -187 1209 -207T1279 -227Q1300 -227 1322 -220T1361 -203L1423 -326Q1361 -367 1303 -389T1171 -412Q1120 -412 1080 -397T1011 -357T967 -299T952 -231Q952 -187 968 -151T1010 -86T1070 -36T1140 0H1423Z"/><glyph unicode="ą" horiz-adv-x="1139" d="M729 0V72Q710 52 686 36T628 5T559 -16T487 -23Q412 -23 340 0T212 71T121 190T86 360Q86 449 120 516T213 627T351 694T522 717Q597 717 646 704T729 674V727Q729 787 689 825T575 864Q481 864 422 851T281 793L172 989Q274 1049 365 1073T575 1098Q673 1098 753 1073T891 1000T980 882T1012 721V0H729ZM729 451Q711 462 692 470T650 484T599 493T532 496Q452 496 411 461T369 360Q369 332 377 306T405 261T456 229T532 217Q567 217 597 225T653 246T698 278T729 315V451ZM1012 0Q950 -4 905 -19T831 -55T788 -101T774 -150Q774 -187 798 -207T868 -227Q889 -227 911 -220T950 -203L1012 -326Q950 -367 892 -389T760 -412Q709 -412 669 -397T600 -357T556 -299T541 -231Q541 -187 557 -151T599 -86T659 -36T729 0H1012Z"/><glyph unicode="Ć" horiz-adv-x="1372" d="M1004 1016Q980 1062 958 1085T904 1128T833 1160T741 1171Q660 1171 598 1138T492 1044T426 901T403 717Q403 620 426 537T492 393T599 297T743 262Q831 262 895 300T1024 444L1266 301Q1229 225 1178 165T1061 63T914 -1T735 -23Q637 -23 557 0T405 69T279 179T191 314T134 485T109 717Q109 880 156 1016T287 1250T488 1402T745 1456Q926 1456 1059 1378T1270 1139L1004 1016ZM786 1526H547L725 1853H1083L786 1526Z"/><glyph unicode="ć" horiz-adv-x="1100" d="M1026 217Q987 165 944 121T847 45T730 -5T586 -23Q481 -23 389 18T229 133T121 310T82 537Q82 660 120 763T228 941T391 1056T598 1098Q734 1098 840 1039T1024 860L838 672Q814 706 789 734T734 782T670 813T592 825Q541 825 500 805T430 747T385 656T369 537Q369 472 385 420T430 329T500 271T592 250Q633 250 667 259T732 285T790 328T846 387L1026 217ZM633 1219H394L572 1546H930L633 1219Z"/><glyph unicode="Ĉ" horiz-adv-x="1372" d="M1004 1016Q980 1062 958 1085T904 1128T833 1160T741 1171Q660 1171 598 1138T492 1044T426 901T403 717Q403 620 426 537T492 393T599 297T743 262Q831 262 895 300T1024 444L1266 301Q1229 225 1178 165T1061 63T914 -1T735 -23Q637 -23 557 0T405 69T279 179T191 314T134 485T109 717Q109 880 156 1016T287 1250T488 1402T745 1456Q926 1456 1059 1378T1270 1139L1004 1016ZM930 1516L725 1669L520 1516H334L584 1843H870L1120 1516H930Z"/><glyph unicode="ĉ" horiz-adv-x="1100" d="M1026 217Q987 165 944 121T847 45T730 -5T586 -23Q481 -23 389 18T229 133T121 310T82 537Q82 660 120 763T228 941T391 1056T598 1098Q734 1098 840 1039T1024 860L838 672Q814 706 789 734T734 782T670 813T592 825Q541 825 500 805T430 747T385 656T369 537Q369 472 385 420T430 329T500 271T592 250Q633 250 667 259T732 285T790 328T846 387L1026 217ZM797 1456L592 1609L387 1456H201L451 1783H737L987 1456H797Z"/><glyph unicode="Ċ" horiz-adv-x="1372" d="M1004 1016Q980 1062 958 1085T904 1128T833 1160T741 1171Q660 1171 598 1138T492 1044T426 901T403 717Q403 620 426 537T492 393T599 297T743 262Q831 262 895 300T1024 444L1266 301Q1229 225 1178 165T1061 63T914 -1T735 -23Q637 -23 557 0T405 69T279 179T191 314T134 485T109 717Q109 880 156 1016T287 1250T488 1402T745 1456Q926 1456 1059 1378T1270 1139L1004 1016ZM895 1683Q895 1651 882 1623T848 1573T797 1539T737 1526Q704 1526 675 1538T623 1573T588 1623T575 1683Q575 1716 588 1745T623 1796T674 1830T737 1843Q768 1843 797 1831T847 1796T882 1745T895 1683Z"/><glyph unicode="ċ" horiz-adv-x="1100" d="M1026 217Q987 165 944 121T847 45T730 -5T586 -23Q481 -23 389 18T229 133T121 310T82 537Q82 660 120 763T228 941T391 1056T598 1098Q734 1098 840 1039T1024 860L838 672Q814 706 789 734T734 782T670 813T592 825Q541 825 500 805T430 747T385 656T369 537Q369 472 385 420T430 329T500 271T592 250Q633 250 667 259T732 285T790 328T846 387L1026 217ZM750 1376Q750 1344 737 1316T703 1266T652 1232T592 1219Q559 1219 530 1231T478 1266T443 1316T430 1376Q430 1409 443 1438T478 1489T529 1523T592 1536Q623 1536 652 1524T702 1489T737 1438T750 1376Z"/><glyph unicode="Č" horiz-adv-x="1372" d="M1004 1016Q980 1062 958 1085T904 1128T833 1160T741 1171Q660 1171 598 1138T492 1044T426 901T403 717Q403 620 426 537T492 393T599 297T743 262Q831 262 895 300T1024 444L1266 301Q1229 225 1178 165T1061 63T914 -1T735 -23Q637 -23 557 0T405 69T279 179T191 314T134 485T109 717Q109 880 156 1016T287 1250T488 1402T745 1456Q926 1456 1059 1378T1270 1139L1004 1016ZM868 1526H582L332 1853H522L727 1700L932 1853H1118L868 1526Z"/><glyph unicode="č" horiz-adv-x="1100" d="M1026 217Q987 165 944 121T847 45T730 -5T586 -23Q481 -23 389 18T229 133T121 310T82 537Q82 660 120 763T228 941T391 1056T598 1098Q734 1098 840 1039T1024 860L838 672Q814 706 789 734T734 782T670 813T592 825Q541 825 500 805T430 747T385 656T369 537Q369 472 385 420T430 329T500 271T592 250Q633 250 667 259T732 285T790 328T846 387L1026 217ZM737 1219H451L201 1546H391L596 1393L801 1546H987L737 1219Z"/><glyph unicode="Ď" horiz-adv-x="1448" d="M1346 717Q1346 591 1318 489T1238 307T1118 170T967 74T795 18T612 0H184V1434H633Q786 1434 917 1396T1143 1272T1292 1050T1346 717ZM1051 717Q1051 827 1027 909T951 1046T818 1128T623 1155H471V279H612Q725 279 807 310T944 399T1024 538T1051 717ZM866 1526H580L330 1853H520L725 1700L930 1853H1116L866 1526Z"/><glyph unicode="ď" horiz-adv-x="1354" d="M727 0V68Q706 49 684 35T634 6T573 -16T500 -23Q414 -23 338 10T205 114T115 292T82 551Q82 671 110 771T191 944T322 1057T500 1098Q537 1098 569 1092T632 1073T685 1045T727 1014V1352L1010 1493V0H727ZM727 739Q711 761 693 777T652 805T599 824T537 831Q455 831 412 762T369 557Q369 474 382 415T419 318T477 262T553 244Q586 244 611 250T657 269T695 297T727 334V739ZM1300 916H1143L1166 1381H1435L1300 916Z"/><glyph unicode="Đ" horiz-adv-x="1479" d="M1376 717Q1376 554 1326 423T1177 197T940 51T643 0H215V631H82V866H215V1434H664Q817 1434 947 1396T1173 1272T1322 1050T1376 717ZM1081 717Q1081 827 1057 909T981 1046T848 1128T653 1155H494V866H686V631H494V279H643Q756 279 838 310T975 399T1055 538T1081 717Z"/><glyph unicode="đ" horiz-adv-x="1200" d="M553 244Q586 244 611 250T657 269T695 297T727 334V739Q661 831 537 831Q455 831 412 762T369 557Q369 474 382 415T419 318T477 262T553 244ZM1010 1493V1300H1159V1085H1010V0H727V68Q687 32 632 5T500 -23Q414 -23 338 10T205 114T115 292T82 551Q82 671 110 771T191 944T322 1057T500 1098Q537 1098 571 1091T634 1071T686 1044T727 1014V1352L1010 1493Z"/><glyph unicode="Ē" horiz-adv-x="1331" d="M1210 0H184V1434H1180V1153H471V905H1047V627H471V281H1210V0ZM389 1556V1771H983V1556H389Z"/><glyph unicode="ē" horiz-adv-x="1102" d="M1014 537Q1014 506 1013 484T1010 446H367Q371 391 391 353T442 290T511 255T588 244Q617 244 642 248T692 263T737 288T772 319L973 152Q941 110 897 78T802 23T697 -11T588 -23Q499 -23 429 -2T305 56T211 139T142 245T98 376T82 537Q82 660 118 763T219 941T371 1056T561 1098Q669 1098 753 1054T895 933T983 754T1014 537ZM739 659Q736 695 724 730T688 792T630 835T547 852Q508 852 478 837T425 796T389 735T371 659H739ZM254 1249V1464H848V1249H254Z"/><glyph unicode="Ĕ" horiz-adv-x="1331" d="M1210 0H184V1434H1180V1153H471V905H1047V627H471V281H1210V0ZM688 1504Q604 1504 539 1526T425 1590T348 1692T307 1831H479Q499 1763 550 1731T692 1698Q785 1698 835 1729T907 1831H1073Q1062 1753 1031 1693T950 1590T834 1526T688 1504Z"/><glyph unicode="ĕ" horiz-adv-x="1102" d="M1014 537Q1014 506 1013 484T1010 446H367Q371 391 391 353T442 290T511 255T588 244Q617 244 642 248T692 263T737 288T772 319L973 152Q941 110 897 78T802 23T697 -11T588 -23Q499 -23 429 -2T305 56T211 139T142 245T98 376T82 537Q82 660 118 763T219 941T371 1056T561 1098Q669 1098 753 1054T895 933T983 754T1014 537ZM739 659Q736 695 724 730T688 792T630 835T547 852Q508 852 478 837T425 796T389 735T371 659H739ZM549 1219Q465 1219 400 1241T286 1305T209 1407T168 1546H340Q360 1478 411 1446T553 1413Q646 1413 696 1444T768 1546H934Q923 1468 892 1408T811 1305T695 1241T549 1219Z"/><glyph unicode="Ė" horiz-adv-x="1331" d="M1210 0H184V1434H1180V1153H471V905H1047V627H471V281H1210V0ZM844 1683Q844 1651 831 1623T797 1573T746 1539T686 1526Q653 1526 624 1538T572 1573T537 1623T524 1683Q524 1716 537 1745T572 1796T623 1830T686 1843Q717 1843 746 1831T796 1796T831 1745T844 1683Z"/><glyph unicode="ė" horiz-adv-x="1102" d="M1014 537Q1014 506 1013 484T1010 446H367Q371 391 391 353T442 290T511 255T588 244Q617 244 642 248T692 263T737 288T772 319L973 152Q941 110 897 78T802 23T697 -11T588 -23Q499 -23 429 -2T305 56T211 139T142 245T98 376T82 537Q82 660 118 763T219 941T371 1056T561 1098Q669 1098 753 1054T895 933T983 754T1014 537ZM739 659Q736 695 724 730T688 792T630 835T547 852Q508 852 478 837T425 796T389 735T371 659H739ZM709 1376Q709 1344 696 1316T662 1266T611 1232T551 1219Q518 1219 489 1231T437 1266T402 1316T389 1376Q389 1409 402 1438T437 1489T488 1523T551 1536Q582 1536 611 1524T661 1489T696 1438T709 1376Z"/><glyph unicode="Ę" horiz-adv-x="1331" d="M1210 0H184V1434H1180V1153H471V905H1047V627H471V281H1210V0ZM1210 0Q1148 -4 1103 -19T1029 -55T986 -101T972 -150Q972 -187 996 -207T1066 -227Q1087 -227 1109 -220T1148 -203L1210 -326Q1148 -367 1090 -389T958 -412Q907 -412 867 -397T798 -357T754 -299T739 -231Q739 -187 755 -151T797 -86T857 -36T927 0H1210Z"/><glyph unicode="ę" horiz-adv-x="1102" d="M772 319L973 152Q933 104 889 73T802 21T718 -17T644 -52T589 -98T568 -165Q568 -195 591 -211T655 -227Q667 -227 681 -224T737 -203L799 -326Q727 -373 670 -392T547 -412Q496 -412 456 -397T387 -357T343 -299T328 -231Q328 -158 372 -101T483 -14Q390 3 316 49T190 166T110 331T82 537Q82 660 118 763T219 941T371 1056T561 1098Q669 1098 753 1054T895 933T983 754T1014 537Q1014 506 1013 484T1010 446H367Q371 391 391 353T442 290T511 255T588 244Q647 244 694 264T772 319ZM739 659Q736 695 724 730T688 792T630 835T547 852Q508 852 478 837T425 796T389 735T371 659H739Z"/><glyph unicode="Ě" horiz-adv-x="1331" d="M1210 0H184V1434H1180V1153H471V905H1047V627H471V281H1210V0ZM817 1526H531L281 1853H471L676 1700L881 1853H1067L817 1526Z"/><glyph unicode="ě" horiz-adv-x="1102" d="M1014 537Q1014 506 1013 484T1010 446H367Q371 391 391 353T442 290T511 255T588 244Q617 244 642 248T692 263T737 288T772 319L973 152Q941 110 897 78T802 23T697 -11T588 -23Q499 -23 429 -2T305 56T211 139T142 245T98 376T82 537Q82 660 118 763T219 941T371 1056T561 1098Q669 1098 753 1054T895 933T983 754T1014 537ZM739 659Q736 695 724 730T688 792T630 835T547 852Q508 852 478 837T425 796T389 735T371 659H739ZM694 1219H408L158 1546H348L553 1393L758 1546H944L694 1219Z"/><glyph unicode="Ĝ" horiz-adv-x="1430" d="M1311 555Q1311 417 1268 309T1148 128T965 16T735 -23Q594 -23 479 29T282 177T154 410T109 717Q109 880 156 1016T287 1250T488 1402T745 1456Q960 1456 1091 1360T1288 1098L1016 985Q996 1025 973 1059T917 1118T842 1157T741 1171Q660 1171 598 1138T492 1044T426 901T403 717Q403 618 426 534T492 389T599 293T743 258Q865 258 934 306T1022 461L1024 475H797V743H1311V555ZM940 1516L735 1669L530 1516H344L594 1843H880L1130 1516H940Z"/><glyph unicode="ĝ" horiz-adv-x="1151" d="M1010 166Q1010 16 976 -88T874 -256Q812 -315 720 -352T496 -397L412 -172Q506 -164 567 -149T662 -109Q692 -87 709 -48T727 61V68Q707 50 685 35T634 6T573 -16T500 -23Q414 -23 338 10T205 114T115 292T82 551Q82 671 110 771T191 944T322 1057T500 1098Q534 1098 567 1092T632 1073T686 1045T727 1014V1075H1010V166ZM553 244Q611 244 652 266T727 334V739Q711 761 695 776T654 804T601 824T537 831Q455 831 412 762T369 557Q369 396 417 320T553 244ZM778 1456L573 1609L368 1456H182L432 1783H718L968 1456H778Z"/><glyph unicode="Ğ" horiz-adv-x="1430" d="M1311 555Q1311 417 1268 309T1148 128T965 16T735 -23Q594 -23 479 29T282 177T154 410T109 717Q109 880 156 1016T287 1250T488 1402T745 1456Q960 1456 1091 1360T1288 1098L1016 985Q996 1025 973 1059T917 1118T842 1157T741 1171Q660 1171 598 1138T492 1044T426 901T403 717Q403 618 426 534T492 389T599 293T743 258Q865 258 934 306T1022 461L1024 475H797V743H1311V555ZM737 1524Q653 1524 588 1546T474 1610T397 1712T356 1851H528Q548 1783 599 1751T741 1718Q834 1718 884 1749T956 1851H1122Q1111 1773 1080 1713T999 1610T883 1546T737 1524Z"/><glyph unicode="ğ" horiz-adv-x="1151" d="M1010 166Q1010 16 976 -88T874 -256Q812 -315 720 -352T496 -397L412 -172Q506 -164 567 -149T662 -109Q692 -87 709 -48T727 61V68Q707 50 685 35T634 6T573 -16T500 -23Q414 -23 338 10T205 114T115 292T82 551Q82 671 110 771T191 944T322 1057T500 1098Q534 1098 567 1092T632 1073T686 1045T727 1014V1075H1010V166ZM553 244Q611 244 652 266T727 334V739Q711 761 695 776T654 804T601 824T537 831Q455 831 412 762T369 557Q369 396 417 320T553 244ZM573 1219Q489 1219 424 1241T310 1305T233 1407T192 1546H364Q384 1478 435 1446T577 1413Q670 1413 720 1444T792 1546H958Q947 1468 916 1408T835 1305T719 1241T573 1219Z"/><glyph unicode="Ġ" horiz-adv-x="1430" d="M1311 555Q1311 417 1268 309T1148 128T965 16T735 -23Q594 -23 479 29T282 177T154 410T109 717Q109 880 156 1016T287 1250T488 1402T745 1456Q960 1456 1091 1360T1288 1098L1016 985Q996 1025 973 1059T917 1118T842 1157T741 1171Q660 1171 598 1138T492 1044T426 901T403 717Q403 618 426 534T492 389T599 293T743 258Q865 258 934 306T1022 461L1024 475H797V743H1311V555ZM895 1683Q895 1651 882 1623T848 1573T797 1539T737 1526Q704 1526 675 1538T623 1573T588 1623T575 1683Q575 1716 588 1745T623 1796T674 1830T737 1843Q768 1843 797 1831T847 1796T882 1745T895 1683Z"/><glyph unicode="ġ" horiz-adv-x="1151" d="M1010 166Q1010 16 976 -88T874 -256Q812 -315 720 -352T496 -397L412 -172Q506 -164 567 -149T662 -109Q692 -87 709 -48T727 61V68Q707 50 685 35T634 6T573 -16T500 -23Q414 -23 338 10T205 114T115 292T82 551Q82 671 110 771T191 944T322 1057T500 1098Q534 1098 567 1092T632 1073T686 1045T727 1014V1075H1010V166ZM553 244Q611 244 652 266T727 334V739Q711 761 695 776T654 804T601 824T537 831Q455 831 412 762T369 557Q369 396 417 320T553 244ZM736 1376Q736 1344 723 1316T689 1266T638 1232T578 1219Q545 1219 516 1231T464 1266T429 1316T416 1376Q416 1409 429 1438T464 1489T515 1523T578 1536Q609 1536 638 1524T688 1489T723 1438T736 1376Z"/><glyph unicode="Ģ" horiz-adv-x="1430" d="M1311 555Q1311 417 1268 309T1148 128T965 16T735 -23Q594 -23 479 29T282 177T154 410T109 717Q109 880 156 1016T287 1250T488 1402T745 1456Q960 1456 1091 1360T1288 1098L1016 985Q996 1025 973 1059T917 1118T842 1157T741 1171Q660 1171 598 1138T492 1044T426 901T403 717Q403 618 426 534T492 389T599 293T743 258Q865 258 934 306T1022 461L1024 475H797V743H1311V555ZM734 -491H585L607 -99H840L734 -491Z"/><glyph unicode="ģ" horiz-adv-x="1151" d="M1010 166Q1010 16 976 -88T874 -256Q812 -315 720 -352T496 -397L412 -172Q506 -164 567 -149T662 -109Q692 -87 709 -48T727 61V68Q707 50 685 35T634 6T573 -16T500 -23Q414 -23 338 10T205 114T115 292T82 551Q82 671 110 771T191 944T322 1057T500 1098Q534 1098 567 1092T632 1073T686 1045T727 1014V1075H1010V166ZM553 244Q611 244 652 266T727 334V739Q711 761 695 776T654 804T601 824T537 831Q455 831 412 762T369 557Q369 396 417 320T553 244ZM581 1622H743L719 1197H466L581 1622Z"/><glyph unicode="Ĥ" horiz-adv-x="1530" d="M1059 0V602H471V0H184V1434H471V885H1059V1434H1346V0H1059ZM967 1506L762 1659L557 1506H371L621 1833H907L1157 1506H967Z"/><glyph unicode="ĥ" horiz-adv-x="1196" d="M786 0V582Q786 710 746 770T604 831Q560 831 526 819T469 779T433 705T420 588V0H137V1352L420 1493V1004Q437 1022 464 1039T523 1070T591 1091T672 1098Q775 1098 849 1064T973 966T1045 811T1069 606V0H786ZM801 1506L596 1659L391 1506H205L455 1833H741L991 1506H801Z"/><glyph unicode="Ħ" horiz-adv-x="1530" d="M1059 0V602H471V0H184V1010H82V1292H184V1434H471V1292H1059V1434H1346V1292H1450V1010H1346V0H1059ZM1059 885V1010H471V885H1059Z"/><glyph unicode="ħ" horiz-adv-x="1196" d="M786 0V582Q786 654 774 702T739 778T682 819T604 831Q560 831 526 819T469 779T433 705T420 588V0H137V1085H-12V1300H137V1352L420 1493V1004Q457 1042 522 1070T672 1098Q775 1098 849 1064T973 966T1045 811T1069 606V0H786Z"/><glyph unicode="Ĩ" horiz-adv-x="696" d="M205 0V1434H492V0H205ZM751 1814Q751 1746 734 1691T685 1598T611 1540T515 1519Q483 1519 458 1522T410 1533T363 1553T308 1583Q285 1597 257 1610T202 1624Q173 1624 157 1602T132 1526H-52Q-52 1594 -35 1648T13 1741T87 1799T183 1820Q215 1820 240 1817T288 1807T335 1787T390 1757Q414 1743 442 1730T497 1716Q526 1716 541 1738T566 1814H751Z"/><glyph unicode="ĩ" horiz-adv-x="578" d="M147 0V1075H430V0H147ZM692 1507Q692 1439 675 1384T626 1291T552 1233T456 1212Q424 1212 399 1215T351 1226T304 1246T249 1276Q226 1290 198 1303T143 1317Q114 1317 98 1295T73 1219H-111Q-111 1287 -94 1341T-46 1434T28 1492T124 1513Q156 1513 181 1510T229 1500T276 1480T331 1450Q355 1436 383 1423T438 1409Q467 1409 482 1431T507 1507H692Z"/><glyph unicode="Ī" horiz-adv-x="696" d="M205 0V1434H492V0H205ZM52 1556V1771H646V1556H52Z"/><glyph unicode="ī" horiz-adv-x="578" d="M147 0V1075H430V0H147ZM-7 1249V1464H587V1249H-7Z"/><glyph unicode="Ĭ" horiz-adv-x="696" d="M205 0V1434H492V0H205ZM347 1504Q263 1504 198 1526T84 1590T7 1692T-34 1831H138Q158 1763 209 1731T351 1698Q444 1698 494 1729T566 1831H732Q721 1753 690 1693T609 1590T493 1526T347 1504Z"/><glyph unicode="ĭ" horiz-adv-x="578" d="M147 0V1075H430V0H147ZM288 1219Q204 1219 139 1241T25 1305T-52 1407T-93 1546H79Q99 1478 150 1446T292 1413Q385 1413 435 1444T507 1546H673Q662 1468 631 1408T550 1305T434 1241T288 1219Z"/><glyph unicode="Į" horiz-adv-x="696" d="M205 0V1434H492V0H205ZM489 0Q427 -4 382 -19T308 -55T265 -101T251 -150Q251 -187 275 -207T345 -227Q366 -227 388 -220T427 -203L489 -326Q427 -367 369 -389T237 -412Q186 -412 146 -397T77 -357T33 -299T18 -231Q18 -187 34 -151T76 -86T136 -36T206 0H489Z"/><glyph unicode="į" horiz-adv-x="578" d="M451 1325Q451 1292 438 1263T403 1211T352 1176T289 1163Q256 1163 227 1176T175 1211T140 1262T127 1325Q127 1358 140 1387T175 1439T226 1474T289 1487Q322 1487 351 1474T403 1439T438 1388T451 1325ZM147 0V1075H430V0H147ZM430 0Q368 -4 323 -19T249 -55T206 -101T192 -150Q192 -187 216 -207T286 -227Q307 -227 329 -220T368 -203L430 -326Q368 -367 310 -389T178 -412Q127 -412 87 -397T18 -357T-26 -299T-41 -231Q-41 -187 -25 -151T17 -86T77 -36T147 0H430Z"/><glyph unicode="İ" horiz-adv-x="696" d="M205 0V1434H492V0H205ZM509 1683Q509 1651 496 1623T462 1573T411 1539T351 1526Q318 1526 289 1538T237 1573T202 1623T189 1683Q189 1716 202 1745T237 1796T288 1830T351 1843Q382 1843 411 1831T461 1796T496 1745T509 1683Z"/><glyph unicode="ı" horiz-adv-x="578" d="M147 0V1075H430V0H147Z"/><glyph unicode="Ĳ" horiz-adv-x="2028" d="M205 0V1434H492V0H205ZM1853 598Q1853 295 1713 136T1310 -23Q1203 -23 1114 8T956 95T838 229T762 401L1042 477Q1066 414 1087 380T1141 317T1215 276T1310 262Q1378 262 1426 283T1506 348T1551 451T1566 590V1434H1853V598Z"/><glyph unicode="ĳ" horiz-adv-x="1155" d="M451 1325Q451 1292 438 1263T403 1211T352 1176T289 1163Q256 1163 227 1176T175 1211T140 1262T127 1325Q127 1358 140 1387T175 1439T226 1474T289 1487Q322 1487 351 1474T403 1439T438 1388T451 1325ZM147 0V1075H430V0H147ZM1029 1325Q1029 1292 1016 1263T981 1211T930 1176T867 1163Q834 1163 805 1176T753 1211T718 1262T705 1325Q705 1358 718 1387T753 1439T804 1474T867 1487Q900 1487 929 1474T981 1439T1016 1388T1029 1325ZM1008 80Q1008 -33 989 -114T921 -250T792 -340T586 -395L488 -178Q561 -164 607 -148T679 -104T715 -36T725 68V1075H1008V80Z"/><glyph unicode="Ĵ" horiz-adv-x="1331" d="M1157 598Q1157 295 1017 136T614 -23Q507 -23 418 8T260 95T142 229T66 401L346 477Q370 414 391 380T445 317T519 276T614 262Q682 262 730 283T810 348T855 451T870 590V1434H1157V598ZM1217 1506L1012 1659L807 1506H621L871 1833H1157L1407 1506H1217Z"/><glyph unicode="ĵ" horiz-adv-x="578" d="M430 80Q430 -33 411 -114T343 -250T214 -340T8 -395L-90 -178Q-17 -164 29 -148T101 -104T137 -36T147 68V1075H430V80ZM492 1219L287 1372L82 1219H-104L145 1546H432L682 1219H492Z"/><glyph unicode="Ķ" horiz-adv-x="1475" d="M1434 0H1090L700 692L471 422V0H184V1434H471V811L981 1434H1327L907 938L1434 0ZM759 -481H610L632 -89H865L759 -481Z"/><glyph unicode="ķ" horiz-adv-x="1128" d="M762 0L557 496L420 326V0H137V1352L420 1493V707L705 1075H1038L762 733L1071 0H762ZM595 -491H446L468 -99H701L595 -491Z"/><glyph unicode="ĸ" horiz-adv-x="1128" d="M762 0L557 496L420 326V0H137V1075H420V707L705 1075H1038L762 733L1071 0H762Z"/><glyph unicode="Ĺ" horiz-adv-x="1270" d="M184 0V1434H471V283H1190V0H184ZM433 1526H194L372 1853H730L433 1526Z"/><glyph unicode="ĺ" horiz-adv-x="578" d="M147 0V1352L430 1493V0H147ZM361 1526H122L300 1853H658L361 1526Z"/><glyph unicode="Ļ" horiz-adv-x="1270" d="M184 0V1434H471V283H1190V0H184ZM667 -491H518L540 -99H773L667 -491Z"/><glyph unicode="ļ" horiz-adv-x="578" d="M147 0V1352L430 1493V0H147ZM559 -491H410L432 -99H665L559 -491Z"/><glyph unicode="Ľ" horiz-adv-x="1270" d="M184 0V1434H471V283H1190V0H184ZM833 1170H678L701 1637H968L833 1170Z"/><glyph unicode="ľ" horiz-adv-x="772" d="M147 0V1352L430 1493V0H147ZM719 916H562L585 1381H854L719 916Z"/><glyph unicode="Ŀ" horiz-adv-x="1270" d="M184 0V1434H471V283H1190V0H184ZM1026 754Q1026 715 1011 680T969 618T908 577T833 561Q794 561 759 576T698 618T657 679T641 754Q641 793 656 828T698 889T759 930T833 946Q872 946 907 931T969 889T1010 828T1026 754Z"/><glyph unicode="ŀ" horiz-adv-x="1016" d="M147 0V1352L430 1493V0H147ZM930 752Q930 713 915 678T873 616T812 575T737 559Q698 559 663 574T602 616T561 677T545 752Q545 791 560 826T602 887T663 928T737 944Q776 944 811 929T873 887T914 826T930 752Z"/><glyph unicode="Ł" horiz-adv-x="1300" d="M215 0V483L82 381V657L215 760V1434H498V936L735 1112V836L498 659V283H1221V0H215Z"/><glyph unicode="ł" horiz-adv-x="659" d="M469 641V0H190V489L72 408V684L190 766V1352L469 1493V915L588 999V723L469 641Z"/><glyph unicode="Ń" horiz-adv-x="1530" d="M1346 0H1090L467 925V0H184V1434H459L1063 532V1434H1346V0ZM835 1526H596L774 1853H1132L835 1526Z"/><glyph unicode="ń" horiz-adv-x="1196" d="M786 0V582Q786 709 746 770T604 831Q560 831 526 819T469 779T433 705T420 588V0H137V1075H420V1004Q438 1022 463 1039T523 1070T594 1091T672 1098Q775 1098 849 1064T973 966T1045 811T1069 606V0H786ZM608 1219H369L547 1546H905L608 1219Z"/><glyph unicode="Ņ" horiz-adv-x="1530" d="M1346 0H1090L467 925V0H184V1434H459L1063 532V1434H1346V0ZM786 -481H637L659 -89H892L786 -481Z"/><glyph unicode="ņ" horiz-adv-x="1196" d="M786 0V582Q786 709 746 770T604 831Q560 831 526 819T469 779T433 705T420 588V0H137V1075H420V1004Q438 1022 463 1039T523 1070T594 1091T672 1098Q775 1098 849 1064T973 966T1045 811T1069 606V0H786ZM620 -491H471L493 -99H726L620 -491Z"/><glyph unicode="Ň" horiz-adv-x="1530" d="M1346 0H1090L467 925V0H184V1434H459L1063 532V1434H1346V0ZM907 1526H621L371 1853H561L766 1700L971 1853H1157L907 1526Z"/><glyph unicode="ň" horiz-adv-x="1196" d="M786 0V582Q786 709 746 770T604 831Q560 831 526 819T469 779T433 705T420 588V0H137V1075H420V1004Q438 1022 463 1039T523 1070T594 1091T672 1098Q775 1098 849 1064T973 966T1045 811T1069 606V0H786ZM741 1219H455L205 1546H395L600 1393L805 1546H991L741 1219Z"/><glyph unicode="ŉ" horiz-adv-x="1675" d="M1265 0V582Q1265 709 1225 770T1083 831Q1039 831 1005 819T948 779T912 705T899 588V0H616V1075H899V1004Q917 1022 942 1039T1002 1070T1073 1091T1151 1098Q1254 1098 1328 1064T1452 966T1524 811T1548 606V0H1265ZM319 858H125L154 1434H487L319 858Z"/><glyph unicode="Ŋ" horiz-adv-x="1530" d="M1346 80Q1346 -33 1327 -114T1259 -250T1129 -340T924 -395L825 -178Q894 -165 938 -150T1010 -110T1049 -51T1063 39L467 925V0H184V1434H459L1063 532V1434H1346V80Z"/><glyph unicode="ŋ" horiz-adv-x="1196" d="M420 0H137V1075H420V1004Q457 1042 522 1070T672 1098Q775 1098 849 1064T973 966T1045 811T1069 606V80Q1069 -33 1050 -114T982 -250T853 -340T647 -395L549 -178Q622 -164 668 -148T740 -104T776 -36T786 68V582Q786 654 774 702T739 778T682 819T604 831Q560 831 526 819T469 779T433 705T420 588V0Z"/><glyph unicode="Ō" horiz-adv-x="1473" d="M1368 719Q1368 545 1322 408T1192 175T992 28T735 -23Q594 -23 478 27T279 172T150 404T104 715Q104 889 150 1026T281 1259T482 1405T739 1456Q879 1456 994 1406T1193 1261T1322 1030T1368 719ZM1073 715Q1073 824 1048 909T978 1052T871 1140T733 1171Q658 1171 596 1142T491 1055T423 913T399 719Q399 610 424 525T494 382T601 293T739 262Q814 262 876 292T981 379T1049 521T1073 715ZM438 1556V1771H1032V1556H438Z"/><glyph unicode="ō" horiz-adv-x="1137" d="M1055 537Q1055 413 1019 310T917 133T762 18T567 -23Q462 -23 373 18T220 133T119 310T82 537Q82 660 118 763T219 941T373 1056T567 1098Q672 1098 761 1057T916 941T1018 764T1055 537ZM768 537Q768 598 756 650T718 742T656 803T567 825Q516 825 479 803T418 743T381 652T369 537Q369 475 381 422T417 331T479 272T567 250Q618 250 655 273T718 337T755 429T768 537ZM270 1249V1464H864V1249H270Z"/><glyph unicode="Ŏ" horiz-adv-x="1473" d="M1368 719Q1368 545 1322 408T1192 175T992 28T735 -23Q594 -23 478 27T279 172T150 404T104 715Q104 889 150 1026T281 1259T482 1405T739 1456Q879 1456 994 1406T1193 1261T1322 1030T1368 719ZM1073 715Q1073 824 1048 909T978 1052T871 1140T733 1171Q658 1171 596 1142T491 1055T423 913T399 719Q399 610 424 525T494 382T601 293T739 262Q814 262 876 292T981 379T1049 521T1073 715ZM735 1524Q651 1524 586 1546T472 1610T395 1712T354 1851H526Q546 1783 597 1751T739 1718Q832 1718 882 1749T954 1851H1120Q1109 1773 1078 1713T997 1610T881 1546T735 1524Z"/><glyph unicode="ŏ" horiz-adv-x="1137" d="M1055 537Q1055 413 1019 310T917 133T762 18T567 -23Q462 -23 373 18T220 133T119 310T82 537Q82 660 118 763T219 941T373 1056T567 1098Q672 1098 761 1057T916 941T1018 764T1055 537ZM768 537Q768 598 756 650T718 742T656 803T567 825Q516 825 479 803T418 743T381 652T369 537Q369 475 381 422T417 331T479 272T567 250Q618 250 655 273T718 337T755 429T768 537ZM565 1219Q481 1219 416 1241T302 1305T225 1407T184 1546H356Q376 1478 427 1446T569 1413Q662 1413 712 1444T784 1546H950Q939 1468 908 1408T827 1305T711 1241T565 1219Z"/><glyph unicode="Ő" horiz-adv-x="1473" d="M1368 719Q1368 545 1322 408T1192 175T992 28T735 -23Q594 -23 478 27T279 172T150 404T104 715Q104 889 150 1026T281 1259T482 1405T739 1456Q879 1456 994 1406T1193 1261T1322 1030T1368 719ZM1073 715Q1073 824 1048 909T978 1052T871 1140T733 1171Q658 1171 596 1142T491 1055T423 913T399 719Q399 610 424 525T494 382T601 293T739 262Q814 262 876 292T981 379T1049 521T1073 715ZM979 1526H739L917 1853H1276L979 1526ZM528 1526H289L467 1853H825L528 1526Z"/><glyph unicode="ő" horiz-adv-x="1137" d="M1055 537Q1055 413 1019 310T917 133T762 18T567 -23Q462 -23 373 18T220 133T119 310T82 537Q82 660 118 763T219 941T373 1056T567 1098Q672 1098 761 1057T916 941T1018 764T1055 537ZM768 537Q768 598 756 650T718 742T656 803T567 825Q516 825 479 803T418 743T381 652T369 537Q369 475 381 422T417 331T479 272T567 250Q618 250 655 273T718 337T755 429T768 537ZM838 1219H598L776 1546H1135L838 1219ZM387 1219H148L326 1546H684L387 1219Z"/><glyph unicode="Œ" horiz-adv-x="2161" d="M1321 627V281H2040V0H1075V129Q1049 94 1014 66T936 18T841 -12T731 -23Q590 -23 472 30T271 187T149 426T109 717Q109 901 162 1048T306 1286T503 1416T731 1456Q797 1456 848 1445T940 1415T1013 1370T1075 1305V1434H2009V1153H1321V905H1894V627H1321ZM1059 717Q1059 812 1042 890T987 1033T883 1134T731 1171Q656 1171 595 1143T491 1055T426 912T403 717Q403 607 425 523T491 379T595 291T731 262Q818 262 883 299T986 401T1042 544T1059 717Z"/><glyph unicode="œ" horiz-adv-x="1761" d="M1673 537Q1673 506 1672 484T1669 446H1026Q1030 391 1050 353T1102 290T1171 255T1247 244Q1306 244 1353 264T1432 319L1632 152Q1566 69 1462 23T1247 -23Q1187 -23 1134 -13T1036 20T957 69T895 131Q868 93 835 66T761 18T672 -12T567 -23Q462 -23 373 18T220 133T119 310T82 537Q82 660 118 763T219 941T373 1056T567 1098Q623 1098 671 1087T762 1055T837 1007T897 940Q955 1012 1034 1055T1221 1098Q1328 1098 1412 1054T1554 933T1642 754T1673 537ZM1399 659Q1396 695 1384 730T1348 792T1289 835T1206 852Q1134 852 1087 799T1030 659H1399ZM768 537Q768 598 756 650T718 742T656 803T567 825Q516 825 479 803T418 743T381 652T369 537Q369 475 381 422T417 331T479 272T567 250Q618 250 655 273T718 337T755 429T768 537Z"/><glyph unicode="Ŕ" horiz-adv-x="1462" d="M1016 0L760 516H471V0H184V1434H852Q953 1434 1043 1406T1200 1321T1307 1179T1346 979Q1346 893 1328 828T1275 711T1190 622T1071 557L1346 0H1016ZM1051 973Q1051 1025 1036 1059T993 1115T928 1145T846 1155H471V786H846Q900 786 937 798T1000 834T1038 892T1051 973ZM741 1526H502L680 1853H1038L741 1526Z"/><glyph unicode="ŕ" horiz-adv-x="877" d="M766 745Q732 776 691 795T602 815Q502 815 461 758T420 582V0H137V1075H420V1004Q437 1022 460 1039T512 1070T574 1091T641 1098Q710 1098 761 1075T840 1022L766 745ZM563 1219H324L502 1546H860L563 1219Z"/><glyph unicode="Ŗ" horiz-adv-x="1462" d="M1016 0L760 516H471V0H184V1434H852Q953 1434 1043 1406T1200 1321T1307 1179T1346 979Q1346 893 1328 828T1275 711T1190 622T1071 557L1346 0H1016ZM1051 973Q1051 1025 1036 1059T993 1115T928 1145T846 1155H471V786H846Q900 786 937 798T1000 834T1038 892T1051 973ZM753 -481H604L626 -89H859L753 -481Z"/><glyph unicode="ŗ" horiz-adv-x="877" d="M766 745Q732 776 691 795T602 815Q502 815 461 758T420 582V0H137V1075H420V1004Q437 1022 460 1039T512 1070T574 1091T641 1098Q710 1098 761 1075T840 1022L766 745ZM552 -491H403L425 -99H658L552 -491Z"/><glyph unicode="Ř" horiz-adv-x="1462" d="M1016 0L760 516H471V0H184V1434H852Q953 1434 1043 1406T1200 1321T1307 1179T1346 979Q1346 893 1328 828T1275 711T1190 622T1071 557L1346 0H1016ZM1051 973Q1051 1025 1036 1059T993 1115T928 1145T846 1155H471V786H846Q900 786 937 798T1000 834T1038 892T1051 973ZM874 1526H588L338 1853H528L733 1700L938 1853H1124L874 1526Z"/><glyph unicode="ř" horiz-adv-x="877" d="M766 745Q732 776 691 795T602 815Q502 815 461 758T420 582V0H137V1075H420V1004Q437 1022 460 1039T512 1070T574 1091T641 1098Q710 1098 761 1075T840 1022L766 745ZM838 1219H552L302 1546H492L697 1393L902 1546H1088L838 1219Z"/><glyph unicode="Ś" horiz-adv-x="1354" d="M1235 434Q1235 332 1202 248T1100 104T925 10T672 -23Q582 -23 499 -5T344 47T214 129T115 238L322 422Q397 334 491 296T688 258Q761 258 806 268T881 297T925 341T938 414Q938 448 926 474T880 523T783 565T618 608Q519 631 437 661T295 739T203 858T170 1036Q170 1133 210 1211T319 1343T482 1427T682 1456Q764 1456 837 1442T981 1394T1101 1324T1204 1231L997 1030Q956 1072 925 1095T854 1137T770 1167T672 1178Q614 1178 575 1167T512 1137T478 1096T467 1049Q467 1015 480 991T526 949T614 914T756 877Q878 848 959 817T1102 736T1199 612T1235 434ZM686 1526H447L625 1853H983L686 1526Z"/><glyph unicode="ś" horiz-adv-x="1100" d="M954 993L864 770Q784 813 702 834T551 856Q476 856 441 842T406 786Q406 769 414 756T446 730T513 701T629 662Q701 638 766 611T880 544T958 450T987 313Q987 220 953 156T859 53T720 -5T549 -23Q426 -23 307 10T98 102L193 317Q279 269 370 244T565 219Q645 219 677 238T709 301Q709 319 701 333T675 360T626 385T551 410Q454 439 376 468T243 537T157 635T127 778Q127 862 158 922T247 1022T383 1079T557 1098Q659 1098 763 1070T954 993ZM579 1219H340L518 1546H876L579 1219Z"/><glyph unicode="Ŝ" horiz-adv-x="1354" d="M1235 434Q1235 332 1202 248T1100 104T925 10T672 -23Q582 -23 499 -5T344 47T214 129T115 238L322 422Q397 334 491 296T688 258Q761 258 806 268T881 297T925 341T938 414Q938 448 926 474T880 523T783 565T618 608Q519 631 437 661T295 739T203 858T170 1036Q170 1133 210 1211T319 1343T482 1427T682 1456Q764 1456 837 1442T981 1394T1101 1324T1204 1231L997 1030Q956 1072 925 1095T854 1137T770 1167T672 1178Q614 1178 575 1167T512 1137T478 1096T467 1049Q467 1015 480 991T526 949T614 914T756 877Q878 848 959 817T1102 736T1199 612T1235 434ZM873 1516L668 1669L463 1516H277L527 1843H813L1063 1516H873Z"/><glyph unicode="ŝ" horiz-adv-x="1100" d="M954 993L864 770Q784 813 702 834T551 856Q476 856 441 842T406 786Q406 769 414 756T446 730T513 701T629 662Q701 638 766 611T880 544T958 450T987 313Q987 220 953 156T859 53T720 -5T549 -23Q426 -23 307 10T98 102L193 317Q279 269 370 244T565 219Q645 219 677 238T709 301Q709 319 701 333T675 360T626 385T551 410Q454 439 376 468T243 537T157 635T127 778Q127 862 158 922T247 1022T383 1079T557 1098Q659 1098 763 1070T954 993ZM752 1456L547 1609L342 1456H156L406 1783H692L942 1456H752Z"/><glyph unicode="Ş" horiz-adv-x="1354" d="M1235 434Q1235 332 1202 248T1100 104T925 10T672 -23Q582 -23 499 -5T344 47T214 129T115 238L322 422Q397 334 491 296T688 258Q761 258 806 268T881 297T925 341T938 414Q938 448 926 474T880 523T783 565T618 608Q519 631 437 661T295 739T203 858T170 1036Q170 1133 210 1211T319 1343T482 1427T682 1456Q764 1456 837 1442T981 1394T1101 1324T1204 1231L997 1030Q956 1072 925 1095T854 1137T770 1167T672 1178Q614 1178 575 1167T512 1137T478 1096T467 1049Q467 1015 480 991T526 949T614 914T756 877Q878 848 959 817T1102 736T1199 612T1235 434ZM633 76H747L712 -86Q725 -80 744 -76T792 -72Q825 -72 854 -80T905 -107T939 -152T952 -217Q952 -263 935 -296T885 -352T808 -384T708 -395Q625 -395 558 -374T440 -322L483 -244Q582 -293 665 -293Q719 -293 747 -276T776 -223Q776 -192 757 -181T712 -170Q677 -169 651 -184L577 -156L633 76Z"/><glyph unicode="ş" horiz-adv-x="1100" d="M954 993L864 770Q784 813 702 834T551 856Q476 856 441 842T406 786Q406 769 414 756T446 730T513 701T629 662Q701 638 766 611T880 544T958 450T987 313Q987 220 953 156T859 53T720 -5T549 -23Q426 -23 307 10T98 102L193 317Q279 269 370 244T565 219Q645 219 677 238T709 301Q709 319 701 333T675 360T626 385T551 410Q454 439 376 468T243 537T157 635T127 778Q127 862 158 922T247 1022T383 1079T557 1098Q659 1098 763 1070T954 993ZM492 76H606L571 -86Q584 -80 603 -76T651 -72Q684 -72 713 -80T764 -107T798 -152T811 -217Q811 -263 794 -296T744 -352T667 -384T567 -395Q484 -395 417 -374T299 -322L342 -244Q441 -293 524 -293Q578 -293 606 -276T635 -223Q635 -192 616 -181T571 -170Q536 -169 510 -184L436 -156L492 76Z"/><glyph unicode="Š" horiz-adv-x="1354" d="M1235 434Q1235 332 1202 248T1100 104T925 10T672 -23Q582 -23 499 -5T344 47T214 129T115 238L322 422Q397 334 491 296T688 258Q761 258 806 268T881 297T925 341T938 414Q938 448 926 474T880 523T783 565T618 608Q519 631 437 661T295 739T203 858T170 1036Q170 1133 210 1211T319 1343T482 1427T682 1456Q764 1456 837 1442T981 1394T1101 1324T1204 1231L997 1030Q956 1072 925 1095T854 1137T770 1167T672 1178Q614 1178 575 1167T512 1137T478 1096T467 1049Q467 1015 480 991T526 949T614 914T756 877Q878 848 959 817T1102 736T1199 612T1235 434ZM821 1536H535L285 1863H475L680 1710L885 1863H1071L821 1536Z"/><glyph unicode="š" horiz-adv-x="1100" d="M954 993L864 770Q784 813 702 834T551 856Q476 856 441 842T406 786Q406 769 414 756T446 730T513 701T629 662Q701 638 766 611T880 544T958 450T987 313Q987 220 953 156T859 53T720 -5T549 -23Q426 -23 307 10T98 102L193 317Q279 269 370 244T565 219Q645 219 677 238T709 301Q709 319 701 333T675 360T626 385T551 410Q454 439 376 468T243 537T157 635T127 778Q127 862 158 922T247 1022T383 1079T557 1098Q659 1098 763 1070T954 993ZM678 1219H392L142 1546H332L537 1393L742 1546H928L678 1219Z"/><glyph unicode="Ţ" horiz-adv-x="1294" d="M791 1151V0H504V1151H92V1434H1202V1151H791ZM607 76H721L686 -86Q699 -80 718 -76T766 -72Q799 -72 828 -80T879 -107T913 -152T926 -217Q926 -263 909 -296T859 -352T782 -384T682 -395Q599 -395 532 -374T414 -322L457 -244Q556 -293 639 -293Q693 -293 721 -276T750 -223Q750 -192 731 -181T686 -170Q651 -169 625 -184L551 -156L607 76Z"/><glyph unicode="ţ" horiz-adv-x="905" d="M737 43Q702 15 643 -4T518 -23Q453 -23 400 1T310 68T252 171T231 301V809H51V1075H231V1352L514 1493V1075H772V809H514V377Q514 338 521 313T541 274T573 254T618 248Q656 248 692 267T778 330L737 43ZM673 76H787L752 -86Q765 -80 784 -76T832 -72Q865 -72 894 -80T945 -107T979 -152T992 -217Q992 -263 975 -296T925 -352T848 -384T748 -395Q665 -395 598 -374T480 -322L523 -244Q622 -293 705 -293Q759 -293 787 -276T816 -223Q816 -192 797 -181T752 -170Q717 -169 691 -184L617 -156L673 76Z"/><glyph unicode="Ť" horiz-adv-x="1294" d="M791 1151V0H504V1151H92V1434H1202V1151H791ZM790 1526H504L254 1853H444L649 1700L854 1853H1040L790 1526Z"/><glyph unicode="ť" horiz-adv-x="905" d="M772 1176H612L637 1640H905L772 1176ZM737 43Q702 15 643 -4T518 -23Q453 -23 400 1T310 68T252 171T231 301V809H51V1075H231V1352L514 1493V1075H772V809H514V377Q514 338 521 313T541 274T573 254T618 248Q656 248 692 267T778 330L737 43Z"/><glyph unicode="Ŧ" horiz-adv-x="1294" d="M791 563V0H504V563H186V846H504V1151H92V1434H1202V1151H791V846H1104V563H791Z"/><glyph unicode="ŧ" horiz-adv-x="905" d="M737 43Q702 15 643 -4T518 -23Q453 -23 400 1T310 68T252 171T231 301V436H51V702H231V809H51V1075H231V1352L514 1493V1075H772V809H514V702H772V436H514V377Q514 338 521 313T541 274T573 254T618 248Q655 248 692 267T778 330L737 43Z"/><glyph unicode="Ũ" horiz-adv-x="1509" d="M1335 633Q1335 477 1296 355T1181 149T998 21T754 -23Q624 -23 518 20T335 146T216 350T174 629V1434H461V633Q461 459 540 359T754 258Q890 258 969 358T1049 629V1434H1335V633ZM1156 1814Q1156 1746 1139 1691T1090 1598T1016 1540T920 1519Q888 1519 863 1522T815 1533T768 1553T713 1583Q690 1597 662 1610T607 1624Q578 1624 562 1602T537 1526H353Q353 1594 370 1648T418 1741T492 1799T588 1820Q620 1820 645 1817T693 1807T740 1787T795 1757Q819 1743 847 1730T902 1716Q931 1716 946 1738T971 1814H1156Z"/><glyph unicode="ũ" horiz-adv-x="1196" d="M776 0V72Q739 33 674 5T524 -23Q330 -23 229 102T127 469V1075H410V494Q410 364 451 304T592 244Q693 244 734 305T776 487V1075H1059V0H776ZM1000 1507Q1000 1439 983 1384T934 1291T860 1233T764 1212Q732 1212 707 1215T659 1226T612 1246T557 1276Q534 1290 506 1303T451 1317Q422 1317 406 1295T381 1219H197Q197 1287 214 1341T262 1434T336 1492T432 1513Q464 1513 489 1510T537 1500T584 1480T639 1450Q663 1436 691 1423T746 1409Q775 1409 790 1431T815 1507H1000Z"/><glyph unicode="Ū" horiz-adv-x="1509" d="M1335 633Q1335 477 1296 355T1181 149T998 21T754 -23Q624 -23 518 20T335 146T216 350T174 629V1434H461V633Q461 459 540 359T754 258Q890 258 969 358T1049 629V1434H1335V633ZM457 1556V1771H1051V1556H457Z"/><glyph unicode="ū" horiz-adv-x="1196" d="M776 0V72Q739 33 674 5T524 -23Q330 -23 229 102T127 469V1075H410V494Q410 364 451 304T592 244Q693 244 734 305T776 487V1075H1059V0H776ZM301 1249V1464H895V1249H301Z"/><glyph unicode="Ŭ" horiz-adv-x="1509" d="M1335 633Q1335 477 1296 355T1181 149T998 21T754 -23Q624 -23 518 20T335 146T216 350T174 629V1434H461V633Q461 459 540 359T754 258Q890 258 969 358T1049 629V1434H1335V633ZM752 1526Q668 1526 603 1548T489 1612T412 1714T371 1853H543Q563 1785 614 1753T756 1720Q849 1720 899 1751T971 1853H1137Q1126 1775 1095 1715T1014 1612T898 1548T752 1526Z"/><glyph unicode="ŭ" horiz-adv-x="1196" d="M776 0V72Q739 33 674 5T524 -23Q330 -23 229 102T127 469V1075H410V494Q410 364 451 304T592 244Q693 244 734 305T776 487V1075H1059V0H776ZM596 1219Q512 1219 447 1241T333 1305T256 1407T215 1546H387Q407 1478 458 1446T600 1413Q693 1413 743 1444T815 1546H981Q970 1468 939 1408T858 1305T742 1241T596 1219Z"/><glyph unicode="Ů" horiz-adv-x="1509" d="M1335 633Q1335 477 1296 355T1181 149T998 21T754 -23Q624 -23 518 20T335 146T216 350T174 629V1434H461V633Q461 459 540 359T754 258Q890 258 969 358T1049 629V1434H1335V633ZM1030 1689Q1030 1630 1009 1580T951 1494T864 1438T754 1417Q695 1417 645 1437T557 1494T499 1580T478 1689Q478 1748 499 1798T557 1886T644 1944T754 1965Q813 1965 863 1944T951 1886T1009 1799T1030 1689ZM875 1689Q875 1715 866 1737T840 1776T802 1802T754 1812Q728 1812 706 1803T668 1777T643 1738T633 1689Q633 1663 642 1641T668 1602T706 1576T754 1566Q779 1566 801 1575T840 1601T865 1640T875 1689Z"/><glyph unicode="ů" horiz-adv-x="1196" d="M776 0V72Q739 33 674 5T524 -23Q330 -23 229 102T127 469V1075H410V494Q410 364 451 304T592 244Q693 244 734 305T776 487V1075H1059V0H776ZM874 1491Q874 1432 853 1382T795 1296T708 1240T598 1219Q539 1219 489 1239T401 1296T343 1382T322 1491Q322 1550 343 1600T401 1688T488 1746T598 1767Q657 1767 707 1746T795 1688T853 1601T874 1491ZM719 1491Q719 1517 710 1539T684 1578T646 1604T598 1614Q572 1614 550 1605T512 1579T487 1540T477 1491Q477 1465 486 1443T512 1404T550 1378T598 1368Q623 1368 645 1377T684 1403T709 1442T719 1491Z"/><glyph unicode="Ű" horiz-adv-x="1509" d="M1335 633Q1335 477 1296 355T1181 149T998 21T754 -23Q624 -23 518 20T335 146T216 350T174 629V1434H461V633Q461 459 540 359T754 258Q890 258 969 358T1049 629V1434H1335V633ZM1061 1526H821L999 1853H1358L1061 1526ZM610 1526H371L549 1853H907L610 1526Z"/><glyph unicode="ű" horiz-adv-x="1196" d="M776 0V72Q739 33 674 5T524 -23Q330 -23 229 102T127 469V1075H410V494Q410 364 451 304T592 244Q693 244 734 305T776 487V1075H1059V0H776ZM862 1219H622L800 1546H1159L862 1219ZM411 1219H172L350 1546H708L411 1219Z"/><glyph unicode="Ų" horiz-adv-x="1509" d="M1049 629V1434H1335V633Q1335 505 1308 400T1230 214T1104 79T934 0Q836 -33 798 -70T760 -150Q760 -189 785 -208T854 -227Q875 -227 897 -220T936 -203L997 -326Q934 -368 875 -390T745 -412Q694 -412 654 -397T585 -357T541 -299T526 -231Q526 -155 571 -100T674 -18Q561 -5 469 43T312 174T210 370T174 629V1434H461V633Q461 547 481 478T539 359T631 284T754 258Q822 258 876 283T969 357T1028 474T1049 629Z"/><glyph unicode="ų" horiz-adv-x="1196" d="M776 0V72Q739 33 674 5T524 -23Q330 -23 229 102T127 469V1075H410V494Q410 364 451 304T592 244Q693 244 734 305T776 487V1075H1059V0H776ZM1059 0Q997 -4 952 -19T878 -55T835 -101T821 -150Q821 -187 845 -207T915 -227Q936 -227 958 -220T997 -203L1059 -326Q997 -367 939 -389T807 -412Q756 -412 716 -397T647 -357T603 -299T588 -231Q588 -187 604 -151T646 -86T706 -36T776 0H1059Z"/><glyph unicode="Ŵ" horiz-adv-x="1804" d="M1702 1434L1403 0H1122L898 939L670 0H402L102 1434H402L561 533L778 1434H1028L1248 533L1407 1434H1702ZM1102 1526L897 1679L692 1526H506L756 1853H1042L1292 1526H1102Z"/><glyph unicode="ŵ" horiz-adv-x="1520" d="M1159 0H924L760 646L596 0H360L51 1075H338L483 459L647 1075H881L1044 459L1190 1075H1468L1159 0ZM963 1219L758 1372L553 1219H367L617 1546H903L1153 1219H963Z"/><glyph unicode="Ŷ" horiz-adv-x="1462" d="M1418 1434L875 567V0H588V561L45 1434H375L733 834L1092 1434H1418ZM936 1526L731 1679L526 1526H340L590 1853H876L1126 1526H936Z"/><glyph unicode="ŷ" horiz-adv-x="1208" d="M604 -379H326L469 0L51 1075H362L608 351L854 1075H1157L604 -379ZM807 1219L602 1372L397 1219H211L461 1546H747L997 1219H807Z"/><glyph unicode="Ÿ" horiz-adv-x="1462" d="M1418 1434L875 567V0H588V561L45 1434H375L733 834L1092 1434H1418ZM1114 1663Q1114 1631 1101 1603T1067 1553T1016 1519T956 1506Q923 1506 894 1518T842 1553T807 1603T794 1663Q794 1696 807 1725T842 1776T893 1810T956 1823Q987 1823 1016 1811T1066 1776T1101 1725T1114 1663ZM672 1663Q672 1631 659 1603T624 1553T573 1519T512 1506Q480 1506 451 1518T400 1553T365 1603T352 1663Q352 1696 365 1725T400 1776T451 1810T512 1823Q544 1823 573 1811T624 1776T659 1725T672 1663Z"/><glyph unicode="Ź" horiz-adv-x="1409" d="M1270 0H139V254L909 1171H180V1434H1260V1180L498 262H1270V0ZM715 1526H476L654 1853H1012L715 1526Z"/><glyph unicode="ź" horiz-adv-x="1135" d="M123 0V205L639 819H158V1075H1012V870L510 256H1012V0H123ZM577 1219H338L516 1546H874L577 1219Z"/><glyph unicode="Ż" horiz-adv-x="1409" d="M1270 0H139V254L909 1171H180V1434H1260V1180L498 262H1270V0ZM863 1683Q863 1651 850 1623T816 1573T765 1539T705 1526Q672 1526 643 1538T591 1573T556 1623T543 1683Q543 1716 556 1745T591 1796T642 1830T705 1843Q736 1843 765 1831T815 1796T850 1745T863 1683Z"/><glyph unicode="ż" horiz-adv-x="1135" d="M123 0V205L639 819H158V1075H1012V870L510 256H1012V0H123ZM725 1376Q725 1344 712 1316T678 1266T627 1232T567 1219Q534 1219 505 1231T453 1266T418 1316T405 1376Q405 1409 418 1438T453 1489T504 1523T567 1536Q598 1536 627 1524T677 1489T712 1438T725 1376Z"/><glyph unicode="Ž" horiz-adv-x="1409" d="M1270 0H139V254L909 1171H180V1434H1260V1180L498 262H1270V0ZM843 1526H557L307 1853H497L702 1700L907 1853H1093L843 1526Z"/><glyph unicode="ž" horiz-adv-x="1135" d="M123 0V205L639 819H158V1075H1012V870L510 256H1012V0H123ZM725 1219H439L189 1546H379L584 1393L789 1546H975L725 1219Z"/><glyph unicode="ſ" horiz-adv-x="758" d="M207 1204Q207 1279 227 1333T287 1421T383 1471T514 1487Q571 1487 615 1479T692 1456V1229Q671 1240 648 1245T594 1251Q561 1251 540 1246T509 1229T494 1201T489 1165V0H207V1204Z"/><glyph unicode="ƒ" horiz-adv-x="1270" d="M1133 1219Q1105 1228 1059 1234T950 1241Q876 1241 836 1211T782 1116L766 1038H1061L1014 811H723L549 0H260L434 811H211L260 1038H483L500 1126Q518 1214 552 1276T637 1379T759 1437T918 1456Q1001 1456 1066 1447T1176 1421L1133 1219Z"/><glyph unicode="Ǻ" horiz-adv-x="1536" d="M798 1874H559L737 2201H1095L798 1874ZM1139 0L1026 319H502L389 0H82L586 1317Q542 1354 518 1407T494 1526Q494 1585 515 1635T573 1723T660 1781T770 1802Q829 1802 880 1781T968 1723T1026 1636T1047 1526Q1047 1461 1022 1408T952 1317L1454 0H1139ZM891 1526Q891 1552 882 1574T856 1613T818 1639T770 1649Q744 1649 722 1640T684 1614T659 1575T649 1526Q649 1500 658 1478T684 1439T722 1413T770 1403Q795 1403 817 1412T856 1438T881 1477T891 1526ZM928 592L764 1059L600 592H928Z"/><glyph unicode="ǻ" horiz-adv-x="1139" d="M579 1844H340L518 2171H876L579 1844ZM729 0V72Q710 52 686 36T628 5T559 -16T487 -23Q412 -23 340 0T212 71T121 190T86 360Q86 449 120 516T213 627T351 694T522 717Q597 717 646 704T729 674V727Q729 787 689 825T575 864Q481 864 422 851T281 793L172 989Q274 1049 365 1073T575 1098Q673 1098 753 1073T891 1000T980 882T1012 721V0H729ZM729 451Q711 462 692 470T650 484T599 493T532 496Q452 496 411 461T369 360Q369 332 377 306T405 261T456 229T532 217Q567 217 597 225T653 246T698 278T729 315V451ZM845 1491Q845 1432 824 1382T766 1296T679 1240T569 1219Q510 1219 460 1239T372 1296T314 1382T293 1491Q293 1550 314 1600T372 1688T459 1746T569 1767Q628 1767 678 1746T766 1688T824 1601T845 1491ZM690 1491Q690 1517 681 1539T655 1578T617 1604T569 1614Q543 1614 521 1605T483 1579T458 1540T448 1491Q448 1465 457 1443T483 1404T521 1378T569 1368Q594 1368 616 1377T655 1403T680 1442T690 1491Z"/><glyph unicode="Ǽ" horiz-adv-x="2126" d="M1974 1434V1159H1307V901H1841V631H1307V274H2005V0H1032V256H522L356 0H29L991 1434H1974ZM686 508H1032V1040L686 508ZM1179 1526H940L1118 1853H1476L1179 1526Z"/><glyph unicode="ǽ" horiz-adv-x="1726" d="M1638 537Q1638 506 1637 484T1634 446H991Q995 391 1015 353T1067 290T1136 255T1212 244Q1242 244 1268 249T1320 265T1363 288T1397 319L1597 152Q1565 110 1521 78T1427 23T1321 -11T1212 -23Q1085 -23 992 22T836 141Q759 55 676 16T487 -23Q412 -23 340 0T212 71T121 190T86 360Q86 449 120 516T213 627T351 694T522 717Q597 717 646 704T729 674V727Q729 787 689 825T575 864Q474 864 411 847T281 793L172 989Q265 1044 357 1071T575 1098Q690 1098 767 1067T899 973Q952 1030 1023 1064T1186 1098Q1294 1098 1378 1054T1519 933T1607 754T1638 537ZM1364 659Q1361 695 1349 730T1313 792T1254 835T1171 852Q1133 852 1102 837T1049 796T1013 735T995 659H1364ZM729 451Q711 462 692 470T650 484T599 493T532 496Q452 496 411 461T369 360Q369 292 412 255T532 217Q567 217 597 225T653 246T698 278T729 315Q729 349 729 383T729 451ZM923 1219H684L862 1546H1220L923 1219Z"/><glyph unicode="Ǿ" horiz-adv-x="1473" d="M1354 717Q1354 553 1312 417T1189 184T994 32T731 -23Q635 -23 520 16L463 -102H193L317 152Q220 251 165 394T109 717Q109 880 151 1016T273 1250T468 1402T731 1456Q839 1456 934 1419L991 1536H1262L1141 1286Q1189 1239 1228 1179T1298 1039T1341 882T1354 717ZM815 1176Q775 1186 731 1186Q642 1186 578 1150T473 1051T413 902T393 717Q393 633 407 559T449 426L815 1176ZM1069 717Q1069 803 1055 879T1008 1018L639 260Q682 248 731 248Q820 248 884 284T989 383T1049 532T1069 717ZM819 1526H580L758 1853H1116L819 1526Z"/><glyph unicode="ǿ" horiz-adv-x="1137" d="M1055 537Q1055 413 1019 310T917 133T762 18T567 -23Q495 -23 408 4L352 -102H100L223 129Q157 203 120 306T82 537Q82 660 118 763T219 941T373 1056T567 1098Q609 1098 648 1092T723 1071L778 1178H1030L909 948Q978 873 1016 769T1055 537ZM621 858Q595 864 567 864Q511 864 470 839T402 769T362 665T348 537Q348 493 353 455T369 381L621 858ZM788 537Q788 583 782 623T764 700L510 219Q536 211 567 211Q623 211 664 239T733 312T774 416T788 537ZM641 1219H402L580 1546H938L641 1219Z"/><glyph unicode="Ș" horiz-adv-x="1354" d="M1235 434Q1235 332 1202 248T1100 104T925 10T672 -23Q582 -23 499 -5T344 47T214 129T115 238L322 422Q397 334 491 296T688 258Q761 258 806 268T881 297T925 341T938 414Q938 448 926 474T880 523T783 565T618 608Q519 631 437 661T295 739T203 858T170 1036Q170 1133 210 1211T319 1343T482 1427T682 1456Q764 1456 837 1442T981 1394T1101 1324T1204 1231L997 1030Q956 1072 925 1095T854 1137T770 1167T672 1178Q614 1178 575 1167T512 1137T478 1096T467 1049Q467 1015 480 991T526 949T614 914T756 877Q878 848 959 817T1102 736T1199 612T1235 434ZM685 -491H536L558 -99H791L685 -491Z"/><glyph unicode="ș" horiz-adv-x="1100" d="M954 993L864 770Q784 813 702 834T551 856Q476 856 441 842T406 786Q406 769 414 756T446 730T513 701T629 662Q701 638 766 611T880 544T958 450T987 313Q987 220 953 156T859 53T720 -5T549 -23Q426 -23 307 10T98 102L193 317Q279 269 370 244T565 219Q645 219 677 238T709 301Q709 319 701 333T675 360T626 385T551 410Q454 439 376 468T243 537T157 635T127 778Q127 862 158 922T247 1022T383 1079T557 1098Q659 1098 763 1070T954 993ZM559 -491H410L432 -99H665L559 -491Z"/><glyph unicode="Ț" horiz-adv-x="1294" d="M791 1151V0H504V1151H92V1434H1202V1151H791ZM669 -491H520L542 -99H775L669 -491Z"/><glyph unicode="ț" horiz-adv-x="905" d="M737 43Q702 15 643 -4T518 -23Q453 -23 400 1T310 68T252 171T231 301V809H51V1075H231V1352L514 1493V1075H772V809H514V377Q514 338 521 313T541 274T573 254T618 248Q656 248 692 267T778 330L737 43ZM474 -491H325L347 -99H580L474 -491Z"/><glyph unicode="ˆ" horiz-adv-x="1024" d="M715 1219L510 1372L305 1219H119L369 1546H655L905 1219H715Z"/><glyph unicode="ˇ" horiz-adv-x="1024" d="M655 1219H369L119 1546H309L514 1393L719 1546H905L655 1219Z"/><glyph unicode="ˉ" horiz-adv-x="1024" d="M215 1249V1464H809V1249H215Z"/><glyph unicode="˘" horiz-adv-x="1024" d="M510 1219Q426 1219 361 1241T247 1305T170 1407T129 1546H301Q321 1478 372 1446T514 1413Q607 1413 657 1444T729 1546H895Q884 1468 853 1408T772 1305T656 1241T510 1219Z"/><glyph unicode="˙" horiz-adv-x="1024" d="M670 1376Q670 1344 657 1316T623 1266T572 1232T512 1219Q479 1219 450 1231T398 1266T363 1316T350 1376Q350 1409 363 1438T398 1489T449 1523T512 1536Q543 1536 572 1524T622 1489T657 1438T670 1376Z"/><glyph unicode="˚" horiz-adv-x="1024" d="M788 1491Q788 1432 767 1382T709 1296T622 1240T512 1219Q453 1219 403 1239T315 1296T257 1382T236 1491Q236 1550 257 1600T315 1688T402 1746T512 1767Q571 1767 621 1746T709 1688T767 1601T788 1491ZM633 1491Q633 1517 624 1539T598 1578T560 1604T512 1614Q486 1614 464 1605T426 1579T401 1540T391 1491Q391 1465 400 1443T426 1404T464 1378T512 1368Q537 1368 559 1377T598 1403T623 1442T633 1491Z"/><glyph unicode="˛" horiz-adv-x="1024" d="M723 0Q661 -4 616 -19T542 -55T499 -101T485 -150Q485 -187 509 -207T579 -227Q600 -227 622 -220T661 -203L723 -326Q661 -367 603 -389T471 -412Q420 -412 380 -397T311 -357T267 -299T252 -231Q252 -187 268 -151T310 -86T370 -36T440 0H723Z"/><glyph unicode="˜" horiz-adv-x="1024" d="M920 1507Q920 1439 903 1384T854 1291T780 1233T684 1212Q652 1212 627 1215T579 1226T532 1246T477 1276Q454 1290 426 1303T371 1317Q342 1317 326 1295T301 1219H117Q117 1287 134 1341T182 1434T256 1492T352 1513Q384 1513 409 1510T457 1500T504 1480T559 1450Q583 1436 611 1423T666 1409Q695 1409 710 1431T735 1507H920Z"/><glyph unicode="˝" horiz-adv-x="1024" d="M756 1219H516L694 1546H1053L756 1219ZM305 1219H66L244 1546H602L305 1219Z"/><glyph unicode="΄" horiz-adv-x="1075" d="M522 1219H283L461 1546H819L522 1219Z"/><glyph unicode="΅" horiz-adv-x="1231" d="M608 1219H422L573 1571H877L608 1219ZM1065 1343Q1065 1314 1055 1288T1025 1243T981 1212T928 1200Q902 1200 878 1211T836 1242T808 1288T797 1343Q797 1373 807 1399T836 1446T878 1477T928 1489Q956 1489 981 1478T1025 1446T1054 1400T1065 1343ZM414 1343Q414 1314 404 1288T375 1243T331 1212T276 1200Q251 1200 228 1211T188 1242T161 1288T150 1343Q150 1373 160 1399T188 1446T228 1477T276 1489Q305 1489 330 1478T374 1446T403 1400T414 1343Z"/><glyph unicode="Ά" horiz-adv-x="1536" d="M1454 0H1139L1026 319H502L389 0H82L631 1434H909L1454 0ZM928 592L764 1059L600 592H928ZM154 1108H-85L93 1435H451L154 1108Z"/><glyph unicode="Έ" horiz-adv-x="1331" d="M1210 0H184V1434H1180V1153H471V905H1047V627H471V281H1210V0ZM-173 1108H-412L-234 1435H124L-173 1108Z"/><glyph unicode="Ή" horiz-adv-x="1530" d="M1059 0V602H471V0H184V1434H471V885H1059V1434H1346V0H1059ZM-173 1108H-412L-234 1435H124L-173 1108Z"/><glyph unicode="Ί" horiz-adv-x="696" d="M205 0V1434H492V0H205ZM-173 1108H-412L-234 1435H124L-173 1108Z"/><glyph unicode="Ό" horiz-adv-x="1473" d="M1368 719Q1368 545 1322 408T1192 175T992 28T735 -23Q594 -23 478 27T279 172T150 404T104 715Q104 889 150 1026T281 1259T482 1405T739 1456Q879 1456 994 1406T1193 1261T1322 1030T1368 719ZM1073 715Q1073 824 1048 909T978 1052T871 1140T733 1171Q658 1171 596 1142T491 1055T423 913T399 719Q399 610 424 525T494 382T601 293T739 262Q814 262 876 292T981 379T1049 521T1073 715ZM-71 1108H-310L-132 1435H226L-71 1108Z"/><glyph unicode="Ύ" horiz-adv-x="1462" d="M1418 1434L875 567V0H588V561L45 1434H375L733 834L1092 1434H1418ZM-276 1108H-515L-337 1435H21L-276 1108Z"/><glyph unicode="Ώ" horiz-adv-x="1505" d="M406 782Q406 696 421 624T465 489T539 371T641 262V0H121V262H330Q284 307 242 363T171 484T127 619T111 774Q111 929 160 1055T296 1270T501 1407T756 1456Q896 1456 1013 1406T1215 1266T1347 1051T1395 774Q1395 691 1380 620T1334 486T1261 365T1171 262H1384V0H864V262Q922 313 965 369T1041 494T1087 631T1100 778Q1100 859 1077 931T1008 1056T898 1140T750 1171Q675 1171 612 1145T504 1068T432 946T406 782ZM-48 1108H-287L-109 1435H249L-48 1108Z"/><glyph unicode="ΐ" horiz-adv-x="578" d="M147 0V1075H430V0H147ZM383 1219H197L348 1571H652L383 1219ZM840 1343Q840 1314 830 1288T800 1243T756 1212T703 1200Q677 1200 653 1211T611 1242T583 1288T572 1343Q572 1373 582 1399T611 1446T653 1477T703 1489Q731 1489 756 1478T800 1446T829 1400T840 1343ZM189 1343Q189 1314 179 1288T150 1243T106 1212T51 1200Q26 1200 3 1211T-37 1242T-64 1288T-75 1343Q-75 1373 -65 1399T-37 1446T3 1477T51 1489Q80 1489 105 1478T149 1446T178 1400T189 1343Z"/><glyph unicode="Α" horiz-adv-x="1536" d="M1454 0H1139L1026 319H502L389 0H82L631 1434H909L1454 0ZM928 592L764 1059L600 592H928Z"/><glyph unicode="Β" horiz-adv-x="1454" d="M1346 463Q1346 241 1207 121T836 0H184V1434H842Q946 1434 1030 1409T1173 1336T1264 1218T1296 1055Q1296 1006 1286 965T1254 888T1208 826T1145 776Q1188 757 1225 728T1289 660T1331 572T1346 463ZM1006 1032Q1006 1064 997 1088T970 1130T917 1158T829 1169H465V897H844Q889 897 919 907T969 934T997 977T1006 1032ZM1051 459Q1051 507 1039 540T1003 595T942 630T846 643H465V272H846Q901 272 940 285T1004 326T1040 386T1051 459Z"/><glyph unicode="Γ" horiz-adv-x="1217" d="M471 1151V0H184V1434H1155V1151H471Z"/><glyph unicode="Δ" horiz-adv-x="1573" d="M72 0L649 1434H928L1501 0H72ZM485 281H1079L779 1079L485 281Z"/><glyph unicode="Ε" horiz-adv-x="1331" d="M1210 0H184V1434H1180V1153H471V905H1047V627H471V281H1210V0Z"/><glyph unicode="Ζ" horiz-adv-x="1409" d="M1270 0H139V254L909 1171H180V1434H1260V1180L498 262H1270V0Z"/><glyph unicode="Η" horiz-adv-x="1530" d="M1059 0V602H471V0H184V1434H471V885H1059V1434H1346V0H1059Z"/><glyph unicode="Θ" horiz-adv-x="1518" d="M555 872H963V616H555V872ZM1114 715Q1114 824 1088 909T1014 1052T900 1140T756 1171Q678 1171 613 1142T502 1055T429 913T403 719Q403 610 429 525T504 382T618 293T762 262Q840 262 905 292T1016 379T1088 521T1114 715ZM1409 719Q1409 545 1361 408T1227 175T1021 28T758 -23Q614 -23 495 27T290 172T157 404T109 715Q109 889 157 1026T291 1259T498 1405T762 1456Q905 1456 1024 1406T1228 1261T1361 1030T1409 719Z"/><glyph unicode="Ι" horiz-adv-x="696" d="M205 0V1434H492V0H205Z"/><glyph unicode="Κ" horiz-adv-x="1475" d="M1434 0H1090L700 692L471 422V0H184V1434H471V811L981 1434H1327L907 938L1434 0Z"/><glyph unicode="Λ" horiz-adv-x="1499" d="M397 0H92L612 1434H891L1407 0H1096L743 1033L397 0Z"/><glyph unicode="Μ" horiz-adv-x="1710" d="M1526 0H1239V816L852 -33L465 816V0H184V1434H461L858 567L1243 1434H1526V0Z"/><glyph unicode="Ν" horiz-adv-x="1530" d="M1346 0H1090L467 925V0H184V1434H459L1063 532V1434H1346V0Z"/><glyph unicode="Ξ" horiz-adv-x="1360" d="M131 0V281H537V627H268V905H537V1153H137V1434H1223V1153H823V905H1092V627H823V281H1229V0H131Z"/><glyph unicode="Ο" horiz-adv-x="1473" d="M1368 719Q1368 545 1322 408T1192 175T992 28T735 -23Q594 -23 478 27T279 172T150 404T104 715Q104 889 150 1026T281 1259T482 1405T739 1456Q879 1456 994 1406T1193 1261T1322 1030T1368 719ZM1073 715Q1073 824 1048 909T978 1052T871 1140T733 1171Q658 1171 596 1142T491 1055T423 913T399 719Q399 610 424 525T494 382T601 293T739 262Q814 262 876 292T981 379T1049 521T1073 715Z"/><glyph unicode="Π" horiz-adv-x="1499" d="M1028 0V1139H471V0H184V1434H1315V0H1028Z"/><glyph unicode="Ρ" horiz-adv-x="1393" d="M1305 979Q1305 854 1266 765T1157 619T992 535T786 508H471V0H184V1434H811Q912 1434 1002 1406T1159 1321T1266 1179T1305 979ZM1010 973Q1010 1017 997 1051T956 1109T888 1143T801 1155H471V786H805Q905 786 957 832T1010 973Z"/><glyph unicode="Σ" horiz-adv-x="1380" d="M550 1171L944 770L509 285H1260V0H139V256L582 754L164 1180V1434H1235V1171H550Z"/><glyph unicode="Τ" horiz-adv-x="1294" d="M791 1151V0H504V1151H92V1434H1202V1151H791Z"/><glyph unicode="Υ" horiz-adv-x="1462" d="M1418 1434L875 567V0H588V561L45 1434H375L733 834L1092 1434H1418Z"/><glyph unicode="Φ" horiz-adv-x="1737" d="M1642 733Q1642 605 1599 503T1474 328T1276 211T1012 156V0H725V156Q579 166 462 209T264 326T138 502T94 733Q94 861 139 962T267 1137T466 1255T725 1313V1434H1012V1313Q1156 1301 1272 1257T1470 1140T1597 964T1642 733ZM1352 733Q1352 804 1329 861T1263 959T1156 1024T1012 1055V416Q1090 421 1153 441T1260 500T1328 595T1352 733ZM725 1055Q650 1052 588 1030T480 967T410 868T385 737Q385 653 408 596T472 504T574 446T725 416V1055Z"/><glyph unicode="Χ" horiz-adv-x="1438" d="M1346 0H1004L719 483L434 0H92L547 733L113 1434H455L719 982L983 1434H1325L889 733L1346 0Z"/><glyph unicode="Ψ" horiz-adv-x="1634" d="M1522 899Q1522 762 1481 662T1366 495T1189 390T961 342V0H674V342Q555 351 453 386T275 488T156 656T113 899V1434H395V899Q395 744 467 675T674 602V1434H961V600Q1107 605 1173 682T1239 905V1434H1522V899Z"/><glyph unicode="Ω" horiz-adv-x="1505" d="M406 782Q406 696 421 624T465 489T539 371T641 262V0H121V262H330Q284 307 242 363T171 484T127 619T111 774Q111 929 160 1055T296 1270T501 1407T756 1456Q896 1456 1013 1406T1215 1266T1347 1051T1395 774Q1395 691 1380 620T1334 486T1261 365T1171 262H1384V0H864V262Q922 313 965 369T1041 494T1087 631T1100 778Q1100 859 1077 931T1008 1056T898 1140T750 1171Q675 1171 612 1145T504 1068T432 946T406 782Z"/><glyph unicode="Ϊ" horiz-adv-x="696" d="M205 0V1434H492V0H205ZM730 1673Q730 1641 717 1613T683 1563T632 1529T572 1516Q539 1516 510 1528T458 1563T423 1613T410 1673Q410 1706 423 1735T458 1786T509 1820T572 1833Q603 1833 632 1821T682 1786T717 1735T730 1673ZM288 1673Q288 1641 275 1613T240 1563T189 1529T128 1516Q96 1516 67 1528T16 1563T-19 1613T-32 1673Q-32 1706 -19 1735T16 1786T67 1820T128 1833Q160 1833 189 1821T240 1786T275 1735T288 1673Z"/><glyph unicode="Ϋ" horiz-adv-x="1462" d="M1418 1434L875 567V0H588V561L45 1434H375L733 834L1092 1434H1418ZM1114 1663Q1114 1631 1101 1603T1067 1553T1016 1519T956 1506Q923 1506 894 1518T842 1553T807 1603T794 1663Q794 1696 807 1725T842 1776T893 1810T956 1823Q987 1823 1016 1811T1066 1776T1101 1725T1114 1663ZM672 1663Q672 1631 659 1603T624 1553T573 1519T512 1506Q480 1506 451 1518T400 1553T365 1603T352 1663Q352 1696 365 1725T400 1776T451 1810T512 1823Q544 1823 573 1811T624 1776T659 1725T672 1663Z"/><glyph unicode="ά" horiz-adv-x="1147" d="M727 0V68Q670 20 618 -1T500 -23Q427 -23 353 4T218 96T120 272T82 551Q82 687 115 790T205 961T338 1063T500 1098Q565 1098 616 1080T727 1014V1075H1010V0H727ZM727 739Q692 784 646 807T537 831Q499 831 468 816T415 768T381 683T369 557Q369 385 419 315T553 244Q610 244 650 265T727 334V739ZM679 1219H440L618 1546H976L679 1219Z"/><glyph unicode="έ" horiz-adv-x="1083" d="M547 453Q496 453 463 444T409 420T381 386T373 346Q373 297 420 272T571 246Q608 246 648 252T730 272T812 306T891 356L1032 147Q978 104 930 77T815 24T678 -13T530 -25Q438 -25 357 -9T216 45T121 143T86 291Q86 348 101 393T143 472T206 530T283 571Q253 585 227 605T180 652T149 714T137 793Q137 872 173 929T269 1024T407 1080T571 1098Q702 1098 801 1066T985 973L858 764Q822 789 785 805T711 831T642 844T580 848Q499 848 456 826T412 760Q412 742 419 726T443 699T486 681T551 674H766V453H547ZM690 1219H451L629 1546H987L690 1219Z"/><glyph unicode="ή" horiz-adv-x="1196" d="M1069 -254L786 -395V582Q786 709 746 770T604 831Q560 831 526 819T469 779T433 705T420 588V0H137V1075H420V1004Q438 1022 463 1039T523 1070T594 1091T672 1098Q775 1098 849 1064T973 966T1045 811T1069 606V-254ZM729 1219H490L668 1546H1026L729 1219Z"/><glyph unicode="ί" horiz-adv-x="578" d="M147 0V1075H430V0H147ZM674 1219H435L613 1546H971L674 1219Z"/><glyph unicode="ΰ" horiz-adv-x="1178" d="M1055 217T937 97T588 -23Q491 -23 419 -4T295 49T210 129T157 227T131 336T123 449V1075H406V465Q406 406 419 366T456 299T513 262T586 250Q623 250 656 259T715 292T756 358T772 465V1075H1055V449Q1055 217 937 97ZM844 1219H658L809 1571H1113L844 1219ZM1301 1343Q1301 1314 1291 1288T1261 1243T1217 1212T1164 1200Q1138 1200 1114 1211T1072 1242T1044 1288T1033 1343Q1033 1373 1043 1399T1072 1446T1114 1477T1164 1489Q1192 1489 1217 1478T1261 1446T1290 1400T1301 1343ZM650 1343Q650 1314 640 1288T611 1243T567 1212T512 1200Q487 1200 464 1211T424 1242T397 1288T386 1343Q386 1373 396 1399T424 1446T464 1477T512 1489Q541 1489 566 1478T610 1446T639 1400T650 1343Z"/><glyph unicode="α" horiz-adv-x="1147" d="M727 0V68Q670 20 618 -1T500 -23Q427 -23 353 4T218 96T120 272T82 551Q82 687 115 790T205 961T338 1063T500 1098Q565 1098 616 1080T727 1014V1075H1010V0H727ZM727 739Q692 784 646 807T537 831Q499 831 468 816T415 768T381 683T369 557Q369 385 419 315T553 244Q610 244 650 265T727 334V739Z"/><glyph unicode="β" horiz-adv-x="1151" d="M137 -395V1042Q137 1157 170 1241T260 1380T393 1461T557 1487Q643 1487 717 1463T845 1393T930 1277T961 1118Q961 1068 948 1025T911 945T857 880T791 834Q837 818 886 790T976 717T1043 607T1069 451Q1069 333 1032 245T932 97T789 7T625 -23Q577 -23 522 -9T418 39V-256L137 -395ZM418 283Q458 261 495 253T578 244Q618 244 655 256T720 295T765 362T782 457Q782 524 764 567T714 636T636 672T537 682H528V928H545Q622 928 656 975T690 1102Q690 1177 652 1214T553 1251Q488 1251 453 1205T418 1071V283Z"/><glyph unicode="γ" horiz-adv-x="1130" d="M776 1075H1079L707 0V-254L424 -395V0L51 1075H362L567 345L776 1075Z"/><glyph unicode="δ" horiz-adv-x="1133" d="M582 1217L799 1020Q847 976 892 929T972 824T1029 696T1051 535Q1051 401 1012 297T905 122T750 14T563 -23Q470 -23 383 11T230 113T123 279T82 510Q82 610 109 692T186 837T302 941T449 997L213 1225V1464H961V1217H582ZM639 813H598Q563 812 516 794T434 740T383 646T365 516Q365 443 381 393T425 311T488 265T563 250Q604 250 640 267T704 320T748 409T764 535Q764 581 757 618T736 687T701 747T639 813Z"/><glyph unicode="ε" horiz-adv-x="1083" d="M547 453Q496 453 463 444T409 420T381 386T373 346Q373 297 420 272T571 246Q608 246 648 252T730 272T812 306T891 356L1032 147Q978 104 930 77T815 24T678 -13T530 -25Q438 -25 357 -9T216 45T121 143T86 291Q86 348 101 393T143 472T206 530T283 571Q253 585 227 605T180 652T149 714T137 793Q137 872 173 929T269 1024T407 1080T571 1098Q702 1098 801 1066T985 973L858 764Q822 789 785 805T711 831T642 844T580 848Q499 848 456 826T412 760Q412 742 419 726T443 699T486 681T551 674H766V453H547Z"/><glyph unicode="ζ" horiz-adv-x="1036" d="M631 1200H186V1464H1018V1208Q872 1115 753 1018T549 821T418 625T371 436Q371 385 388 353T433 303T500 279T582 272H735Q874 272 950 213T1026 35Q1026 -51 981 -140T821 -338L657 -217Q712 -171 739 -130T766 -53Q766 -25 748 -13T690 0H545Q450 0 366 20T218 87T119 212T82 406Q82 499 111 594T205 788T377 990T631 1200Z"/><glyph unicode="η" horiz-adv-x="1196" d="M1069 -254L786 -395V582Q786 709 746 770T604 831Q560 831 526 819T469 779T433 705T420 588V0H137V1075H420V1004Q438 1022 463 1039T523 1070T594 1091T672 1098Q775 1098 849 1064T973 966T1045 811T1069 606V-254Z"/><glyph unicode="θ" horiz-adv-x="1124" d="M1022 735Q1022 565 995 425T910 186T766 32T561 -23Q444 -23 358 31T214 185T130 423T102 733Q102 903 129 1042T213 1280T356 1433T561 1487Q678 1487 765 1433T909 1281T994 1044T1022 735ZM741 864Q737 942 729 1012T702 1136T648 1220T557 1251Q503 1251 470 1219T419 1134T392 1010T381 864H741ZM379 631Q383 549 391 474T418 340T472 248T561 213Q622 213 656 246T709 337T733 471T741 631H379Z"/><glyph unicode="ι" horiz-adv-x="578" d="M147 0V1075H430V0H147Z"/><glyph unicode="κ" horiz-adv-x="1161" d="M741 1075H1081L768 686L1104 0H782L563 455L420 289V0H137V1075H420V641L741 1075Z"/><glyph unicode="λ" horiz-adv-x="1208" d="M356 0H51L483 1026L432 1165Q416 1209 384 1230T297 1251Q268 1251 231 1246T164 1229V1452Q201 1467 259 1477T365 1487Q442 1487 495 1465T585 1404T649 1310T700 1192L1157 0H856L607 742L356 0Z"/><glyph unicode="μ" horiz-adv-x="1206" d="M786 0V72Q749 33 685 5T535 -23Q519 -23 489 -21T420 -10V-254L137 -395V1075H420V494Q420 422 432 374T467 297T524 256T602 244Q646 244 680 256T737 296T773 370T786 487V1075H1069V0H786Z"/><glyph unicode="ν" horiz-adv-x="1167" d="M729 0H438L51 1075H362L588 366L813 1075H1116L729 0Z"/><glyph unicode="ξ" horiz-adv-x="1053" d="M325 1217H174V1464H1014V1200H723Q661 1200 611 1190T526 1159T471 1106T451 1028Q451 997 464 970T505 922T571 889T664 877H897V616H618Q571 616 527 605T447 571T391 513T369 428Q369 382 388 352T437 304T499 279T559 272H731Q788 272 840 261T933 222T998 149T1022 35Q1022 -57 970 -152T817 -338L653 -217Q712 -169 737 -128T762 -53Q762 -25 744 -13T686 0H551Q445 0 358 22T209 92T112 215T78 397Q78 471 105 533T177 645T276 728T387 780Q287 803 228 860T168 1006Q168 1074 208 1128T325 1217Z"/><glyph unicode="ο" horiz-adv-x="1137" d="M1055 537Q1055 413 1019 310T917 133T762 18T567 -23Q462 -23 373 18T220 133T119 310T82 537Q82 660 118 763T219 941T373 1056T567 1098Q672 1098 761 1057T916 941T1018 764T1055 537ZM768 537Q768 598 756 650T718 742T656 803T567 825Q516 825 479 803T418 743T381 652T369 537Q369 475 381 422T417 331T479 272T567 250Q618 250 655 273T718 337T755 429T768 537Z"/><glyph unicode="π" horiz-adv-x="1300" d="M61 1075H1239V819H1108V0H825V819H477V0H195V819H61V1075Z"/><glyph unicode="ρ" horiz-adv-x="1124" d="M395 -254L113 -395V545Q113 674 141 776T227 950T371 1060T571 1098Q681 1098 768 1061T916 952T1009 779T1042 547Q1042 406 1010 299T922 121T789 13T623 -23Q551 -23 497 0T395 63V-254ZM754 539Q754 604 746 657T716 747T659 805T569 825Q516 825 483 805T430 748T403 657T395 539V317Q427 280 469 260T575 240Q618 240 651 255T707 305T742 398T754 539Z"/><glyph unicode="ς" horiz-adv-x="1094" d="M887 20Q887 -31 872 -78T828 -169T762 -255T678 -338L514 -217Q570 -171 596 -136T623 -63Q623 -46 615 -34T586 -9T531 18T444 51Q374 77 309 116T194 215T113 356T82 549Q82 660 118 760T221 935T380 1054T584 1098Q660 1098 725 1080T845 1031T942 955T1020 860L834 672Q810 706 785 734T730 782T666 813T588 825Q537 825 496 804T427 746T384 662T369 561Q369 501 387 456T435 378T506 321T592 283Q654 261 708 241T801 192T864 122T887 20Z"/><glyph unicode="σ" horiz-adv-x="1167" d="M369 539Q369 478 381 426T417 334T479 273T567 250Q618 250 655 273T718 336T755 428T768 539Q768 625 749 699T684 819H600Q556 819 515 806T441 761T389 674T369 539ZM962 819Q1012 763 1033 693T1055 543Q1055 412 1017 307T912 129T757 16T569 -23Q468 -23 380 16T225 128T121 304T82 537Q82 681 124 783T237 950T401 1045T598 1075H1106V819H962Z"/><glyph unicode="τ" horiz-adv-x="1042" d="M961 1075V817H639V381Q639 310 661 279T741 248Q786 248 826 272T903 330L862 43Q822 14 766 -4T647 -23Q591 -23 539 -8T446 44T381 142T356 295V817H51V1075H961Z"/><glyph unicode="υ" horiz-adv-x="1178" d="M1055 217T937 97T588 -23Q491 -23 419 -4T295 49T210 129T157 227T131 336T123 449V1075H406V465Q406 406 419 366T456 299T513 262T586 250Q623 250 656 259T715 292T756 358T772 465V1075H1055V449Q1055 217 937 97Z"/><glyph unicode="φ" horiz-adv-x="1511" d="M614 -395V-16Q504 -4 408 39T239 153T124 321T82 537Q82 657 124 754T238 922T407 1036T614 1092V1264L897 1405V1092Q1010 1080 1107 1038T1276 924T1389 756T1430 537Q1430 417 1389 320T1277 153T1108 39T897 -16V-254L614 -395ZM1147 537Q1147 616 1126 671T1069 762T989 817T897 842V233Q944 240 989 259T1069 313T1125 403T1147 537ZM614 842Q567 836 523 817T443 762T387 671T365 537Q365 458 386 403T443 313T522 259T614 233V842Z"/><glyph unicode="χ" horiz-adv-x="1217" d="M393 0H45L442 555L84 1075H438L614 800L793 1075H1130L774 567L1171 0H813L596 330L393 0Z"/><glyph unicode="ψ" horiz-adv-x="1528" d="M623 -14Q505 -4 411 27T250 119T149 273T113 500V1075H391V512Q391 393 450 322T623 238V1264L905 1405V238Q1018 250 1077 320T1137 512V1075H1415V502Q1415 369 1381 276T1280 121T1120 28T905 -14V-254L623 -395V-14Z"/><glyph unicode="ω" horiz-adv-x="1573" d="M672 1075Q600 1004 544 937T449 799T390 652T369 485Q369 420 378 376T406 303T452 263T516 250Q544 250 568 258T610 284T638 331T649 401V756H932V401Q932 360 942 331T970 284T1012 258T1063 250Q1094 250 1119 262T1165 303T1194 376T1204 485Q1204 574 1183 650T1123 796T1030 933T909 1075H1229Q1295 1013 1344 942T1426 797T1475 645T1491 494Q1491 402 1469 310T1398 143T1270 23T1075 -23Q1010 -23 962 -4T879 43T822 106T786 170Q772 137 748 104T688 42T603 -4T487 -23Q376 -23 299 17T173 125T104 285T82 479Q82 566 101 645T156 797T241 940T352 1075H672Z"/><glyph unicode="ϊ" horiz-adv-x="578" d="M147 0V1075H430V0H147ZM695 1367Q695 1335 682 1307T648 1257T597 1223T537 1210Q504 1210 475 1222T423 1257T388 1307T375 1367Q375 1400 388 1429T423 1480T474 1514T537 1527Q568 1527 597 1515T647 1480T682 1429T695 1367ZM253 1367Q253 1335 240 1307T205 1257T154 1223T93 1210Q61 1210 32 1222T-19 1257T-54 1307T-67 1367Q-67 1400 -54 1429T-19 1480T32 1514T93 1527Q125 1527 154 1515T205 1480T240 1429T253 1367Z"/><glyph unicode="ϋ" horiz-adv-x="1178" d="M1055 217T937 97T588 -23Q491 -23 419 -4T295 49T210 129T157 227T131 336T123 449V1075H406V465Q406 406 419 366T456 299T513 262T586 250Q623 250 656 259T715 292T756 358T772 465V1075H1055V449Q1055 217 937 97ZM989 1623Q989 1591 976 1563T942 1513T891 1479T831 1466Q798 1466 769 1478T717 1513T682 1563T669 1623Q669 1656 682 1685T717 1736T768 1770T831 1783Q862 1783 891 1771T941 1736T976 1685T989 1623ZM547 1623Q547 1591 534 1563T499 1513T448 1479T387 1466Q355 1466 326 1478T275 1513T240 1563T227 1623Q227 1656 240 1685T275 1736T326 1770T387 1783Q419 1783 448 1771T499 1736T534 1685T547 1623Z"/><glyph unicode="ό" horiz-adv-x="1137" d="M1055 537Q1055 413 1019 310T917 133T762 18T567 -23Q462 -23 373 18T220 133T119 310T82 537Q82 660 118 763T219 941T373 1056T567 1098Q672 1098 761 1057T916 941T1018 764T1055 537ZM768 537Q768 598 756 650T718 742T656 803T567 825Q516 825 479 803T418 743T381 652T369 537Q369 475 381 422T417 331T479 272T567 250Q618 250 655 273T718 337T755 429T768 537ZM706 1219H467L645 1546H1003L706 1219Z"/><glyph unicode="ύ" horiz-adv-x="1178" d="M1055 217T937 97T588 -23Q491 -23 419 -4T295 49T210 129T157 227T131 336T123 449V1075H406V465Q406 406 419 366T456 299T513 262T586 250Q623 250 656 259T715 292T756 358T772 465V1075H1055V449Q1055 217 937 97ZM700 1219H461L639 1546H997L700 1219Z"/><glyph unicode="ώ" horiz-adv-x="1573" d="M672 1075Q600 1004 544 937T449 799T390 652T369 485Q369 420 378 376T406 303T452 263T516 250Q544 250 568 258T610 284T638 331T649 401V756H932V401Q932 360 942 331T970 284T1012 258T1063 250Q1094 250 1119 262T1165 303T1194 376T1204 485Q1204 574 1183 650T1123 796T1030 933T909 1075H1229Q1295 1013 1344 942T1426 797T1475 645T1491 494Q1491 402 1469 310T1398 143T1270 23T1075 -23Q1010 -23 962 -4T879 43T822 106T786 170Q772 137 748 104T688 42T603 -4T487 -23Q376 -23 299 17T173 125T104 285T82 479Q82 566 101 645T156 797T241 940T352 1075H672ZM909 1219H670L848 1546H1206L909 1219Z"/><glyph unicode="Ё" horiz-adv-x="1331" d="M1210 0H184V1434H1180V1153H471V905H1047V627H471V281H1210V0ZM1069 1683Q1069 1651 1056 1623T1022 1573T971 1539T911 1526Q878 1526 849 1538T797 1573T762 1623T749 1683Q749 1716 762 1745T797 1796T848 1830T911 1843Q942 1843 971 1831T1021 1796T1056 1745T1069 1683ZM627 1683Q627 1651 614 1623T579 1573T528 1539T467 1526Q435 1526 406 1538T355 1573T320 1623T307 1683Q307 1716 320 1745T355 1796T406 1830T467 1843Q499 1843 528 1831T579 1796T614 1745T627 1683Z"/><glyph unicode="Ђ" horiz-adv-x="1751" d="M1202 1151H791V903Q814 924 847 943T921 976T1011 999T1114 1008Q1247 1008 1344 968T1504 851T1597 667T1628 424V268Q1628 65 1521 -79T1208 -281L1133 0Q1247 43 1294 106T1341 268V424Q1341 511 1323 570T1270 664T1184 714T1067 729Q982 729 909 700T791 621V0H504V1151H92V1434H1202V1151Z"/><glyph unicode="Ѓ" horiz-adv-x="1331" d="M471 1153V0H184V1434H1180V1153H471ZM710 1526H471L649 1853H1007L710 1526Z"/><glyph unicode="Є" horiz-adv-x="1372" d="M1266 301Q1229 225 1178 165T1061 63T915 -1T736 -23Q595 -23 480 29T282 177T154 410T109 717Q109 880 157 1016T287 1250T488 1402T740 1456Q933 1456 1063 1376T1271 1139L1008 1018Q970 1092 904 1134T738 1176Q673 1176 619 1154T524 1092T454 995T410 868H983V614H401Q412 536 439 471T511 357T612 284T740 258Q837 258 904 302T1028 440L1266 301Z"/><glyph unicode="Ѕ" horiz-adv-x="1354" d="M1235 434Q1235 332 1202 248T1100 104T925 10T672 -23Q582 -23 499 -5T344 47T214 129T115 238L322 422Q397 334 491 296T688 258Q761 258 806 268T881 297T925 341T938 414Q938 448 926 474T880 523T783 565T618 608Q519 631 437 661T295 739T203 858T170 1036Q170 1133 210 1211T319 1343T482 1427T682 1456Q764 1456 837 1442T981 1394T1101 1324T1204 1231L997 1030Q956 1072 925 1095T854 1137T770 1167T672 1178Q614 1178 575 1167T512 1137T478 1096T467 1049Q467 1015 480 991T526 949T614 914T756 877Q878 848 959 817T1102 736T1199 612T1235 434Z"/><glyph unicode="І" horiz-adv-x="696" d="M205 0V1434H492V0H205Z"/><glyph unicode="Ї" horiz-adv-x="696" d="M205 0V1434H492V0H205ZM730 1673Q730 1641 717 1613T683 1563T632 1529T572 1516Q539 1516 510 1528T458 1563T423 1613T410 1673Q410 1706 423 1735T458 1786T509 1820T572 1833Q603 1833 632 1821T682 1786T717 1735T730 1673ZM288 1673Q288 1641 275 1613T240 1563T189 1529T128 1516Q96 1516 67 1528T16 1563T-19 1613T-32 1673Q-32 1706 -19 1735T16 1786T67 1820T128 1833Q160 1833 189 1821T240 1786T275 1735T288 1673Z"/><glyph unicode="Ј" horiz-adv-x="1331" d="M1157 598Q1157 295 1017 136T614 -23Q507 -23 418 8T260 95T142 229T66 401L346 477Q370 414 391 380T445 317T519 276T614 262Q682 262 730 283T810 348T855 451T870 590V1434H1157V598Z"/><glyph unicode="Љ" horiz-adv-x="2212" d="M1280 926H1620Q1721 926 1811 898T1968 813T2075 671T2114 471Q2114 346 2075 257T1966 111T1801 27T1595 0H993V1153H616L528 526Q492 295 373 159T100 -23L25 258Q127 301 176 361T242 526L371 1434H1280V926ZM1819 465Q1819 559 1762 603T1610 647H1280V279H1614Q1714 279 1766 325T1819 465Z"/><glyph unicode="Њ" horiz-adv-x="2234" d="M1309 926H1649Q1750 926 1840 898T1997 813T2103 671T2142 471Q2142 346 2103 257T1995 111T1830 27T1624 0H1022V647H471V0H184V1434H471V926H1022V1434H1309V926ZM1847 465Q1847 559 1790 603T1638 647H1309V279H1642Q1743 279 1795 325T1847 465Z"/><glyph unicode="Ћ" horiz-adv-x="1751" d="M1202 1151H791V903Q814 924 847 943T921 976T1011 999T1114 1008Q1247 1008 1344 968T1504 851T1597 667T1628 424V0H1341V424Q1341 511 1323 570T1270 664T1184 714T1067 729Q980 729 907 700T791 621V0H504V1151H92V1434H1202V1151Z"/><glyph unicode="Ќ" horiz-adv-x="1475" d="M1434 0H1090L700 692L471 422V0H184V1434H471V811L981 1434H1327L907 938L1434 0ZM710 1526H471L649 1853H1007L710 1526Z"/><glyph unicode="Ў" horiz-adv-x="1462" d="M1092 1434H1413L662 0H375L588 416L45 1434H375L733 727L1092 1434ZM733 1526Q641 1526 565 1550T433 1618T346 1722T315 1853H510Q510 1824 526 1800T572 1758T643 1730T733 1720Q782 1720 823 1730T893 1757T939 1799T956 1853H1151Q1151 1782 1120 1722T1034 1619T901 1551T733 1526Z"/><glyph unicode="Џ" horiz-adv-x="1530" d="M1346 0H911L897 -352H621V0H184V1434H471V281H1059V1434H1346V0Z"/><glyph unicode="А" horiz-adv-x="1536" d="M1454 0H1139L1026 319H502L389 0H82L631 1434H909L1454 0ZM928 592L764 1059L600 592H928Z"/><glyph unicode="Б" horiz-adv-x="1464" d="M1051 459Q1051 552 1001 597T846 643H465V272H846Q951 272 1001 323T1051 459ZM465 1163V897H848Q962 897 1054 871T1211 792T1311 656T1346 463Q1346 350 1310 264T1206 119T1045 30T836 0H184V1434H1257V1163H465Z"/><glyph unicode="В" horiz-adv-x="1454" d="M1346 463Q1346 241 1207 121T836 0H184V1434H842Q946 1434 1030 1409T1173 1336T1264 1218T1296 1055Q1296 1006 1286 965T1254 888T1208 826T1145 776Q1188 757 1225 728T1289 660T1331 572T1346 463ZM1006 1032Q1006 1064 997 1088T970 1130T917 1158T829 1169H465V897H844Q889 897 919 907T969 934T997 977T1006 1032ZM1051 459Q1051 507 1039 540T1003 595T942 630T846 643H465V272H846Q901 272 940 285T1004 326T1040 386T1051 459Z"/><glyph unicode="Г" horiz-adv-x="1331" d="M471 1153V0H184V1434H1180V1153H471Z"/><glyph unicode="Д" horiz-adv-x="1468" d="M997 1153H610L573 885Q561 794 550 723T527 596T506 496T486 416T464 347T442 281H997V1153ZM365 1434H1284V281H1417V-352H1141L1126 0H334L319 -352H43V281H156Q188 379 205 446T237 583T262 723T287 885L365 1434Z"/><glyph unicode="Е" horiz-adv-x="1331" d="M1210 0H184V1434H1180V1153H471V905H1047V627H471V281H1210V0Z"/><glyph unicode="Ж" horiz-adv-x="2232" d="M1260 1434V848L1739 1434H2085L1665 938L2191 0H1847L1458 692L1260 457V0H973V451L768 692L385 0H47L567 930L141 1434H494L973 847V1434H1260Z"/><glyph unicode="З" horiz-adv-x="1270" d="M659 872Q702 872 733 885T783 920T812 970T821 1028Q821 1058 811 1087T776 1140T713 1177T616 1192Q517 1192 436 1153T285 1038L84 1231Q185 1337 313 1396T608 1456Q749 1456 845 1421T1001 1328T1086 1199T1112 1053Q1112 957 1068 883T942 764Q989 744 1029 714T1098 644T1144 552T1161 440Q1161 355 1133 272T1038 124T864 18T598 -23Q419 -23 271 47T41 238L244 418Q322 329 421 290T631 250Q697 250 742 266T814 309T854 369T866 438Q866 472 856 504T823 562T765 603T680 618H389V872H659Z"/><glyph unicode="И" horiz-adv-x="1530" d="M1071 1434H1346V0H1059V953L459 0H184V1434H471V479L1071 1434Z"/><glyph unicode="Й" horiz-adv-x="1530" d="M1071 1434H1346V0H1059V953L459 0H184V1434H471V479L1071 1434ZM764 1526Q672 1526 596 1550T464 1618T377 1722T346 1853H541Q541 1824 557 1800T603 1758T674 1730T764 1720Q813 1720 854 1730T924 1757T970 1799T987 1853H1182Q1182 1782 1151 1722T1065 1619T932 1551T764 1526Z"/><glyph unicode="К" horiz-adv-x="1475" d="M1434 0H1090L700 692L471 422V0H184V1434H471V811L981 1434H1327L907 938L1434 0Z"/><glyph unicode="Л" horiz-adv-x="1454" d="M508 526Q493 419 456 330T363 172T236 53T80 -23L4 258Q54 279 91 303T155 360T197 433T221 526L350 1434H1270V0H983V1153H596L508 526Z"/><glyph unicode="М" horiz-adv-x="1710" d="M1526 0H1239V816L852 -33L465 816V0H184V1434H461L858 567L1243 1434H1526V0Z"/><glyph unicode="Н" horiz-adv-x="1530" d="M1059 0V602H471V0H184V1434H471V885H1059V1434H1346V0H1059Z"/><glyph unicode="О" horiz-adv-x="1473" d="M1368 719Q1368 545 1322 408T1192 175T992 28T735 -23Q594 -23 478 27T279 172T150 404T104 715Q104 889 150 1026T281 1259T482 1405T739 1456Q879 1456 994 1406T1193 1261T1322 1030T1368 719ZM1073 715Q1073 824 1048 909T978 1052T871 1140T733 1171Q658 1171 596 1142T491 1055T423 913T399 719Q399 610 424 525T494 382T601 293T739 262Q814 262 876 292T981 379T1049 521T1073 715Z"/><glyph unicode="П" horiz-adv-x="1530" d="M1059 0V1153H471V0H184V1434H1346V0H1059Z"/><glyph unicode="Р" horiz-adv-x="1393" d="M1305 979Q1305 854 1266 765T1157 619T992 535T786 508H471V0H184V1434H811Q912 1434 1002 1406T1159 1321T1266 1179T1305 979ZM1010 973Q1010 1017 997 1051T956 1109T888 1143T801 1155H471V786H805Q905 786 957 832T1010 973Z"/><glyph unicode="С" horiz-adv-x="1372" d="M1004 1016Q980 1062 958 1085T904 1128T833 1160T741 1171Q660 1171 598 1138T492 1044T426 901T403 717Q403 620 426 537T492 393T599 297T743 262Q831 262 895 300T1024 444L1266 301Q1229 225 1178 165T1061 63T914 -1T735 -23Q637 -23 557 0T405 69T279 179T191 314T134 485T109 717Q109 880 156 1016T287 1250T488 1402T745 1456Q926 1456 1059 1378T1270 1139L1004 1016Z"/><glyph unicode="Т" horiz-adv-x="1294" d="M791 1151V0H504V1151H92V1434H1202V1151H791Z"/><glyph unicode="У" horiz-adv-x="1462" d="M1092 1434H1413L662 0H375L588 416L45 1434H375L733 727L1092 1434Z"/><glyph unicode="Ф" horiz-adv-x="1892" d="M1090 319Q1196 319 1272 348T1398 429T1470 555T1493 717Q1493 805 1470 878T1398 1003T1273 1085T1090 1114V319ZM803 1114Q696 1114 620 1085T494 1004T422 878T399 717Q399 628 422 555T494 430T619 348T803 319V1114ZM803 1513H1090V1389Q1234 1389 1361 1351T1583 1231T1733 1022T1788 717Q1788 540 1732 413T1579 204T1357 84T1090 45V-82H803V45Q662 45 536 83T313 203T161 412T104 717Q104 894 159 1021T309 1230T531 1350T803 1389V1513Z"/><glyph unicode="Х" horiz-adv-x="1438" d="M1346 0H1004L719 483L434 0H92L547 733L113 1434H455L719 982L983 1434H1325L889 733L1346 0Z"/><glyph unicode="Ц" horiz-adv-x="1530" d="M1346 281H1479V-352H1202L1188 0H184V1434H471V281H1059V1434H1346V281Z"/><glyph unicode="Ч" horiz-adv-x="1438" d="M416 1114Q416 1027 434 968T487 874T573 824T690 809Q737 809 779 817T856 841T919 875T967 918V1434H1253V0H967V635Q944 614 911 595T836 562T746 539T643 530Q509 530 412 570T252 687T159 871T129 1114V1434H416V1114Z"/><glyph unicode="Ш" horiz-adv-x="2052" d="M1868 0H184V1434H471V281H883V1434H1169V281H1581V1434H1868V0Z"/><glyph unicode="Щ" horiz-adv-x="2052" d="M1868 281H2001V-352H1724L1710 0H184V1434H471V281H883V1434H1169V281H1581V1434H1868V281Z"/><glyph unicode="Ъ" horiz-adv-x="1561" d="M1145 465Q1145 559 1088 603T936 647H606V279H940Q1040 279 1092 325T1145 465ZM606 926H946Q1048 926 1137 898T1294 813T1401 671T1440 471Q1440 346 1401 257T1293 111T1128 27T922 0H319V1163H0V1434H606V926Z"/><glyph unicode="Ы" horiz-adv-x="2005" d="M471 926H811Q912 926 1002 898T1159 813T1266 671T1305 471Q1305 346 1266 257T1157 111T992 27T786 0H184V1434H471V926ZM1010 465Q1010 559 953 603T801 647H471V279H805Q905 279 957 325T1010 465ZM1534 0V1434H1821V0H1534Z"/><glyph unicode="Ь" horiz-adv-x="1425" d="M471 926H811Q912 926 1002 898T1159 813T1266 671T1305 471Q1305 346 1266 257T1157 111T992 27T786 0H184V1434H471V926ZM1010 465Q1010 559 953 603T801 647H471V279H805Q905 279 957 325T1010 465Z"/><glyph unicode="Э" horiz-adv-x="1372" d="M344 440Q400 346 465 302T633 258Q703 258 760 284T860 358T930 470T969 614H389V868H963Q948 938 920 995T850 1092T754 1154T635 1176Q536 1176 470 1134T365 1018L102 1139Q137 1209 186 1267T301 1367T451 1432T639 1456Q783 1456 898 1402T1095 1250T1220 1016T1264 717Q1264 547 1219 410T1092 177T894 29T637 -23Q539 -23 458 -1T311 63T194 165T106 301L344 440Z"/><glyph unicode="Ю" horiz-adv-x="2079" d="M471 885H723Q744 1020 798 1126T933 1305T1118 1417T1346 1456Q1485 1456 1601 1406T1799 1261T1928 1030T1974 719Q1974 545 1928 408T1798 175T1598 28T1341 -23Q1210 -23 1101 20T911 144T779 344T715 614H471V0H184V1434H471V885ZM1679 715Q1679 824 1654 909T1584 1052T1477 1140T1339 1171Q1264 1171 1203 1142T1098 1055T1030 913T1006 719Q1006 610 1031 525T1101 382T1208 293T1346 262Q1421 262 1482 292T1587 379T1655 521T1679 715Z"/><glyph unicode="Я" horiz-adv-x="1475" d="M176 983Q176 1097 214 1181T320 1322T476 1406T666 1434H1290V0H1010V516H674L416 0H94L385 584Q288 636 232 734T176 983ZM471 969Q471 869 527 820T688 770H1010V1163H694Q643 1163 602 1152T532 1116T487 1056T471 969Z"/><glyph unicode="а" horiz-adv-x="1139" d="M729 0V72Q710 52 686 36T628 5T559 -16T487 -23Q412 -23 340 0T212 71T121 190T86 360Q86 449 120 516T213 627T351 694T522 717Q597 717 646 704T729 674V727Q729 787 689 825T575 864Q481 864 422 851T281 793L172 989Q274 1049 365 1073T575 1098Q673 1098 753 1073T891 1000T980 882T1012 721V0H729ZM729 451Q711 462 692 470T650 484T599 493T532 496Q452 496 411 461T369 360Q369 332 377 306T405 261T456 229T532 217Q567 217 597 225T653 246T698 278T729 315V451Z"/><glyph unicode="б" horiz-adv-x="1174" d="M801 526Q801 586 789 637T752 727T693 787T610 809Q562 809 526 788T467 728T432 639T420 526Q420 464 431 413T466 324T526 265T610 244Q658 244 693 267T753 330T789 420T801 526ZM807 1257Q706 1257 632 1233T507 1169T433 1077T408 969Q456 1018 514 1046T641 1075Q751 1075 834 1035T974 921T1058 748T1087 526Q1087 405 1051 304T952 131T801 18T612 -23Q509 -23 422 17T272 130T173 304T137 526V907Q137 1037 187 1144T327 1329T540 1450T807 1493Q870 1493 918 1499T1012 1516V1288Q968 1273 918 1265T807 1257Z"/><glyph unicode="в" horiz-adv-x="1157" d="M717 1075Q795 1075 858 1057T965 1002T1033 913T1057 791Q1057 721 1026 668T938 582Q970 567 997 545T1045 494T1076 428T1087 346Q1087 262 1060 197T983 89T863 23T705 0H137V1075H717ZM778 762Q778 811 748 836T649 862H414V664H659Q723 664 750 692T778 762ZM805 332Q805 392 773 421T672 451H414V213H672Q741 213 773 245T805 332Z"/><glyph unicode="г" horiz-adv-x="956" d="M420 836V0H137V1075H932V836H420Z"/><glyph unicode="д" horiz-adv-x="1188" d="M1087 213H1188V-326H926L911 0H326L311 -326H49V213H133Q146 250 157 287T180 374T204 493T231 666L289 1075H1087V213ZM805 213V862H532L504 666Q489 563 476 494T452 374T429 287T406 213H805Z"/><glyph unicode="е" horiz-adv-x="1102" d="M1014 537Q1014 506 1013 484T1010 446H367Q371 391 391 353T442 290T511 255T588 244Q617 244 642 248T692 263T737 288T772 319L973 152Q941 110 897 78T802 23T697 -11T588 -23Q499 -23 429 -2T305 56T211 139T142 245T98 376T82 537Q82 660 118 763T219 941T371 1056T561 1098Q669 1098 753 1054T895 933T983 754T1014 537ZM739 659Q736 695 724 730T688 792T630 835T547 852Q508 852 478 837T425 796T389 735T371 659H739Z"/><glyph unicode="ж" horiz-adv-x="1696" d="M705 326L567 496L362 0H53L362 733L86 1075H420L705 705V1075L987 1217V705L1272 1075H1606L1329 733L1638 0H1329L1124 496L987 326V0H705V326Z"/><glyph unicode="з" horiz-adv-x="997" d="M305 664H518Q551 664 574 673T611 697T632 731T639 772Q639 793 632 813T606 849T559 875T487 885Q419 885 338 856T176 770L86 993Q173 1041 277 1069T483 1098Q604 1098 687 1071T820 1001T893 903T915 793Q915 751 902 717T866 655T812 607T743 571Q779 563 815 545T881 496T929 424T948 328Q948 263 925 201T846 88T702 8T483 -23Q359 -23 247 11T51 102L141 317Q225 256 312 223T498 190Q545 190 577 201T629 231T657 273T666 322Q666 347 658 370T633 412T589 440T524 451H305V664Z"/><glyph unicode="и" horiz-adv-x="1196" d="M803 1075H1069V0H786V606L403 0H137V1075H420V469L803 1075Z"/><glyph unicode="й" horiz-adv-x="1196" d="M803 1075H1069V0H786V606L403 0H137V1075H420V469L803 1075ZM861 1169Q779 1169 710 1190T591 1251T512 1343T484 1462H661Q661 1436 675 1414T716 1376T779 1350T861 1341Q906 1341 943 1350T1006 1375T1047 1414T1062 1462H1238Q1238 1397 1210 1344T1132 1251T1012 1191T861 1169Z"/><glyph unicode="к" horiz-adv-x="1128" d="M705 1075H1038L762 733L1071 0H762L557 496L420 326V0H137V1075L420 1216V707L705 1075Z"/><glyph unicode="л" horiz-adv-x="1214" d="M467 395Q440 227 337 122T88 -23L23 217Q90 243 136 282T193 395L287 1075H1087V0H805V836H530L467 395Z"/><glyph unicode="м" horiz-adv-x="1409" d="M999 0V612L709 -25L420 612V0H137V1075H477L714 556L944 1075H1282V0H999Z"/><glyph unicode="н" horiz-adv-x="1196" d="M1069 1075V0H786V451H420V0H137V1075H420V690H786V1075H1069Z"/><glyph unicode="о" horiz-adv-x="1137" d="M1055 537Q1055 413 1019 310T917 133T762 18T567 -23Q462 -23 373 18T220 133T119 310T82 537Q82 660 118 763T219 941T373 1056T567 1098Q672 1098 761 1057T916 941T1018 764T1055 537ZM768 537Q768 598 756 650T718 742T656 803T567 825Q516 825 479 803T418 743T381 652T369 537Q369 475 381 422T417 331T479 272T567 250Q618 250 655 273T718 337T755 429T768 537Z"/><glyph unicode="п" horiz-adv-x="1196" d="M1069 1075V0H786V836H420V0H137V1075H1069Z"/><glyph unicode="р" horiz-adv-x="1151" d="M1065 524Q1065 404 1037 304T956 131T825 18T647 -23Q576 -23 517 1T420 61V-254L137 -395V1075H420V1008Q467 1051 524 1074T647 1098Q733 1098 809 1065T942 962T1032 784T1065 524ZM778 518Q778 671 732 751T594 831Q537 831 497 810T420 741V336Q438 312 456 296T499 268T551 250T610 244Q692 244 735 313T778 518Z"/><glyph unicode="с" horiz-adv-x="1100" d="M1026 217Q987 165 944 121T847 45T730 -5T586 -23Q481 -23 389 18T229 133T121 310T82 537Q82 660 120 763T228 941T391 1056T598 1098Q734 1098 840 1039T1024 860L838 672Q814 706 789 734T734 782T670 813T592 825Q541 825 500 805T430 747T385 656T369 537Q369 472 385 420T430 329T500 271T592 250Q633 250 667 259T732 285T790 328T846 387L1026 217Z"/><glyph unicode="т" horiz-adv-x="987" d="M633 836V0H350V836H27V1075H958V836H633Z"/><glyph unicode="у" horiz-adv-x="1208" d="M604 -379H326L469 0L51 1075H362L608 351L854 1075H1157L604 -379Z"/><glyph unicode="ф" horiz-adv-x="1712" d="M1339 518Q1339 601 1327 660T1291 757T1236 813T1163 831Q1100 831 1063 807T997 741V336Q1028 291 1074 268T1180 244Q1257 244 1298 313T1339 518ZM715 -395V61Q678 26 621 2T494 -23Q396 -23 320 17T192 130T113 303T86 524Q86 675 118 783T205 962T335 1065T494 1098Q561 1098 618 1073T715 1008V1352L997 1493V1008Q1044 1051 1098 1074T1219 1098Q1303 1098 1377 1065T1506 962T1594 784T1626 524Q1626 404 1599 304T1520 131T1392 18T1219 -23Q1149 -23 1092 1T997 61V-254L715 -395ZM373 518Q373 382 414 313T532 244Q591 244 637 267T715 336V741Q686 782 649 806T549 831Q509 831 477 813T421 757T386 660T373 518Z"/><glyph unicode="х" horiz-adv-x="1176" d="M795 0L588 342L381 0H45L426 582L102 1075H438L588 817L737 1075H1073L750 582L1130 0H795Z"/><glyph unicode="ц" horiz-adv-x="1221" d="M1069 1075V240H1171V-258L899 -395V0H137V1075H420V240H786V1075H1069Z"/><glyph unicode="ч" horiz-adv-x="1186" d="M1049 0H766V459Q731 425 668 399T522 373Q422 373 350 405T230 499T160 647T137 844V1075H420V844Q420 785 431 746T464 683T518 649T592 639Q651 639 696 659T766 707V1075H1049V0Z"/><glyph unicode="ш" horiz-adv-x="1804" d="M1677 0H137V1075H420V240H766V1075H1049V240H1395V1075H1677V0Z"/><glyph unicode="щ" horiz-adv-x="1837" d="M1677 1075V240H1780V-258L1507 -395V0H137V1075H420V240H766V1075H1049V240H1395V1075H1677Z"/><glyph unicode="ъ" horiz-adv-x="1257" d="M930 350Q930 419 888 452T776 485H539V213H778Q853 213 891 247T930 350ZM539 698H840Q916 698 984 677T1102 613T1182 506T1212 354Q1212 260 1183 193T1101 83T978 20T821 0H256V862H0V1075H539V698Z"/><glyph unicode="ы" horiz-adv-x="1698" d="M420 698H721Q798 698 866 677T984 613T1064 506T1094 354Q1094 260 1065 193T983 83T859 20T702 0H137V1075H420V698ZM811 350Q811 419 769 452T657 485H420V213H659Q734 213 772 247T811 350ZM1278 0V1075H1561V0H1278Z"/><glyph unicode="ь" horiz-adv-x="1139" d="M420 698H721Q798 698 866 677T984 613T1064 506T1094 354Q1094 260 1065 193T983 83T859 20T702 0H137V1075H420V698ZM811 350Q811 419 769 452T657 485H420V213H659Q734 213 772 247T811 350Z"/><glyph unicode="э" horiz-adv-x="1100" d="M369 664H719Q694 755 634 806T487 858Q405 858 347 819T244 721L76 891Q144 984 254 1041T514 1098Q629 1098 722 1057T881 941T982 764T1018 537Q1018 413 979 310T872 133T711 18T514 -23Q434 -23 370 -7T253 36T157 102T74 186L236 340Q298 272 355 245T487 217Q583 217 645 279T727 451H369V664Z"/><glyph unicode="ю" horiz-adv-x="1663" d="M420 690H625Q645 782 687 857T791 986T928 1069T1094 1098Q1199 1098 1288 1057T1442 941T1544 764T1581 537Q1581 413 1545 310T1443 133T1288 18T1094 -23Q998 -23 916 11T770 108T665 257T612 451H420V0H137V1075H420V690ZM1294 537Q1294 598 1282 650T1245 742T1183 803T1094 825Q1043 825 1006 803T944 743T907 652T895 537Q895 475 907 422T943 331T1005 272T1094 250Q1145 250 1182 273T1244 337T1281 429T1294 537Z"/><glyph unicode="я" horiz-adv-x="1196" d="M119 737Q119 822 148 885T227 991T343 1054T485 1075H1069V0H793V387H553L360 0H59L276 438Q204 476 162 549T119 737ZM401 731Q401 665 438 633T545 600H793V862H551Q483 862 442 831T401 731Z"/><glyph unicode="ё" horiz-adv-x="1102" d="M1014 537Q1014 506 1013 484T1010 446H367Q371 391 391 353T442 290T511 255T588 244Q617 244 642 248T692 263T737 288T772 319L973 152Q941 110 897 78T802 23T697 -11T588 -23Q499 -23 429 -2T305 56T211 139T142 245T98 376T82 537Q82 660 118 763T219 941T371 1056T561 1098Q669 1098 753 1054T895 933T983 754T1014 537ZM739 659Q736 695 724 730T688 792T630 835T547 852Q508 852 478 837T425 796T389 735T371 659H739ZM940 1623Q940 1591 927 1563T893 1513T842 1479T782 1466Q749 1466 720 1478T668 1513T633 1563T620 1623Q620 1656 633 1685T668 1736T719 1770T782 1783Q813 1783 842 1771T892 1736T927 1685T940 1623ZM498 1623Q498 1591 485 1563T450 1513T399 1479T338 1466Q306 1466 277 1478T226 1513T191 1563T178 1623Q178 1656 191 1685T226 1736T277 1770T338 1783Q370 1783 399 1771T450 1736T485 1685T498 1623Z"/><glyph unicode="ђ" horiz-adv-x="1229" d="M453 1159V891Q490 929 555 957T705 985Q808 985 882 951T1006 853T1078 699T1102 494V154Q1102 -55 994 -198T700 -395L635 -156Q737 -110 778 -48T819 113V469Q819 541 807 589T772 666T715 707T637 719Q593 719 559 707T502 667T466 592T453 475V0H170V1159H0V1303H170V1352L453 1493V1303H819V1159H453Z"/><glyph unicode="ѓ" horiz-adv-x="956" d="M420 836V0H137V1075H932V836H420ZM538 1219H299L477 1546H835L538 1219Z"/><glyph unicode="є" horiz-adv-x="1100" d="M731 451H371Q389 343 452 280T612 217Q655 217 689 225T752 248T808 287T864 340L1026 186Q987 141 944 103T847 37T730 -7T586 -23Q481 -23 389 18T229 133T121 310T82 537Q82 660 120 763T228 941T391 1056T598 1098Q675 1098 738 1083T854 1039T948 974T1024 891L856 721Q832 751 807 776T754 819T691 848T612 858Q524 858 464 807T379 664H731V451Z"/><glyph unicode="ѕ" horiz-adv-x="1100" d="M954 993L864 770Q784 813 702 834T551 856Q476 856 441 842T406 786Q406 769 414 756T446 730T513 701T629 662Q701 638 766 611T880 544T958 450T987 313Q987 220 953 156T859 53T720 -5T549 -23Q426 -23 307 10T98 102L193 317Q279 269 370 244T565 219Q645 219 677 238T709 301Q709 319 701 333T675 360T626 385T551 410Q454 439 376 468T243 537T157 635T127 778Q127 862 158 922T247 1022T383 1079T557 1098Q659 1098 763 1070T954 993Z"/><glyph unicode="і" horiz-adv-x="578" d="M451 1325Q451 1292 438 1263T403 1211T352 1176T289 1163Q256 1163 227 1176T175 1211T140 1262T127 1325Q127 1358 140 1387T175 1439T226 1474T289 1487Q322 1487 351 1474T403 1439T438 1388T451 1325ZM147 0V1075H430V0H147Z"/><glyph unicode="ї" horiz-adv-x="578" d="M147 0V1075H430V0H147ZM671 1357Q671 1325 658 1297T624 1247T573 1213T513 1200Q480 1200 451 1212T399 1247T364 1297T351 1357Q351 1390 364 1419T399 1470T450 1504T513 1517Q544 1517 573 1505T623 1470T658 1419T671 1357ZM229 1357Q229 1325 216 1297T181 1247T130 1213T69 1200Q37 1200 8 1212T-43 1247T-78 1297T-91 1357Q-91 1390 -78 1419T-43 1470T8 1504T69 1517Q101 1517 130 1505T181 1470T216 1419T229 1357Z"/><glyph unicode="ј" horiz-adv-x="578" d="M451 1325Q451 1292 438 1263T403 1211T352 1176T289 1163Q256 1163 227 1176T175 1211T140 1262T127 1325Q127 1358 140 1387T175 1439T226 1474T289 1487Q322 1487 351 1474T403 1439T438 1388T451 1325ZM430 80Q430 -33 411 -114T343 -250T214 -340T8 -395L-90 -178Q-17 -164 29 -148T101 -104T137 -36T147 68V1075H430V80Z"/><glyph unicode="љ" horiz-adv-x="1839" d="M1077 698H1378Q1455 698 1523 677T1641 613T1721 506T1751 354Q1751 260 1722 193T1640 83T1516 20T1360 0H795V836H518L455 395Q428 225 324 121T76 -23L10 217Q86 246 128 286T180 395L274 1075H1077V698ZM1468 350Q1468 419 1426 452T1315 485H1077V213H1317Q1391 213 1429 247T1468 350Z"/><glyph unicode="њ" horiz-adv-x="1839" d="M1069 698H1370Q1447 698 1515 677T1633 613T1713 506T1743 354Q1743 260 1714 193T1632 83T1508 20T1352 0H786V485H420V0H137V1075H420V698H786V1075H1069V698ZM1460 350Q1460 419 1418 452T1307 485H1069V213H1309Q1383 213 1421 247T1460 350Z"/><glyph unicode="ћ" horiz-adv-x="1229" d="M453 1159V891Q490 929 555 957T705 985Q808 985 882 951T1006 853T1078 699T1102 494V0H819V469Q819 541 807 589T772 666T715 707T637 719Q593 719 559 707T502 667T466 592T453 475V0H170V1159H0V1303H170V1352L453 1493V1303H819V1159H453Z"/><glyph unicode="ќ" horiz-adv-x="1128" d="M705 1075H1038L762 733L1071 0H762L557 496L420 326V0H137V1075L420 1216V707L705 1075ZM704 1219H465L643 1546H1001L704 1219Z"/><glyph unicode="ў" horiz-adv-x="1208" d="M604 -379H326L469 0L51 1075H362L608 351L854 1075H1157L604 -379ZM608 1169Q526 1169 457 1190T338 1251T259 1343T231 1462H408Q408 1436 422 1414T463 1376T526 1350T608 1341Q653 1341 690 1350T753 1375T794 1414T809 1462H985Q985 1397 957 1344T879 1251T759 1191T608 1169Z"/><glyph unicode="џ" horiz-adv-x="1221" d="M1069 1075V0H739V-258L467 -395V0H137V1075H420V240H786V1075H1069Z"/><glyph unicode="Ґ" horiz-adv-x="1331" d="M1180 1153H471V0H184V1434H903V1614L1180 1753V1153Z"/><glyph unicode="ґ" horiz-adv-x="956" d="M932 836H420V0H137V1075H672V1253L932 1384V836Z"/><glyph unicode="Ẁ" horiz-adv-x="1804" d="M1702 1434L1403 0H1122L898 939L670 0H402L102 1434H402L561 533L778 1434H1028L1248 533L1407 1434H1702ZM832 1526L535 1853H893L1071 1526H832Z"/><glyph unicode="ẁ" horiz-adv-x="1520" d="M1159 0H924L760 646L596 0H360L51 1075H338L483 459L647 1075H881L1044 459L1190 1075H1468L1159 0ZM670 1219L373 1546H731L909 1219H670Z"/><glyph unicode="Ẃ" horiz-adv-x="1804" d="M1702 1434L1403 0H1122L898 939L670 0H402L102 1434H402L561 533L778 1434H1028L1248 533L1407 1434H1702ZM973 1526H734L912 1853H1270L973 1526Z"/><glyph unicode="ẃ" horiz-adv-x="1520" d="M1159 0H924L760 646L596 0H360L51 1075H338L483 459L647 1075H881L1044 459L1190 1075H1468L1159 0ZM858 1219H619L797 1546H1155L858 1219Z"/><glyph unicode="Ẅ" horiz-adv-x="1804" d="M1702 1434L1403 0H1122L898 939L670 0H402L102 1434H402L561 533L778 1434H1028L1248 533L1407 1434H1702ZM1280 1683Q1280 1651 1267 1623T1233 1573T1182 1539T1122 1526Q1089 1526 1060 1538T1008 1573T973 1623T960 1683Q960 1716 973 1745T1008 1796T1059 1830T1122 1843Q1153 1843 1182 1831T1232 1796T1267 1745T1280 1683ZM838 1683Q838 1651 825 1623T790 1573T739 1539T678 1526Q646 1526 617 1538T566 1573T531 1623T518 1683Q518 1716 531 1745T566 1796T617 1830T678 1843Q710 1843 739 1831T790 1796T825 1745T838 1683Z"/><glyph unicode="ẅ" horiz-adv-x="1520" d="M1159 0H924L760 646L596 0H360L51 1075H338L483 459L647 1075H881L1044 459L1190 1075H1468L1159 0ZM1141 1376Q1141 1344 1128 1316T1094 1266T1043 1232T983 1219Q950 1219 921 1231T869 1266T834 1316T821 1376Q821 1409 834 1438T869 1489T920 1523T983 1536Q1014 1536 1043 1524T1093 1489T1128 1438T1141 1376ZM699 1376Q699 1344 686 1316T651 1266T600 1232T539 1219Q507 1219 478 1231T427 1266T392 1316T379 1376Q379 1409 392 1438T427 1489T478 1523T539 1536Q571 1536 600 1524T651 1489T686 1438T699 1376Z"/><glyph unicode="Ỳ" horiz-adv-x="1462" d="M1418 1434L875 567V0H588V561L45 1434H375L733 834L1092 1434H1418ZM656 1506L359 1833H717L895 1506H656Z"/><glyph unicode="ỳ" horiz-adv-x="1208" d="M604 -379H326L469 0L51 1075H362L608 351L854 1075H1157L604 -379ZM570 1456L273 1783H631L809 1456H570Z"/><glyph unicode="–" horiz-adv-x="942" d="M113 612V874H829V612H113Z"/><glyph unicode="—" horiz-adv-x="1270" d="M113 612V874H1157V612H113Z"/><glyph unicode="‘" horiz-adv-x="575" d="M422 858H88L256 1434H451L422 858Z"/><glyph unicode="’" horiz-adv-x="575" d="M319 858H125L154 1434H487L319 858Z"/><glyph unicode="‚" horiz-adv-x="575" d="M319 -229H125L154 346H487L319 -229Z"/><glyph unicode="“" horiz-adv-x="1110" d="M956 858H623L791 1434H985L956 858ZM422 858H88L256 1434H451L422 858Z"/><glyph unicode="”" horiz-adv-x="1110" d="M854 858H659L688 1434H1022L854 858ZM319 858H125L154 1434H487L319 858Z"/><glyph unicode="„" horiz-adv-x="1110" d="M854 -229H659L688 346H1022L854 -229ZM319 -229H125L154 346H487L319 -229Z"/><glyph unicode="†" horiz-adv-x="1217" d="M748 750V-205H469V750H113V1006H469V1434H748V1006H1104V750H748Z"/><glyph unicode="‡" horiz-adv-x="1217" d="M743 223V-205H473V223H113V475H473V754H113V1006H473V1434H743V1006H1104V754H743V475H1104V223H743Z"/><glyph unicode="•" horiz-adv-x="1004" d="M870 750Q870 672 842 605T764 488T647 410T502 381Q424 381 357 409T240 488T162 605T133 750Q133 827 161 895T240 1013T357 1093T502 1122Q580 1122 647 1093T763 1014T841 895T870 750Z"/><glyph unicode="…" horiz-adv-x="1671" d="M1585 170Q1585 131 1570 96T1528 35T1467 -7T1393 -23Q1354 -23 1319 -8T1257 34T1216 96T1200 170Q1200 209 1215 244T1257 305T1318 346T1393 362Q1432 362 1467 347T1528 305T1569 244T1585 170ZM1028 170Q1028 131 1013 96T971 35T910 -7T836 -23Q797 -23 762 -8T700 34T659 96T643 170Q643 209 658 244T700 305T761 346T836 362Q875 362 910 347T971 305T1012 244T1028 170ZM471 170Q471 131 456 96T414 35T353 -7T279 -23Q240 -23 205 -8T143 34T102 96T86 170Q86 209 101 244T143 305T204 346T279 362Q318 362 353 347T414 305T455 244T471 170Z"/><glyph unicode="‰" horiz-adv-x="2898" d="M707 0H459L1337 1434H1585L707 0ZM1968 424Q1968 322 1940 239T1860 98T1739 9T1587 -23Q1504 -23 1436 8T1318 96T1240 236T1212 420Q1212 523 1239 606T1317 747T1437 837T1591 868Q1676 868 1745 837T1864 748T1941 608T1968 424ZM1739 420Q1739 488 1730 534T1702 612T1656 661T1589 678Q1514 678 1478 613T1442 424Q1442 364 1451 315T1478 232T1525 183T1591 166Q1626 166 1654 182T1702 235T1730 318T1739 420ZM2837 424Q2837 322 2809 239T2729 98T2608 9T2456 -23Q2373 -23 2305 8T2187 96T2109 236T2081 420Q2081 523 2108 606T2186 747T2306 837T2460 868Q2545 868 2614 837T2733 748T2810 608T2837 424ZM2608 420Q2608 488 2599 534T2571 612T2525 661T2458 678Q2383 678 2347 613T2311 424Q2311 364 2320 315T2347 232T2394 183T2460 166Q2495 166 2523 182T2571 235T2599 318T2608 420ZM834 1012Q834 910 806 827T726 686T605 597T453 565Q370 565 302 596T183 684T106 824T78 1008Q78 1111 105 1194T183 1335T303 1425T457 1456Q542 1456 611 1425T730 1336T807 1196T834 1012ZM604 1008Q604 1076 595 1122T567 1200T521 1249T455 1266Q380 1266 344 1201T307 1012Q307 952 316 903T344 820T391 771T457 754Q492 754 520 770T567 823T595 906T604 1008Z"/><glyph unicode="‹" horiz-adv-x="770" d="M395 0L61 537L395 1075H688L365 539L688 0H395Z"/><glyph unicode="›" horiz-adv-x="770" d="M375 0H82L406 537L82 1075H375L709 539L375 0Z"/><glyph unicode="⁄" horiz-adv-x="1010" d="M176 0H-127L834 1434H1137L176 0Z"/><glyph unicode="€" horiz-adv-x="1270" d="M717 -23Q610 -23 525 10T375 108T270 267T209 483H70V653H190Q190 687 190 717T190 780H70V950H207Q252 1201 384 1328T723 1456Q817 1456 887 1435T1010 1372T1103 1270T1174 1133L936 1028Q916 1084 895 1121T849 1181T791 1212T717 1221Q675 1221 638 1207T572 1160T521 1076T487 950H840V780H471Q471 766 471 751T471 719Q471 703 471 686T471 653H840V483H487Q500 402 524 350T580 268T648 225T721 213Q761 213 793 224T852 258T902 317T948 403L1176 285Q1142 220 1101 164T1004 66T879 1T717 -23Z"/><glyph unicode="ℓ" horiz-adv-x="1108" d="M860 250L942 100Q916 78 882 55T805 12T715 -20T614 -33Q544 -33 488 -12T390 52T326 169T303 324V442L186 334L109 465L303 645V1044Q303 1259 394 1375T639 1491Q708 1491 756 1468T834 1407T877 1324T891 1233Q891 1158 873 1091T821 960T741 835T637 713L563 633V365Q563 270 594 218T694 166Q720 166 744 174T790 194T829 222T860 250ZM727 1196Q727 1238 710 1264T657 1290Q609 1290 586 1241T563 1104V844L602 890Q629 922 652 961T691 1042T717 1123T727 1196Z"/><glyph unicode="№" horiz-adv-x="2460" d="M2275 1055Q2275 974 2247 906T2168 789T2048 712T1896 684Q1815 684 1747 711T1628 788T1549 906T1520 1055Q1520 1136 1548 1205T1627 1326T1746 1405T1896 1434Q1978 1434 2047 1406T2167 1326T2246 1206T2275 1055ZM2046 1059Q2046 1099 2035 1132T2003 1190T1955 1229T1896 1243Q1866 1243 1839 1229T1792 1191T1761 1133T1749 1059Q1749 1020 1760 987T1792 928T1839 889T1896 874Q1927 874 1954 888T2002 928T2034 986T2046 1059ZM1520 340V530H2275V340H1520ZM1346 0H1090L467 925V0H184V1434H459L1063 532V1434H1346V0Z"/><glyph unicode="™" horiz-adv-x="1700" d="M434 1266V627H240V1266H39V1434H635V1266H434ZM1434 627V1106L1190 602L952 1102V627H770V1434H963L1194 969L1421 1434H1616V627H1434Z"/><glyph unicode="Ω" horiz-adv-x="1505" d="M406 782Q406 696 421 624T465 489T539 371T641 262V0H121V262H330Q284 307 242 363T171 484T127 619T111 774Q111 929 160 1055T296 1270T501 1407T756 1456Q896 1456 1013 1406T1215 1266T1347 1051T1395 774Q1395 691 1380 620T1334 486T1261 365T1171 262H1384V0H864V262Q922 313 965 369T1041 494T1087 631T1100 778Q1100 859 1077 931T1008 1056T898 1140T750 1171Q675 1171 612 1145T504 1068T432 946T406 782Z"/><glyph unicode="℮" horiz-adv-x="1427" d="M356 651V201Q429 129 517 92T713 55Q804 55 876 77T1006 139T1110 233T1198 352L1274 305Q1226 232 1172 172T1052 68T902 0T713 -25Q568 -25 451 29T251 175T123 391T78 653Q78 794 122 917T248 1133T450 1278T719 1331Q869 1331 987 1277T1187 1131T1313 915T1360 651H356ZM1075 1106Q1042 1137 1001 1164T914 1210T818 1240T717 1251Q612 1251 520 1215T356 1106V733H1075V1106Z"/><glyph unicode="↓" horiz-adv-x="901" d="M766 459Q774 448 775 428T762 385L449 -31L141 385Q124 408 125 428T135 459Q151 482 169 488T217 485L317 457V1434H584V457L680 485Q711 495 730 488T766 459Z"/><glyph unicode="↔" horiz-adv-x="1638" d="M1182 397Q1159 383 1139 384T1108 393Q1086 409 1079 428T1081 479L1110 575H528L557 475Q566 446 560 428T530 393Q519 385 500 384T457 399L41 707L457 1020Q480 1034 499 1033T530 1024Q552 1009 559 989T557 938L528 842H1110L1081 942Q1072 971 1078 990T1108 1024Q1113 1028 1121 1030T1138 1033T1159 1030T1182 1018L1597 711L1182 397Z"/><glyph unicode="∂" horiz-adv-x="1137" d="M315 1262V1456Q414 1453 497 1432T655 1371T798 1270T913 1131T993 964T1040 776T1055 578Q1055 424 1019 311T917 124T762 13T567 -23Q462 -23 373 13T220 114T119 272T82 475Q82 586 117 678T213 836T355 938T526 975Q604 975 664 955T780 897Q765 966 732 1022T639 1131T489 1220T315 1262ZM778 475Q778 530 765 576T726 655T660 708T567 727Q514 727 475 709T410 657T371 577T358 475Q358 420 371 375T410 296T475 245T567 227Q620 227 659 247T725 301T765 380T778 475Z"/><glyph unicode="∆" horiz-adv-x="1573" d="M72 0L649 1434H928L1501 0H72ZM779 1080L485 281H1079L779 1080Z"/><glyph unicode="∏" horiz-adv-x="1499" d="M1028 -300V1139H471V-300H184V1434H1315V-300H1028Z"/><glyph unicode="∑" horiz-adv-x="1380" d="M548 1171L944 626L509 -15H1260V-300H139V-44L582 610L164 1180V1434H1235V1171H548Z"/><glyph unicode="−" horiz-adv-x="1270" d="M1145 840V569H125V840H1145Z"/><glyph unicode="∕" horiz-adv-x="1010" d="M176 0H-127L834 1434H1137L176 0Z"/><glyph unicode="∙" horiz-adv-x="557" d="M471 752Q471 713 456 678T414 616T353 575T278 559Q239 559 204 574T143 616T102 677T86 752Q86 791 101 826T143 887T204 928T278 944Q317 944 352 929T414 887T455 826T471 752Z"/><glyph unicode="√" horiz-adv-x="1386" d="M737 0H432L78 696H383L584 277L1016 1434H1313L737 0Z"/><glyph unicode="∞" horiz-adv-x="1798" d="M596 1182Q688 1182 771 1152T917 1061Q974 1121 1050 1151T1214 1182Q1300 1182 1374 1152T1503 1065T1589 922T1620 727Q1620 618 1588 532T1500 387T1368 296T1202 264Q1115 264 1038 297T900 388Q841 321 760 293T584 264Q498 264 424 295T295 384T209 528T178 723Q178 833 210 918T298 1062T430 1151T596 1182ZM760 725Q760 786 749 829T716 901T663 942T594 956Q561 956 530 943T476 900T440 825T428 725Q428 667 441 623T477 549T533 504T604 489Q632 489 657 495T706 516T748 551T777 596Q760 659 760 725ZM1047 727Q1047 673 1056 626T1086 549T1135 504T1204 489Q1242 489 1273 504T1324 547T1357 619T1370 725Q1370 783 1357 826T1321 898T1265 941T1194 956Q1169 956 1148 951T1104 934T1064 905T1031 859Q1039 828 1043 795T1047 727Z"/><glyph unicode="∫" horiz-adv-x="854" d="M524 -113Q524 -191 503 -246T440 -333T342 -380T217 -395Q111 -395 39 -364V-143Q61 -154 83 -160T137 -166Q200 -166 221 -145T242 -80V1174Q242 1252 263 1307T326 1394T424 1441T549 1456Q655 1456 727 1425V1204Q705 1215 683 1221T629 1227Q566 1227 545 1206T524 1141V-113Z"/><glyph unicode="≈" horiz-adv-x="1270" d="M832 768Q764 768 717 787T631 828T561 870T492 889Q453 889 429 860T402 774H171Q171 903 196 967T256 1068T337 1125T437 1145Q501 1145 549 1127T636 1086T708 1045T777 1026Q816 1026 840 1055T867 1139H1098Q1098 1012 1073 948T1013 846T932 788T832 768ZM832 266Q764 266 717 285T631 326T561 368T492 387Q453 387 429 358T402 272H171Q171 401 196 465T256 566T337 623T437 643Q501 643 549 625T636 584T708 543T777 524Q816 524 840 553T867 637H1098Q1098 510 1073 446T1013 344T932 286T832 266Z"/><glyph unicode="≠" horiz-adv-x="1270" d="M910 1079H1099V815H812L730 594H1099V330H632L552 113H273L353 330H171V594H451L533 815H171V1079H632L712 1296H990L910 1079Z"/><glyph unicode="≤" horiz-adv-x="1270" d="M298 844V1036L976 1454V1102L634 942L976 801V446L298 844ZM294 61V311H976V61H294Z"/><glyph unicode="≥" horiz-adv-x="1270" d="M294 446V801L636 942L294 1102V1454L972 1036V844L294 446ZM294 61V311H976V61H294Z"/><glyph unicode="◊" horiz-adv-x="1126" d="M563 995L338 643L563 291L788 643L563 995ZM1067 641L664 0H465L59 641L463 1282H662L1067 641Z"/><glyph unicode="" horiz-adv-x="1638" d="M1253 446Q1222 427 1190 446Q1156 473 1171 516L1212 608H924V354L1022 393Q1066 409 1090 371Q1105 344 1083 313L819 -31L549 313Q530 343 545 371Q568 409 616 393L711 354V608H426L467 514Q484 471 452 448Q418 426 387 446L41 717L387 981Q421 1003 450 982Q481 960 467 920L426 821H711V1079L616 1040Q572 1023 545 1063Q529 1092 549 1120L819 1464L1083 1120Q1103 1090 1090 1063Q1067 1024 1022 1040L924 1079V821H1212L1171 920Q1157 967 1196 987Q1221 1000 1253 981L1597 717L1253 446Z"/><glyph unicode="ﬁ" horiz-adv-x="1321" d="M1194 1325Q1194 1292 1181 1263T1146 1211T1095 1176T1032 1163Q999 1163 970 1176T918 1211T883 1262T870 1325Q870 1358 883 1387T918 1439T969 1474T1032 1487Q1065 1487 1094 1474T1146 1439T1181 1388T1194 1325ZM692 1229Q671 1240 648 1245T594 1251Q531 1251 510 1231T489 1165V1075H672V809H489V0H207V809H78V1075H207V1204Q207 1279 227 1333T287 1421T383 1471T514 1487Q570 1487 614 1479T692 1456V1229ZM891 0V1075H1174V0H891Z"/><glyph unicode="ﬂ" horiz-adv-x="1321" d="M891 0V1352L1174 1493V0H891ZM692 1229Q671 1240 648 1245T594 1251Q531 1251 510 1231T489 1165V1075H672V809H489V0H207V809H78V1075H207V1204Q207 1279 227 1333T287 1421T383 1471T514 1487Q571 1487 614 1479T692 1456V1229Z"/></font>
</defs>
</svg>
