<?xml version="1.0" encoding="utf-8" ?><svg version="1.1" xmlns = 'http://www.w3.org/2000/svg'><defs><font id='web' horiz-adv-x="1000">
<font-face font-family="web" descent="-410" cap-height="1434" units-per-em="2048" bbox="-515,-491,2837,2201" x-height="1075" ascent="1638" />
<missing-glyph horiz-adv-x="1024" d="" /><glyph horiz-adv-x="594" d="" unicode=" " />
<glyph horiz-adv-x="696" d="M 444 451 L 252 451 L 205 844 L 205 1434 L 492 1434 L 492 844 L 444 451 Z M 522 152 C 522 128 517 105 508 84 C 498 63 486 45 470 29 C 454 13 435 0 414 -9 C 393 -18 371 -23 348 -23 C 324 -23 302 -18 281 -9 C 260 0 242 13 226 29 C 210 45 197 63 188 84 C 178 105 174 128 174 152 C 174 175 178 197 188 218 C 197 239 210 258 226 274 C 242 290 260 302 281 312 C 302 321 324 326 348 326 C 371 326 393 321 414 312 C 435 302 454 290 470 274 C 486 258 498 239 508 218 C 517 197 522 175 522 152 Z" unicode="!" />
<glyph horiz-adv-x="1081" d="M 893 764 L 698 764 L 627 1434 L 965 1434 L 893 764 Z M 383 764 L 188 764 L 117 1434 L 455 1434 L 383 764 Z" unicode="&#x22;" />
<glyph horiz-adv-x="1270" d="M 1001 311 L 1001 0 L 758 0 L 758 311 L 512 311 L 512 0 L 268 0 L 268 311 L 86 311 L 86 524 L 268 524 L 268 909 L 86 909 L 86 1122 L 268 1122 L 268 1434 L 512 1434 L 512 1122 L 758 1122 L 758 1434 L 1001 1434 L 1001 1122 L 1184 1122 L 1184 909 L 1001 909 L 1001 524 L 1184 524 L 1184 311 L 1001 311 Z M 766 915 L 506 915 L 506 518 L 766 518 L 766 915 Z" unicode="#" />
<glyph horiz-adv-x="1270" d="M 1159 416 C 1159 358 1150 306 1132 260 C 1114 214 1089 173 1056 139 C 1022 105 982 77 935 55 C 887 33 834 17 776 8 L 776 -199 L 489 -199 L 489 4 C 449 10 411 19 376 29 C 341 39 305 52 269 69 C 233 85 199 103 169 122 C 139 141 110 162 84 184 L 246 399 C 273 377 302 356 334 337 C 366 318 398 302 432 288 C 466 274 500 264 534 256 C 568 248 601 244 633 244 C 709 244 767 256 806 281 C 844 306 864 345 864 397 C 864 419 859 438 851 456 C 843 473 828 489 807 505 C 786 521 758 536 722 551 C 686 565 641 581 586 598 C 504 622 433 647 375 673 C 317 698 269 727 232 760 C 195 793 168 832 151 876 C 133 920 125 974 125 1036 C 125 1088 133 1135 150 1179 C 167 1223 191 1261 223 1294 C 255 1327 293 1355 339 1378 C 384 1400 435 1417 492 1427 L 492 1632 L 776 1632 L 776 1430 C 813 1424 848 1417 881 1408 C 913 1398 945 1386 976 1372 C 1007 1358 1034 1343 1058 1329 C 1082 1314 1108 1296 1137 1274 L 977 1057 C 947 1079 917 1098 889 1115 C 861 1131 832 1145 803 1156 C 774 1167 744 1175 714 1181 C 683 1187 650 1190 616 1190 C 580 1190 549 1186 524 1179 C 498 1172 478 1162 462 1150 C 446 1138 435 1123 428 1107 C 421 1091 418 1073 418 1055 C 418 1034 421 1016 429 1000 C 437 984 451 968 471 954 C 491 939 520 924 556 910 C 592 896 638 880 694 864 C 778 838 850 812 909 785 C 968 758 1016 727 1053 693 C 1090 658 1117 618 1134 574 C 1150 529 1159 476 1159 416 Z" unicode="$" />
<glyph horiz-adv-x="1270" d="M 537 1063 C 537 940 514 843 470 772 C 426 701 367 666 293 666 C 220 666 161 700 117 768 C 73 836 51 933 51 1059 C 51 1184 73 1281 119 1351 C 165 1421 224 1456 297 1456 C 370 1456 428 1421 472 1353 C 515 1285 537 1188 537 1063 Z M 365 1059 C 365 1142 358 1203 346 1242 C 334 1280 316 1300 293 1300 C 267 1300 249 1280 239 1242 C 228 1204 223 1144 223 1063 C 223 979 229 917 242 879 C 254 840 273 821 297 821 C 321 821 339 840 349 879 C 359 917 365 977 365 1059 Z M 360 0 L 195 0 L 909 1434 L 1075 1434 L 360 0 Z M 1219 375 C 1219 252 1196 155 1152 84 C 1108 13 1049 -22 975 -22 C 902 -22 843 12 799 80 C 755 148 733 245 733 371 C 733 496 755 593 801 663 C 847 733 906 768 979 768 C 1052 768 1110 733 1154 665 C 1197 597 1219 500 1219 375 Z M 1047 371 C 1047 454 1040 515 1028 554 C 1016 592 998 612 975 612 C 949 612 931 592 921 554 C 910 516 905 456 905 375 C 905 291 911 229 924 191 C 936 152 955 133 979 133 C 1003 133 1021 152 1031 191 C 1041 229 1047 289 1047 371 Z" unicode="%" />
<glyph horiz-adv-x="1434" d="M 1409 0 L 1081 0 L 973 117 C 916 71 853 36 785 12 C 716 -11 639 -23 555 -23 C 481 -23 415 -15 357 0 C 299 15 249 38 209 70 C 169 102 138 141 116 189 C 94 237 84 293 84 358 C 84 408 90 453 104 494 C 117 535 136 572 162 606 C 187 639 218 669 254 696 C 290 722 331 747 377 770 L 340 811 C 302 853 271 897 249 944 C 226 991 215 1044 215 1102 C 215 1160 225 1211 247 1255 C 269 1299 299 1336 337 1366 C 375 1396 420 1418 472 1433 C 524 1448 580 1456 641 1456 C 685 1456 725 1452 763 1446 C 800 1439 836 1429 870 1417 C 904 1405 937 1389 969 1371 C 1001 1352 1035 1331 1069 1307 L 932 1100 C 884 1136 835 1162 785 1178 C 735 1194 684 1202 633 1202 C 591 1202 558 1193 534 1177 C 510 1161 498 1138 498 1108 C 498 1077 504 1050 518 1027 C 532 1004 550 979 573 952 L 969 502 C 1001 567 1034 646 1069 739 L 1300 666 C 1277 595 1252 530 1226 471 C 1200 411 1171 357 1139 307 L 1409 0 Z M 809 295 L 528 602 C 472 572 431 539 407 502 C 383 465 371 425 371 383 C 371 337 389 300 425 272 C 461 244 515 231 588 231 C 676 231 750 252 809 295 Z" unicode="&#x26;" />
<glyph horiz-adv-x="582" d="M 393 764 L 188 764 L 117 1434 L 465 1434 L 393 764 Z" unicode="'" />
<glyph horiz-adv-x="1270" d="M 938 -225 C 854 -181 785 -139 731 -99 C 676 -59 632 -24 599 6 C 566 36 532 73 498 115 C 463 157 432 203 406 253 C 380 302 359 356 343 414 C 327 472 319 542 319 625 C 319 690 326 753 342 815 C 357 876 379 933 407 987 C 435 1040 465 1087 499 1129 C 533 1170 566 1206 599 1237 C 632 1268 676 1303 731 1342 C 785 1381 854 1423 938 1468 L 1059 1337 C 991 1287 931 1238 879 1189 C 827 1139 784 1086 750 1030 C 715 974 689 913 671 847 C 653 781 645 707 645 625 C 645 539 653 463 671 396 C 689 329 715 267 750 211 C 784 155 827 102 879 53 C 931 3 991 -45 1059 -94 L 938 -225 Z" unicode="(" />
<glyph horiz-adv-x="1270" d="M 950 631 C 950 557 942 488 926 426 C 910 364 889 306 861 254 C 833 201 802 154 769 113 C 736 72 703 36 670 6 C 637 -24 593 -59 539 -99 C 484 -139 415 -181 332 -225 L 211 -94 C 279 -45 338 3 390 53 C 442 102 485 155 520 211 C 554 267 580 329 598 396 C 616 463 625 539 625 625 C 625 707 616 781 598 847 C 580 913 554 974 520 1030 C 486 1086 443 1139 391 1189 C 339 1238 279 1287 211 1337 L 332 1468 C 417 1422 486 1380 538 1342 C 590 1304 634 1270 668 1238 C 702 1206 736 1170 770 1129 C 804 1087 835 1040 863 988 C 891 936 912 879 927 819 C 942 759 950 696 950 631 Z" unicode=")" />
<glyph horiz-adv-x="1024" d="M 899 926 L 803 766 L 588 909 L 606 649 L 418 649 L 436 913 L 217 768 L 125 928 L 377 1042 L 125 1157 L 217 1319 L 436 1171 L 418 1434 L 606 1434 L 588 1174 L 803 1321 L 899 1159 L 641 1044 L 899 926 Z" unicode="*" />
<glyph horiz-adv-x="1270" d="M 778 569 L 778 180 L 492 180 L 492 569 L 125 569 L 125 840 L 492 840 L 492 1229 L 778 1229 L 778 840 L 1145 840 L 1145 569 L 778 569 Z" unicode="+" />
<glyph horiz-adv-x="635" d="M 342 -250 L 143 -250 L 172 354 L 514 354 L 342 -250 Z" unicode="," />
<glyph horiz-adv-x="834" d="M 123 602 L 123 885 L 711 885 L 711 602 L 123 602 Z" unicode="-" />
<glyph horiz-adv-x="635" d="M 514 174 C 514 146 509 119 499 95 C 489 71 475 50 457 33 C 439 15 419 2 395 -8 C 371 -18 345 -23 317 -23 C 289 -23 263 -18 239 -8 C 215 2 194 15 177 33 C 159 50 146 71 136 95 C 126 119 121 146 121 174 C 121 202 126 228 136 252 C 146 276 159 296 177 314 C 194 331 215 344 239 354 C 263 364 289 369 317 369 C 345 369 371 364 395 354 C 419 344 439 331 457 314 C 475 296 489 276 499 252 C 509 228 514 202 514 174 Z" unicode="." />
<glyph horiz-adv-x="963" d="M 287 -184 L 8 -184 L 676 1618 L 954 1618 L 287 -184 Z" unicode="/" />
<glyph horiz-adv-x="1270" d="M 1182 719 C 1182 598 1168 491 1142 399 C 1115 307 1077 229 1029 167 C 981 104 923 57 856 25 C 788 -7 714 -23 633 -23 C 551 -23 477 -7 411 24 C 344 56 287 103 239 165 C 191 227 153 304 127 396 C 101 488 88 594 88 715 C 88 835 101 942 128 1034 C 154 1126 192 1204 240 1266 C 288 1328 346 1376 414 1408 C 481 1440 555 1456 637 1456 C 717 1456 791 1440 858 1408 C 925 1376 983 1330 1031 1268 C 1079 1206 1116 1129 1142 1037 C 1168 945 1182 839 1182 719 Z M 891 719 C 891 811 884 888 871 951 C 857 1013 839 1063 816 1100 C 792 1137 765 1164 735 1182 C 704 1199 670 1208 633 1208 C 595 1208 561 1199 531 1182 C 501 1164 474 1137 451 1100 C 428 1063 410 1013 398 951 C 385 888 379 811 379 719 C 379 629 385 553 397 490 C 409 427 427 377 450 339 C 472 301 499 273 530 254 C 560 234 596 225 637 225 C 675 225 709 234 740 254 C 770 273 797 301 820 339 C 842 377 860 427 872 490 C 884 553 891 629 891 719 Z" unicode="0" />
<glyph horiz-adv-x="1270" d="M 203 0 L 203 233 L 532 233 L 532 1049 L 231 1049 L 231 1243 C 285 1245 332 1249 372 1257 C 411 1265 444 1276 472 1291 C 499 1306 521 1325 537 1349 C 553 1372 566 1400 575 1434 L 821 1434 L 821 233 L 1120 233 L 1120 0 L 203 0 Z" unicode="1" />
<glyph horiz-adv-x="1270" d="M 100 0 C 104 106 118 199 143 278 C 167 357 201 427 245 489 C 288 550 340 605 401 653 C 461 701 530 748 606 793 C 653 821 691 846 721 868 C 751 889 774 909 791 929 C 807 948 819 967 825 986 C 831 1005 834 1027 834 1051 C 834 1100 816 1138 782 1166 C 748 1194 697 1208 631 1208 C 596 1208 563 1205 533 1199 C 502 1193 472 1183 444 1171 C 416 1159 388 1143 360 1125 C 332 1107 304 1085 276 1061 L 119 1255 C 154 1285 190 1312 227 1337 C 264 1362 303 1383 345 1401 C 387 1418 432 1431 480 1441 C 528 1451 580 1456 637 1456 C 711 1456 777 1447 837 1431 C 896 1414 946 1389 988 1357 C 1029 1324 1061 1284 1083 1236 C 1105 1188 1116 1133 1116 1071 C 1116 1022 1110 978 1100 940 C 1089 902 1071 865 1045 831 C 1019 796 985 762 943 729 C 900 696 847 661 784 623 C 716 581 659 543 615 509 C 570 475 534 444 506 415 C 478 385 458 357 444 330 C 430 302 420 274 414 246 L 1126 246 L 1126 0 L 100 0 Z" unicode="2" />
<glyph horiz-adv-x="1270" d="M 1149 432 C 1149 356 1136 290 1111 234 C 1085 177 1049 130 1001 92 C 953 54 896 25 828 6 C 760 -13 683 -23 598 -23 C 542 -23 490 -17 441 -7 C 391 3 345 18 301 38 C 257 57 217 80 180 107 C 142 134 108 164 76 197 L 250 379 C 299 331 353 293 411 265 C 469 237 533 223 604 223 C 694 223 760 240 802 276 C 844 312 866 362 866 428 C 866 460 861 489 851 515 C 841 541 825 562 804 578 C 782 594 755 607 723 616 C 691 624 652 629 608 629 L 465 629 L 465 864 L 602 864 C 676 864 729 879 762 909 C 794 939 811 982 811 1040 C 811 1066 806 1089 798 1111 C 790 1132 777 1150 759 1166 C 741 1181 717 1193 689 1201 C 661 1209 626 1214 586 1214 C 526 1214 471 1202 422 1179 C 373 1156 327 1125 283 1085 L 123 1268 C 149 1292 179 1316 212 1339 C 244 1362 280 1382 319 1399 C 358 1416 400 1430 446 1440 C 492 1450 541 1456 594 1456 C 668 1456 735 1448 797 1433 C 858 1418 911 1395 955 1364 C 999 1332 1034 1292 1059 1244 C 1083 1195 1096 1137 1096 1071 C 1096 1029 1091 991 1081 959 C 1071 927 1057 898 1039 873 C 1021 848 1001 827 977 809 C 953 791 928 775 901 762 C 933 753 964 740 994 723 C 1024 706 1050 684 1073 658 C 1096 631 1114 599 1128 562 C 1142 524 1149 481 1149 432 Z" unicode="3" />
<glyph horiz-adv-x="1270" d="M 1030 293 L 1030 0 L 778 0 L 778 299 L 74 299 L 74 508 L 750 1434 L 1030 1434 L 1030 530 L 1194 530 L 1194 293 L 1030 293 Z M 778 1086 L 381 530 L 778 530 L 778 1086 Z" unicode="4" />
<glyph horiz-adv-x="1270" d="M 1161 489 C 1161 405 1148 331 1122 267 C 1096 203 1060 150 1012 107 C 964 64 905 32 837 10 C 768 -12 690 -23 604 -23 C 502 -23 410 -6 328 26 C 246 58 171 103 102 160 L 250 360 C 305 316 363 282 425 258 C 486 233 549 221 614 221 C 662 221 704 227 738 239 C 772 251 799 267 819 289 C 839 310 854 336 866 367 C 877 398 883 435 883 479 C 883 556 863 615 824 656 C 784 696 726 717 649 717 C 621 717 595 714 572 710 C 549 706 528 700 508 692 C 488 684 470 675 453 664 C 436 653 419 641 403 627 L 154 707 L 199 1434 L 1085 1434 L 1085 1190 L 434 1190 L 414 881 C 452 903 493 921 539 933 C 585 945 638 952 698 952 C 772 952 837 941 895 921 C 952 901 1000 871 1040 832 C 1079 792 1109 744 1130 686 C 1150 628 1161 563 1161 489 Z" unicode="5" />
<glyph horiz-adv-x="1270" d="M 1188 467 C 1188 388 1174 318 1148 257 C 1121 196 1083 145 1035 104 C 986 62 927 31 859 9 C 790 -12 713 -23 629 -23 C 551 -23 480 -11 415 11 C 349 33 293 68 246 115 C 198 162 161 221 135 293 C 109 364 96 449 96 547 C 96 613 102 680 115 749 C 128 818 149 885 178 951 C 206 1016 243 1078 289 1137 C 335 1195 390 1247 456 1293 C 521 1338 597 1375 684 1404 C 770 1433 869 1451 979 1458 L 1004 1221 C 849 1208 717 1167 609 1098 C 501 1028 423 928 377 797 C 397 813 420 829 444 843 C 468 857 494 869 522 879 C 550 889 582 896 616 902 C 650 908 689 911 731 911 C 797 911 858 902 914 884 C 970 866 1018 838 1058 802 C 1098 766 1130 720 1153 664 C 1176 608 1188 543 1188 467 Z M 907 449 C 907 487 901 520 890 550 C 878 580 861 604 838 624 C 815 644 788 659 757 669 C 725 679 689 684 647 684 C 603 684 564 679 530 669 C 496 659 467 643 443 622 C 419 601 402 576 390 548 C 378 520 373 487 373 449 C 373 413 378 381 390 352 C 402 323 419 298 442 278 C 465 258 493 242 526 231 C 559 220 597 215 641 215 C 685 215 724 220 758 231 C 791 242 819 258 841 279 C 863 300 880 325 891 353 C 901 381 907 413 907 449 Z" unicode="6" />
<glyph horiz-adv-x="1270" d="M 1157 1206 C 1071 1116 998 1027 938 938 C 878 849 828 756 790 660 C 752 563 724 461 706 353 C 688 245 678 127 678 0 L 391 0 C 393 122 403 237 422 345 C 441 453 469 556 505 654 C 541 752 585 845 638 933 C 690 1021 751 1105 821 1186 L 96 1186 L 96 1434 L 1157 1434 L 1157 1206 Z" unicode="7" />
<glyph horiz-adv-x="1270" d="M 1176 426 C 1176 354 1163 290 1138 234 C 1112 178 1076 132 1029 94 C 981 56 924 27 857 7 C 790 -13 715 -23 633 -23 C 549 -23 474 -13 408 6 C 342 26 285 55 239 93 C 192 131 156 177 131 233 C 106 288 94 352 94 424 C 94 470 100 512 112 549 C 124 585 140 618 160 646 C 180 674 204 699 231 719 C 258 739 287 756 317 770 C 293 782 270 798 249 816 C 228 834 210 854 195 878 C 179 902 167 928 158 958 C 149 987 145 1019 145 1055 C 145 1115 156 1169 179 1219 C 202 1268 235 1310 278 1345 C 320 1380 372 1407 433 1427 C 493 1446 561 1456 637 1456 C 713 1456 781 1446 841 1427 C 901 1408 952 1381 994 1346 C 1036 1311 1068 1269 1090 1220 C 1112 1171 1124 1117 1124 1057 C 1124 1021 1119 989 1111 961 C 1102 932 1090 906 1075 883 C 1059 860 1041 840 1020 822 C 998 804 975 788 950 774 C 980 760 1008 743 1036 723 C 1063 703 1087 678 1108 650 C 1128 621 1145 588 1157 551 C 1169 514 1176 472 1176 426 Z M 852 1049 C 852 1074 848 1098 840 1121 C 832 1143 819 1163 801 1180 C 783 1197 761 1210 733 1220 C 705 1230 672 1235 633 1235 C 593 1235 560 1230 532 1220 C 504 1210 482 1197 465 1181 C 447 1165 435 1145 427 1123 C 419 1101 416 1077 416 1053 C 416 1027 420 1003 429 981 C 438 959 452 939 471 923 C 489 906 512 893 540 884 C 567 874 599 870 637 870 C 673 870 704 874 731 884 C 757 893 780 906 798 922 C 816 938 829 957 838 979 C 847 1001 852 1024 852 1049 Z M 901 428 C 901 459 895 488 885 516 C 874 544 857 568 835 589 C 812 609 784 625 752 636 C 720 647 680 653 633 653 C 593 653 556 648 522 639 C 488 629 459 614 436 594 C 413 574 396 550 384 524 C 372 497 367 466 367 430 C 367 394 372 363 384 336 C 395 308 412 284 436 264 C 460 244 488 229 522 220 C 555 211 593 207 637 207 C 685 207 725 212 757 222 C 789 232 815 246 837 266 C 858 286 874 309 885 336 C 895 362 901 393 901 428 Z" unicode="8" />
<glyph horiz-adv-x="1270" d="M 895 985 C 895 1020 889 1052 877 1081 C 865 1109 848 1134 825 1155 C 802 1175 774 1191 741 1202 C 707 1213 669 1219 627 1219 C 584 1219 546 1213 512 1202 C 478 1191 450 1175 428 1155 C 406 1135 389 1110 378 1082 C 367 1054 362 1021 362 985 C 362 909 384 850 428 810 C 472 770 538 750 627 750 C 666 750 703 755 738 765 C 773 775 802 791 826 812 C 849 833 866 858 878 886 C 889 914 895 947 895 985 Z M 1174 887 C 1174 820 1167 752 1154 683 C 1141 614 1120 547 1091 482 C 1062 416 1025 354 979 296 C 933 237 878 185 812 140 C 746 94 670 57 584 28 C 497 0 399 -18 289 -25 L 266 213 C 434 229 569 272 670 341 C 771 410 845 509 891 637 C 870 619 848 604 825 590 C 801 576 775 564 747 554 C 719 544 687 536 653 530 C 619 524 581 522 539 522 C 473 522 411 531 355 549 C 299 567 250 594 210 631 C 169 667 137 713 114 769 C 91 825 80 891 80 967 C 80 1045 93 1115 120 1176 C 146 1236 184 1287 233 1329 C 282 1371 341 1402 410 1424 C 479 1445 556 1456 641 1456 C 718 1456 789 1444 854 1422 C 919 1399 975 1364 1023 1318 C 1070 1271 1107 1212 1134 1141 C 1160 1069 1174 985 1174 887 Z" unicode="9" />
<glyph horiz-adv-x="635" d="M 510 905 C 510 877 505 852 495 829 C 485 805 471 785 454 768 C 436 751 416 738 393 728 C 369 718 344 713 317 713 C 289 713 264 718 241 728 C 217 738 197 751 180 768 C 163 785 150 805 140 829 C 130 852 125 877 125 905 C 125 933 130 958 140 982 C 150 1005 163 1025 180 1043 C 197 1060 217 1073 241 1083 C 264 1093 289 1098 317 1098 C 344 1098 369 1093 393 1083 C 416 1073 436 1060 454 1043 C 471 1025 485 1005 495 982 C 505 958 510 933 510 905 Z M 510 170 C 510 142 505 117 495 94 C 485 70 471 50 454 33 C 436 15 416 2 393 -8 C 369 -18 344 -23 317 -23 C 289 -23 264 -18 241 -8 C 217 2 197 15 180 33 C 163 50 150 70 140 94 C 130 117 125 142 125 170 C 125 197 130 222 140 246 C 150 269 163 289 180 307 C 197 324 217 337 241 347 C 264 357 289 362 317 362 C 344 362 369 357 393 347 C 416 337 436 324 454 307 C 471 289 485 269 495 246 C 505 222 510 197 510 170 Z" unicode=":" />
<glyph horiz-adv-x="635" d="M 510 905 C 510 877 505 852 495 829 C 485 805 471 785 454 768 C 436 751 416 738 393 728 C 369 718 344 713 317 713 C 289 713 264 718 240 728 C 216 738 196 751 179 768 C 162 785 149 805 139 829 C 129 852 125 877 125 905 C 125 933 129 958 139 982 C 149 1005 162 1025 179 1043 C 196 1060 216 1073 240 1083 C 264 1093 289 1098 317 1098 C 344 1098 369 1093 393 1083 C 416 1073 436 1060 454 1043 C 471 1025 485 1005 495 982 C 505 958 510 933 510 905 Z M 317 -246 L 125 -246 L 154 348 L 487 348 L 317 -246 Z" unicode=";" />
<glyph horiz-adv-x="1270" d="M 143 596 L 143 827 L 1124 1411 L 1124 1096 L 438 715 L 1124 334 L 1124 12 L 143 596 Z" unicode="&#x3C;" />
<glyph horiz-adv-x="1270" d="M 143 821 L 143 1094 L 1126 1094 L 1126 821 L 143 821 Z M 143 315 L 143 588 L 1126 588 L 1126 315 L 143 315 Z" unicode="=" />
<glyph horiz-adv-x="1270" d="M 145 12 L 145 328 L 831 709 L 145 1090 L 145 1411 L 1126 827 L 1126 596 L 145 12 Z" unicode="&#x3E;" />
<glyph horiz-adv-x="1196" d="M 1118 1038 C 1118 990 1111 948 1099 912 C 1087 875 1071 843 1051 816 C 1031 788 1009 765 985 746 C 960 727 935 712 911 700 C 867 679 832 660 804 643 C 776 625 754 607 738 589 C 721 571 709 551 702 529 C 695 507 691 481 690 451 L 410 451 C 410 499 414 544 422 584 C 430 624 445 660 467 694 C 489 728 518 759 555 788 C 592 817 640 845 698 872 C 724 884 745 895 762 906 C 779 916 793 927 803 939 C 813 951 820 963 824 977 C 828 991 831 1007 831 1026 C 831 1077 810 1115 769 1139 C 728 1163 668 1176 588 1176 C 510 1176 442 1159 382 1125 C 322 1091 271 1051 229 1004 L 45 1219 C 76 1251 111 1282 149 1311 C 187 1339 228 1364 273 1386 C 318 1408 367 1425 419 1437 C 471 1449 528 1456 588 1456 C 666 1456 737 1447 802 1431 C 867 1414 923 1388 970 1354 C 1016 1319 1053 1275 1079 1223 C 1105 1171 1118 1109 1118 1038 Z M 725 152 C 725 128 720 105 711 84 C 701 63 689 45 673 29 C 657 13 638 0 617 -9 C 596 -18 574 -23 551 -23 C 527 -23 505 -18 484 -9 C 463 0 445 13 429 29 C 413 45 400 63 391 84 C 381 105 377 128 377 152 C 377 175 381 197 391 218 C 400 239 413 258 429 274 C 445 290 463 302 484 312 C 505 321 527 326 551 326 C 574 326 596 321 617 312 C 638 302 657 290 673 274 C 689 258 701 239 711 218 C 720 197 725 175 725 152 Z" unicode="?" />
<glyph horiz-adv-x="1712" d="M 1595 737 C 1595 661 1587 596 1572 542 C 1556 488 1535 445 1508 411 C 1480 377 1448 353 1410 338 C 1372 322 1330 315 1286 315 C 1254 315 1227 317 1203 323 C 1179 328 1157 335 1138 345 C 1119 355 1102 367 1088 381 C 1073 395 1059 410 1047 428 C 1011 387 971 358 929 340 C 887 322 838 313 784 313 C 747 313 711 318 676 330 C 640 341 609 358 581 382 C 553 405 531 434 514 470 C 497 506 489 548 489 596 C 489 639 497 677 514 710 C 530 742 553 770 582 792 C 611 814 645 830 684 841 C 723 852 765 858 811 858 C 849 858 880 854 904 847 C 927 839 949 830 971 819 L 971 870 C 971 901 961 927 941 949 C 921 970 891 981 850 981 C 804 981 765 976 731 968 C 697 960 664 946 631 928 L 555 1063 C 600 1090 645 1110 691 1123 C 736 1136 789 1143 850 1143 C 897 1143 940 1136 980 1124 C 1019 1112 1053 1094 1081 1071 C 1109 1047 1131 1018 1147 984 C 1163 950 1171 910 1171 866 L 1171 573 C 1171 528 1182 494 1204 471 C 1226 447 1257 436 1298 436 C 1329 436 1356 442 1379 455 C 1402 468 1421 488 1435 516 C 1449 544 1460 576 1467 612 C 1473 648 1477 691 1477 739 C 1477 820 1461 897 1430 970 C 1398 1042 1355 1106 1300 1161 C 1244 1215 1179 1259 1103 1291 C 1027 1323 944 1339 856 1339 C 766 1339 684 1323 608 1292 C 532 1260 466 1217 411 1162 C 356 1107 313 1042 282 966 C 251 890 236 807 236 719 C 236 629 251 546 282 470 C 313 394 356 328 411 273 C 466 217 532 174 608 143 C 684 111 766 96 856 96 C 902 96 946 100 989 109 C 1031 117 1076 133 1122 156 L 1171 47 C 1141 33 1114 22 1089 13 C 1063 4 1038 -2 1014 -8 C 989 -13 964 -17 938 -19 C 912 -21 885 -23 856 -23 C 784 -23 716 -14 652 2 C 588 18 528 42 474 73 C 419 104 370 142 326 186 C 282 230 244 280 213 335 C 182 389 158 449 142 513 C 125 577 117 645 117 717 C 117 788 125 856 142 920 C 158 984 182 1044 213 1099 C 244 1153 282 1203 326 1247 C 370 1291 419 1328 474 1359 C 528 1390 588 1414 652 1431 C 716 1447 784 1456 856 1456 C 928 1456 997 1447 1062 1430 C 1126 1412 1186 1388 1241 1356 C 1295 1324 1345 1286 1389 1242 C 1433 1198 1470 1149 1500 1096 C 1530 1042 1554 985 1570 925 C 1586 864 1595 801 1595 737 Z M 971 668 C 946 682 923 691 902 697 C 881 702 853 705 817 705 C 794 705 775 702 759 697 C 743 692 730 685 719 675 C 708 665 700 654 695 640 C 690 626 688 611 688 596 C 688 562 699 535 721 514 C 743 493 775 483 817 483 C 835 483 851 485 867 489 C 883 493 897 499 911 507 C 925 515 936 523 946 533 C 956 542 964 552 971 563 L 971 668 Z" unicode="@" />
<glyph horiz-adv-x="1536" d="M 1454 0 L 1139 0 L 1026 319 L 502 319 L 389 0 L 82 0 L 631 1434 L 909 1434 L 1454 0 Z M 928 592 L 764 1059 L 600 592 L 928 592 Z" unicode="A" />
<glyph horiz-adv-x="1454" d="M 1346 463 C 1346 315 1299 200 1207 120 C 1114 40 990 0 836 0 L 184 0 L 184 1434 L 842 1434 C 911 1434 974 1425 1030 1409 C 1086 1392 1133 1368 1173 1336 C 1212 1304 1242 1264 1264 1217 C 1285 1170 1296 1116 1296 1055 C 1296 1022 1292 992 1285 965 C 1278 937 1268 912 1254 888 C 1240 864 1224 843 1208 826 C 1191 808 1170 792 1145 776 C 1173 763 1200 747 1225 728 C 1249 708 1271 686 1289 660 C 1307 634 1321 604 1331 571 C 1341 538 1346 502 1346 463 Z M 1006 1032 C 1006 1053 1003 1072 997 1088 C 991 1104 981 1118 969 1130 C 957 1142 939 1151 916 1158 C 893 1165 864 1169 829 1169 L 465 1169 L 465 897 L 844 897 C 874 897 899 900 919 907 C 939 913 956 922 969 934 C 982 946 991 960 997 977 C 1003 993 1006 1012 1006 1032 Z M 1051 459 C 1051 491 1046 518 1038 540 C 1030 562 1018 580 1003 595 C 987 610 967 622 941 630 C 915 638 884 643 846 643 L 465 643 L 465 272 L 846 272 C 882 272 914 276 940 285 C 966 294 987 308 1004 326 C 1020 344 1032 364 1040 386 C 1047 408 1051 432 1051 459 Z" unicode="B" />
<glyph horiz-adv-x="1372" d="M 1004 1016 C 988 1046 972 1069 958 1085 C 943 1100 925 1114 904 1128 C 882 1142 859 1152 833 1160 C 807 1167 776 1171 741 1171 C 687 1171 639 1159 597 1137 C 555 1115 520 1084 491 1044 C 462 1004 440 956 425 900 C 410 844 403 783 403 717 C 403 652 410 592 426 537 C 441 481 463 433 492 393 C 521 352 557 320 599 297 C 641 273 689 262 743 262 C 801 262 852 274 895 300 C 938 325 981 373 1024 444 L 1266 301 C 1241 250 1212 205 1178 165 C 1144 125 1105 91 1061 63 C 1017 35 967 13 913 -1 C 859 -15 799 -23 735 -23 C 669 -23 610 -15 556 0 C 502 16 452 39 405 69 C 357 99 315 135 279 179 C 242 222 213 267 191 314 C 169 360 149 417 133 485 C 117 553 109 630 109 717 C 109 825 124 925 156 1016 C 187 1106 231 1184 287 1250 C 343 1315 410 1366 488 1402 C 566 1438 651 1456 745 1456 C 865 1456 970 1429 1059 1377 C 1147 1325 1218 1245 1270 1139 L 1004 1016 Z" unicode="C" />
<glyph horiz-adv-x="1448" d="M 1346 717 C 1346 633 1336 557 1317 489 C 1298 421 1272 360 1238 307 C 1204 253 1163 207 1117 169 C 1071 131 1020 99 966 74 C 912 48 854 30 794 18 C 734 6 673 0 612 0 L 184 0 L 184 1434 L 633 1434 C 735 1434 829 1421 917 1395 C 1004 1369 1079 1328 1143 1272 C 1206 1215 1256 1141 1292 1050 C 1328 958 1346 847 1346 717 Z M 1051 717 C 1051 790 1042 854 1026 909 C 1010 963 984 1009 950 1046 C 916 1082 872 1110 818 1128 C 764 1146 699 1155 623 1155 L 471 1155 L 471 279 L 612 279 C 687 279 752 289 807 310 C 862 331 908 361 944 399 C 980 437 1006 484 1024 538 C 1042 592 1051 651 1051 717 Z" unicode="D" />
<glyph horiz-adv-x="1331" d="M 1210 0 L 184 0 L 184 1434 L 1180 1434 L 1180 1153 L 471 1153 L 471 905 L 1047 905 L 1047 627 L 471 627 L 471 281 L 1210 281 L 1210 0 Z" unicode="E" />
<glyph horiz-adv-x="1280" d="M 471 1153 L 471 883 L 903 883 L 903 604 L 471 604 L 471 0 L 184 0 L 184 1434 L 1210 1434 L 1210 1153 L 471 1153 Z" unicode="F" />
<glyph horiz-adv-x="1430" d="M 1311 555 C 1311 463 1296 381 1267 309 C 1238 237 1198 176 1147 127 C 1096 78 1035 41 965 15 C 894 -10 817 -23 735 -23 C 641 -23 555 -5 479 29 C 402 63 336 113 281 177 C 226 241 184 318 154 410 C 124 501 109 603 109 717 C 109 825 124 925 156 1016 C 187 1106 231 1184 287 1250 C 343 1315 410 1366 488 1402 C 566 1438 651 1456 745 1456 C 888 1456 1003 1423 1091 1359 C 1178 1295 1244 1208 1288 1098 L 1016 985 C 1002 1011 988 1036 972 1059 C 956 1081 938 1101 917 1118 C 895 1134 870 1147 842 1157 C 813 1166 779 1171 741 1171 C 687 1171 639 1159 597 1137 C 555 1115 520 1084 491 1044 C 462 1004 440 956 425 900 C 410 844 403 783 403 717 C 403 651 410 590 426 534 C 441 478 463 429 492 388 C 521 347 557 315 599 292 C 641 269 689 258 743 258 C 824 258 888 274 934 306 C 980 338 1010 389 1022 461 L 1024 475 L 797 475 L 797 743 L 1311 743 L 1311 555 Z" unicode="G" />
<glyph horiz-adv-x="1530" d="M 1059 0 L 1059 602 L 471 602 L 471 0 L 184 0 L 184 1434 L 471 1434 L 471 885 L 1059 885 L 1059 1434 L 1346 1434 L 1346 0 L 1059 0 Z" unicode="H" />
<glyph horiz-adv-x="696" d="M 205 0 L 205 1434 L 492 1434 L 492 0 L 205 0 Z" unicode="I" />
<glyph horiz-adv-x="1331" d="M 1157 598 C 1157 396 1110 242 1017 136 C 923 30 789 -23 614 -23 C 542 -23 477 -12 418 8 C 358 28 305 57 259 95 C 213 132 173 177 141 229 C 109 281 84 338 66 401 L 346 477 C 362 435 377 402 391 379 C 405 356 423 335 445 317 C 467 298 491 284 519 275 C 546 266 578 262 614 262 C 659 262 698 269 730 283 C 762 297 789 319 810 348 C 830 376 845 411 855 451 C 865 491 870 537 870 590 L 870 1434 L 1157 1434 L 1157 598 Z" unicode="J" />
<glyph horiz-adv-x="1475" d="M 1434 0 L 1090 0 L 700 692 L 471 422 L 471 0 L 184 0 L 184 1434 L 471 1434 L 471 811 L 981 1434 L 1327 1434 L 907 938 L 1434 0 Z" unicode="K" />
<glyph horiz-adv-x="1270" d="M 184 0 L 184 1434 L 471 1434 L 471 283 L 1190 283 L 1190 0 L 184 0 Z" unicode="L" />
<glyph horiz-adv-x="1710" d="M 1526 0 L 1239 0 L 1239 816 L 852 -33 L 465 816 L 465 0 L 184 0 L 184 1434 L 461 1434 L 858 567 L 1243 1434 L 1526 1434 L 1526 0 Z" unicode="M" />
<glyph horiz-adv-x="1530" d="M 1346 0 L 1090 0 L 467 925 L 467 0 L 184 0 L 184 1434 L 459 1434 L 1063 532 L 1063 1434 L 1346 1434 L 1346 0 Z" unicode="N" />
<glyph horiz-adv-x="1473" d="M 1368 719 C 1368 603 1352 499 1321 407 C 1290 315 1247 238 1191 174 C 1135 110 1069 62 991 28 C 913 -6 828 -23 735 -23 C 641 -23 555 -6 478 27 C 400 60 334 108 279 172 C 223 235 180 312 150 404 C 119 495 104 599 104 715 C 104 831 119 934 150 1026 C 181 1118 225 1195 281 1259 C 337 1323 404 1371 482 1405 C 560 1439 645 1456 739 1456 C 832 1456 917 1439 994 1406 C 1071 1372 1137 1324 1193 1261 C 1248 1197 1291 1120 1322 1029 C 1352 938 1368 835 1368 719 Z M 1073 715 C 1073 787 1064 852 1048 909 C 1031 965 1008 1013 978 1052 C 948 1090 912 1120 870 1140 C 828 1160 783 1171 733 1171 C 683 1171 637 1161 596 1141 C 554 1121 519 1092 490 1054 C 461 1016 439 968 423 912 C 407 856 399 791 399 719 C 399 646 407 581 424 525 C 440 468 464 420 494 381 C 524 342 559 312 601 292 C 643 272 689 262 739 262 C 789 262 834 272 876 292 C 917 312 952 341 981 379 C 1010 417 1033 465 1049 521 C 1065 577 1073 642 1073 715 Z" unicode="O" />
<glyph horiz-adv-x="1393" d="M 1305 979 C 1305 895 1291 824 1265 765 C 1239 705 1202 657 1156 619 C 1110 581 1055 553 992 535 C 928 517 860 508 786 508 L 471 508 L 471 0 L 184 0 L 184 1434 L 811 1434 C 878 1434 942 1424 1002 1406 C 1062 1387 1114 1359 1159 1321 C 1204 1283 1240 1235 1266 1178 C 1292 1121 1305 1055 1305 979 Z M 1010 973 C 1010 1002 1005 1028 997 1051 C 988 1074 974 1093 955 1109 C 936 1124 914 1135 888 1143 C 862 1151 833 1155 801 1155 L 471 1155 L 471 786 L 805 786 C 871 786 922 801 957 832 C 992 863 1010 910 1010 973 Z" unicode="P" />
<glyph horiz-adv-x="1462" d="M 1354 717 C 1354 657 1350 601 1342 550 C 1334 499 1322 449 1304 401 C 1286 353 1265 309 1241 271 C 1217 233 1189 198 1159 166 L 1266 10 L 1047 -133 L 944 16 C 911 2 877 -7 843 -13 C 808 -19 771 -23 731 -23 C 633 -23 545 -4 468 31 C 391 67 326 118 273 183 C 219 248 179 326 151 417 C 123 507 109 607 109 717 C 109 825 123 925 151 1016 C 179 1106 219 1184 273 1250 C 326 1315 391 1366 468 1402 C 545 1438 633 1456 731 1456 C 829 1456 916 1438 993 1402 C 1070 1366 1135 1315 1189 1250 C 1242 1184 1283 1106 1311 1016 C 1339 925 1354 825 1354 717 Z M 1059 717 C 1059 781 1052 840 1040 896 C 1028 951 1008 999 982 1040 C 955 1080 921 1112 880 1136 C 838 1159 789 1171 731 1171 C 673 1171 623 1159 582 1136 C 540 1112 506 1080 480 1040 C 454 999 434 951 422 896 C 409 840 403 781 403 717 C 403 651 409 590 422 533 C 435 476 455 426 483 384 C 510 342 545 308 587 284 C 629 260 679 248 737 248 C 753 248 769 249 784 252 L 688 395 L 907 539 L 999 401 C 1021 441 1037 488 1046 543 C 1054 598 1059 656 1059 717 Z" unicode="Q" />
<glyph horiz-adv-x="1462" d="M 1016 0 L 760 516 L 471 516 L 471 0 L 184 0 L 184 1434 L 852 1434 C 919 1434 983 1424 1043 1406 C 1103 1387 1155 1359 1200 1321 C 1245 1283 1281 1235 1307 1178 C 1333 1121 1346 1055 1346 979 C 1346 921 1340 871 1328 828 C 1316 784 1298 745 1274 711 C 1250 676 1222 646 1190 622 C 1157 597 1117 575 1071 557 L 1346 0 L 1016 0 Z M 1051 973 C 1051 1007 1046 1036 1036 1059 C 1026 1082 1011 1101 992 1115 C 973 1129 951 1139 927 1145 C 903 1151 876 1155 846 1155 L 471 1155 L 471 786 L 846 786 C 882 786 912 790 937 798 C 962 806 983 818 1000 834 C 1017 850 1030 869 1038 892 C 1046 914 1051 941 1051 973 Z" unicode="R" />
<glyph horiz-adv-x="1354" d="M 1235 434 C 1235 366 1224 304 1202 248 C 1180 192 1146 143 1100 103 C 1054 63 995 32 925 10 C 854 -12 770 -23 672 -23 C 612 -23 554 -16 499 -4 C 443 7 392 25 344 47 C 296 69 252 97 213 129 C 174 161 141 198 115 238 L 322 422 C 372 363 428 321 491 296 C 553 270 619 258 688 258 C 736 258 776 261 806 268 C 836 275 861 285 881 297 C 901 309 916 324 925 341 C 933 357 938 382 938 414 C 938 436 934 456 926 474 C 918 492 902 508 879 523 C 856 537 824 551 782 565 C 740 578 686 592 618 608 C 552 623 491 641 436 661 C 381 681 334 707 295 739 C 255 771 225 810 203 858 C 181 906 170 965 170 1036 C 170 1100 183 1159 210 1211 C 236 1263 273 1307 319 1343 C 365 1379 420 1407 482 1427 C 544 1446 611 1456 682 1456 C 736 1456 788 1451 837 1441 C 886 1431 934 1416 981 1394 C 1028 1372 1068 1348 1101 1324 C 1133 1299 1168 1268 1204 1231 L 997 1030 C 969 1058 945 1079 925 1095 C 904 1110 880 1124 854 1137 C 827 1150 799 1160 770 1167 C 740 1174 708 1178 672 1178 C 633 1178 601 1174 575 1166 C 549 1158 528 1149 512 1137 C 496 1125 484 1111 477 1096 C 470 1080 467 1065 467 1049 C 467 1026 471 1007 480 991 C 488 975 504 960 526 948 C 548 936 577 924 614 913 C 651 902 698 890 756 877 C 837 857 905 837 959 816 C 1013 795 1060 768 1102 736 C 1143 703 1175 662 1199 612 C 1223 562 1235 502 1235 434 Z" unicode="S" />
<glyph horiz-adv-x="1294" d="M 791 1151 L 791 0 L 504 0 L 504 1151 L 92 1151 L 92 1434 L 1202 1434 L 1202 1151 L 791 1151 Z" unicode="T" />
<glyph horiz-adv-x="1509" d="M 1335 633 C 1335 529 1321 436 1295 355 C 1269 273 1231 205 1181 149 C 1131 93 1070 50 998 21 C 926 -8 844 -23 754 -23 C 667 -23 588 -8 517 20 C 446 48 385 90 334 146 C 283 201 244 269 216 350 C 188 431 174 524 174 629 L 174 1434 L 461 1434 L 461 633 C 461 517 487 425 540 358 C 592 291 664 258 754 258 C 844 258 916 291 969 358 C 1022 424 1049 515 1049 629 L 1049 1434 L 1335 1434 L 1335 633 Z" unicode="U" />
<glyph horiz-adv-x="1462" d="M 1381 1434 L 870 0 L 592 0 L 82 1434 L 399 1434 L 737 398 L 1067 1434 L 1381 1434 Z" unicode="V" />
<glyph horiz-adv-x="1804" d="M 1702 1434 L 1403 0 L 1122 0 L 898 939 L 670 0 L 402 0 L 102 1434 L 402 1434 L 561 533 L 778 1434 L 1028 1434 L 1248 533 L 1407 1434 L 1702 1434 Z" unicode="W" />
<glyph horiz-adv-x="1438" d="M 1346 0 L 1004 0 L 719 483 L 434 0 L 92 0 L 547 733 L 113 1434 L 455 1434 L 719 982 L 983 1434 L 1325 1434 L 889 733 L 1346 0 Z" unicode="X" />
<glyph horiz-adv-x="1462" d="M 1418 1434 L 875 567 L 875 0 L 588 0 L 588 561 L 45 1434 L 375 1434 L 733 834 L 1092 1434 L 1418 1434 Z" unicode="Y" />
<glyph horiz-adv-x="1409" d="M 1270 0 L 139 0 L 139 254 L 909 1171 L 180 1171 L 180 1434 L 1260 1434 L 1260 1180 L 498 262 L 1270 262 L 1270 0 Z" unicode="Z" />
<glyph horiz-adv-x="850" d="M 195 -225 L 195 1434 L 721 1434 L 721 1208 L 471 1208 L 471 0 L 721 0 L 721 -225 L 195 -225 Z" unicode="[" />
<glyph horiz-adv-x="963" d="M 676 -184 L 8 1618 L 287 1618 L 954 -184 L 676 -184 Z" unicode="\" />
<glyph horiz-adv-x="850" d="M 129 -225 L 129 0 L 379 0 L 379 1208 L 129 1208 L 129 1434 L 655 1434 L 655 -225 L 129 -225 Z" unicode="]" />
<glyph horiz-adv-x="1184" d="M 797 782 L 590 1163 L 383 782 L 96 782 L 479 1434 L 705 1434 L 1087 782 L 797 782 Z" unicode="^" />
<glyph horiz-adv-x="1024" d="M 0 -383 L 0 -147 L 1024 -147 L 1024 -383 L 0 -383 Z" unicode="_" />
<glyph horiz-adv-x="1024" d="M 502 1219 L 205 1546 L 563 1546 L 741 1219 L 502 1219 Z" unicode="`" />
<glyph horiz-adv-x="1139" d="M 729 0 L 729 72 C 716 58 702 46 686 35 C 670 24 650 14 628 4 C 605 -5 582 -12 559 -16 C 535 -20 511 -23 487 -23 C 437 -23 388 -15 340 0 C 292 16 249 39 211 71 C 173 102 143 142 120 190 C 97 238 86 294 86 360 C 86 419 97 471 120 516 C 142 560 173 597 213 627 C 252 657 298 679 351 694 C 404 709 461 717 522 717 C 572 717 613 712 646 704 C 678 695 706 685 729 674 L 729 727 C 729 767 715 799 689 825 C 662 851 624 864 575 864 C 512 864 461 859 422 850 C 382 841 335 822 281 793 L 172 989 C 240 1029 304 1057 365 1073 C 426 1089 496 1098 575 1098 C 640 1098 699 1089 753 1073 C 807 1056 853 1032 891 1000 C 929 968 959 928 980 882 C 1001 835 1012 781 1012 721 L 1012 0 L 729 0 Z M 729 451 C 717 458 704 464 692 470 C 679 476 665 480 650 484 C 634 488 617 491 598 493 C 579 495 557 496 532 496 C 478 496 438 484 410 460 C 382 436 369 403 369 360 C 369 341 371 323 377 306 C 383 288 392 273 405 260 C 418 247 435 237 456 229 C 476 221 502 217 532 217 C 555 217 577 219 597 225 C 617 230 636 237 653 246 C 670 255 685 266 698 278 C 710 290 721 302 729 315 L 729 451 Z" unicode="a" />
<glyph horiz-adv-x="1151" d="M 1065 524 C 1065 444 1055 370 1037 303 C 1018 236 991 178 955 130 C 919 82 876 44 824 17 C 772 -9 713 -23 647 -23 C 599 -23 556 -14 517 1 C 477 17 445 37 420 61 L 420 0 L 137 0 L 137 1352 L 420 1493 L 420 1008 C 433 1020 447 1031 463 1042 C 479 1052 496 1062 515 1070 C 533 1078 554 1085 576 1090 C 598 1095 621 1098 647 1098 C 704 1098 758 1087 809 1065 C 859 1043 904 1008 942 962 C 980 915 1010 855 1032 783 C 1054 711 1065 624 1065 524 Z M 778 518 C 778 622 762 700 731 752 C 699 804 654 831 594 831 C 572 831 552 828 535 824 C 518 820 503 814 489 806 C 475 798 463 788 452 777 C 440 766 430 754 420 741 L 420 336 C 430 321 441 308 452 298 C 463 288 477 278 495 269 C 512 260 530 254 548 250 C 566 246 587 244 610 244 C 664 244 706 267 735 313 C 763 359 778 427 778 518 Z" unicode="b" />
<glyph horiz-adv-x="1100" d="M 1026 217 C 1000 182 972 150 943 121 C 914 91 882 66 847 45 C 811 23 772 7 730 -5 C 687 -17 639 -23 586 -23 C 516 -23 450 -9 389 18 C 327 45 274 83 228 133 C 182 182 147 241 121 310 C 95 378 82 454 82 537 C 82 619 94 694 120 763 C 146 832 182 891 228 941 C 274 990 328 1028 391 1056 C 454 1084 523 1098 598 1098 C 688 1098 769 1078 840 1038 C 910 998 972 939 1024 860 L 838 672 C 822 694 805 715 788 734 C 771 752 753 768 734 782 C 714 795 693 805 670 813 C 646 821 620 825 592 825 C 558 825 527 818 500 804 C 472 790 449 771 430 746 C 410 721 395 691 385 656 C 374 620 369 581 369 537 C 369 493 374 454 385 419 C 395 384 410 354 430 329 C 449 303 472 284 500 270 C 527 256 558 250 592 250 C 619 250 644 253 667 259 C 690 265 712 273 732 285 C 752 297 772 311 790 328 C 808 345 827 365 846 387 L 1026 217 Z" unicode="c" />
<glyph horiz-adv-x="1151" d="M 727 0 L 727 68 C 713 55 698 44 684 34 C 669 24 652 15 634 5 C 615 -4 595 -11 573 -16 C 551 -20 526 -23 500 -23 C 442 -23 388 -11 338 10 C 287 32 243 67 205 114 C 167 160 137 220 115 292 C 93 364 82 451 82 551 C 82 631 91 704 110 771 C 128 838 155 896 191 944 C 226 992 270 1030 322 1057 C 374 1084 433 1098 500 1098 C 524 1098 547 1096 569 1092 C 590 1088 611 1081 632 1072 C 652 1063 670 1054 685 1045 C 700 1035 714 1025 727 1014 L 727 1352 L 1010 1493 L 1010 0 L 727 0 Z M 727 739 C 716 753 705 766 693 777 C 681 787 667 797 651 805 C 635 813 618 820 598 824 C 578 828 558 831 537 831 C 482 831 440 808 412 762 C 383 716 369 647 369 557 C 369 501 373 454 382 415 C 390 375 403 343 419 318 C 435 292 454 274 477 262 C 499 250 525 244 553 244 C 575 244 594 246 611 250 C 628 254 643 261 657 269 C 671 277 683 286 695 297 C 706 308 717 320 727 334 L 727 739 Z" unicode="d" />
<glyph horiz-adv-x="1102" d="M 1014 537 C 1014 516 1013 498 1013 484 C 1012 469 1011 456 1010 446 L 367 446 C 369 409 377 378 391 352 C 405 326 422 306 442 290 C 462 274 485 262 511 255 C 536 247 562 244 588 244 C 607 244 625 245 642 248 C 658 251 675 256 692 263 C 709 270 724 278 737 288 C 750 297 762 307 772 319 L 973 152 C 951 124 926 99 897 77 C 867 55 836 37 802 22 C 768 7 732 -3 696 -11 C 660 -19 624 -23 588 -23 C 528 -23 475 -15 428 -1 C 381 12 340 32 305 56 C 269 80 238 107 211 139 C 183 171 160 206 142 245 C 123 284 108 328 98 376 C 87 424 82 478 82 537 C 82 619 94 694 118 763 C 142 832 176 891 219 941 C 262 990 313 1028 371 1056 C 429 1084 493 1098 561 1098 C 633 1098 697 1083 753 1053 C 809 1023 856 983 895 932 C 933 881 963 822 983 754 C 1003 686 1014 613 1014 537 Z M 739 659 C 737 683 731 706 723 730 C 715 753 703 774 687 792 C 671 810 652 824 629 835 C 606 846 579 852 547 852 C 521 852 497 847 477 837 C 457 827 439 813 424 796 C 409 778 397 758 388 735 C 379 711 373 686 371 659 L 739 659 Z" unicode="e" />
<glyph horiz-adv-x="758" d="M 692 1229 C 678 1236 663 1241 648 1245 C 632 1249 614 1251 594 1251 C 572 1251 554 1249 540 1245 C 526 1241 515 1236 508 1229 C 501 1221 496 1212 493 1201 C 490 1189 489 1177 489 1165 L 489 1075 L 672 1075 L 672 809 L 489 809 L 489 0 L 207 0 L 207 809 L 78 809 L 78 1075 L 207 1075 L 207 1204 C 207 1254 213 1297 227 1333 C 241 1369 261 1398 287 1421 C 313 1443 345 1460 383 1471 C 421 1481 464 1487 514 1487 C 552 1487 585 1484 615 1478 C 644 1472 670 1465 692 1456 L 692 1229 Z" unicode="f" />
<glyph horiz-adv-x="1151" d="M 1010 166 C 1010 66 998 -18 975 -88 C 952 -158 918 -214 874 -256 C 832 -295 781 -327 719 -352 C 657 -376 583 -391 496 -397 L 412 -172 C 474 -166 526 -158 567 -148 C 608 -138 640 -125 662 -109 C 682 -94 697 -73 709 -47 C 720 -21 726 15 727 61 L 727 68 C 713 56 699 45 684 35 C 669 25 652 15 633 5 C 614 -4 594 -11 572 -16 C 550 -20 526 -23 500 -23 C 442 -23 388 -11 338 10 C 287 32 243 67 205 114 C 167 160 137 220 115 292 C 93 364 82 451 82 551 C 82 631 91 704 110 771 C 128 838 155 896 191 944 C 226 992 270 1030 322 1057 C 374 1084 433 1098 500 1098 C 522 1098 545 1096 567 1092 C 589 1088 611 1081 632 1072 C 653 1063 671 1054 686 1045 C 700 1035 714 1025 727 1014 L 727 1075 L 1010 1075 L 1010 166 Z M 553 244 C 591 244 624 251 652 266 C 680 281 705 304 727 334 L 727 739 C 716 753 705 766 694 776 C 683 786 670 795 654 804 C 638 812 620 819 601 824 C 581 828 560 831 537 831 C 482 831 440 808 412 762 C 383 716 369 647 369 557 C 369 449 385 370 417 320 C 449 269 495 244 553 244 Z" unicode="g" />
<glyph horiz-adv-x="1196" d="M 786 0 L 786 582 C 786 667 772 730 745 770 C 718 810 671 831 604 831 C 574 831 548 827 526 819 C 503 811 484 797 468 779 C 452 760 440 735 432 704 C 424 673 420 634 420 588 L 420 0 L 137 0 L 137 1352 L 420 1493 L 420 1004 C 431 1016 446 1027 464 1039 C 482 1051 501 1061 523 1070 C 544 1079 567 1086 591 1091 C 615 1095 642 1098 672 1098 C 740 1098 799 1086 849 1063 C 899 1040 940 1007 973 965 C 1005 923 1029 871 1045 811 C 1061 750 1069 682 1069 606 L 1069 0 L 786 0 Z" unicode="h" />
<glyph horiz-adv-x="578" d="M 451 1325 C 451 1303 446 1282 438 1262 C 429 1242 417 1225 403 1211 C 388 1196 371 1184 351 1176 C 331 1167 311 1163 289 1163 C 267 1163 246 1167 226 1176 C 206 1184 189 1196 175 1211 C 160 1225 148 1242 140 1262 C 131 1282 127 1303 127 1325 C 127 1347 131 1367 140 1387 C 148 1407 160 1424 175 1439 C 189 1453 206 1465 226 1474 C 246 1482 267 1487 289 1487 C 311 1487 331 1482 351 1474 C 371 1465 388 1453 403 1439 C 417 1424 429 1407 438 1387 C 446 1367 451 1347 451 1325 Z M 147 0 L 147 1075 L 430 1075 L 430 0 L 147 0 Z" unicode="i" />
<glyph horiz-adv-x="578" d="M 451 1325 C 451 1303 446 1282 438 1262 C 429 1242 417 1225 403 1211 C 388 1196 371 1184 351 1176 C 331 1167 311 1163 289 1163 C 267 1163 246 1167 226 1176 C 206 1184 189 1196 175 1211 C 160 1225 148 1242 140 1262 C 131 1282 127 1303 127 1325 C 127 1347 131 1367 140 1387 C 148 1407 160 1424 175 1439 C 189 1453 206 1465 226 1474 C 246 1482 267 1487 289 1487 C 311 1487 331 1482 351 1474 C 371 1465 388 1453 403 1439 C 417 1424 429 1407 438 1387 C 446 1367 451 1347 451 1325 Z M 430 80 C 430 4 423 -60 410 -114 C 397 -168 375 -213 343 -250 C 311 -287 267 -317 213 -340 C 159 -363 90 -381 8 -395 L -90 -178 C -41 -168 -1 -158 29 -147 C 59 -136 83 -122 101 -104 C 118 -86 130 -63 137 -36 C 143 -8 147 26 147 68 L 147 1075 L 430 1075 L 430 80 Z" unicode="j" />
<glyph horiz-adv-x="1128" d="M 762 0 L 557 496 L 420 326 L 420 0 L 137 0 L 137 1352 L 420 1493 L 420 707 L 705 1075 L 1038 1075 L 762 733 L 1071 0 L 762 0 Z" unicode="k" />
<glyph horiz-adv-x="578" d="M 147 0 L 147 1352 L 430 1493 L 430 0 L 147 0 Z" unicode="l" />
<glyph horiz-adv-x="1804" d="M 1395 0 L 1395 582 C 1395 630 1391 670 1384 702 C 1377 734 1366 759 1352 778 C 1338 797 1320 811 1298 819 C 1276 827 1251 831 1223 831 C 1193 831 1168 827 1146 819 C 1124 811 1106 797 1092 779 C 1077 760 1066 735 1059 704 C 1052 673 1049 634 1049 588 L 1049 0 L 766 0 L 766 582 C 766 630 762 670 755 702 C 748 734 738 759 724 778 C 710 797 692 811 670 819 C 648 827 623 831 594 831 C 564 831 539 827 517 819 C 495 811 477 797 463 779 C 448 760 437 735 430 704 C 423 673 420 634 420 588 L 420 0 L 137 0 L 137 1075 L 420 1075 L 420 1004 C 444 1029 476 1051 514 1070 C 552 1088 599 1098 655 1098 C 725 1098 782 1087 826 1066 C 870 1044 912 1009 952 961 C 970 979 990 997 1011 1014 C 1032 1030 1056 1045 1083 1057 C 1110 1069 1141 1079 1175 1087 C 1209 1094 1249 1098 1294 1098 C 1362 1098 1421 1086 1470 1063 C 1518 1040 1558 1007 1589 965 C 1619 923 1642 871 1656 811 C 1670 750 1677 682 1677 606 L 1677 0 L 1395 0 Z" unicode="m" />
<glyph horiz-adv-x="1196" d="M 786 0 L 786 582 C 786 666 772 729 745 770 C 718 810 671 831 604 831 C 574 831 548 827 526 819 C 503 811 484 797 468 779 C 452 760 440 735 432 704 C 424 673 420 634 420 588 L 420 0 L 137 0 L 137 1075 L 420 1075 L 420 1004 C 432 1016 446 1027 463 1039 C 480 1050 500 1060 523 1070 C 545 1080 569 1087 594 1091 C 619 1095 645 1098 672 1098 C 740 1098 799 1086 849 1063 C 899 1040 940 1007 973 965 C 1005 923 1029 871 1045 811 C 1061 750 1069 682 1069 606 L 1069 0 L 786 0 Z" unicode="n" />
<glyph horiz-adv-x="1137" d="M 1055 537 C 1055 454 1042 378 1018 310 C 994 241 960 182 916 133 C 872 83 821 45 761 18 C 701 -9 637 -23 567 -23 C 497 -23 432 -9 373 18 C 313 45 262 83 219 133 C 176 182 142 241 118 310 C 94 378 82 454 82 537 C 82 619 94 694 118 763 C 142 832 176 891 219 941 C 262 990 313 1028 373 1056 C 432 1084 497 1098 567 1098 C 637 1098 701 1084 761 1056 C 821 1028 872 990 916 941 C 960 891 994 832 1018 763 C 1042 694 1055 619 1055 537 Z M 768 537 C 768 577 763 615 755 650 C 747 685 734 716 718 742 C 701 768 680 788 655 803 C 630 817 601 825 567 825 C 533 825 503 817 479 803 C 454 788 433 768 417 742 C 401 716 389 686 381 651 C 373 616 369 578 369 537 C 369 495 373 457 381 422 C 389 386 401 356 417 331 C 433 305 454 285 479 271 C 503 257 533 250 567 250 C 601 250 630 257 655 273 C 680 289 701 310 718 337 C 734 363 747 394 755 429 C 763 463 768 499 768 537 Z" unicode="o" />
<glyph horiz-adv-x="1151" d="M 1065 524 C 1065 444 1055 370 1037 303 C 1018 236 991 178 955 130 C 919 82 876 44 824 17 C 772 -9 713 -23 647 -23 C 599 -23 556 -14 517 1 C 477 17 445 37 420 61 L 420 -254 L 137 -395 L 137 1075 L 420 1075 L 420 1008 C 451 1036 486 1058 524 1074 C 562 1090 603 1098 647 1098 C 704 1098 758 1087 809 1065 C 859 1043 904 1008 942 962 C 980 915 1010 855 1032 783 C 1054 711 1065 624 1065 524 Z M 778 518 C 778 620 762 697 731 751 C 700 804 654 831 594 831 C 556 831 523 824 496 810 C 469 796 444 773 420 741 L 420 336 C 432 320 444 306 456 296 C 468 285 483 276 499 268 C 515 260 532 254 551 250 C 569 246 589 244 610 244 C 664 244 706 267 735 313 C 763 359 778 427 778 518 Z" unicode="p" />
<glyph horiz-adv-x="1151" d="M 727 -395 L 727 68 C 700 44 668 22 632 4 C 595 -13 551 -23 500 -23 C 442 -23 388 -11 338 10 C 287 32 243 67 205 114 C 167 160 137 220 115 292 C 93 364 82 451 82 551 C 82 631 91 704 110 771 C 128 838 155 896 191 944 C 226 992 270 1030 322 1057 C 374 1084 433 1098 500 1098 C 525 1098 548 1095 570 1091 C 592 1087 613 1080 634 1071 C 655 1062 673 1053 688 1043 C 703 1033 716 1024 727 1014 L 727 1075 L 1010 1075 L 1010 -254 L 727 -395 Z M 727 739 C 717 752 706 765 693 777 C 679 789 663 799 645 808 C 627 816 609 822 591 826 C 573 829 555 831 537 831 C 482 831 440 808 412 762 C 383 716 369 647 369 557 C 369 455 384 377 415 324 C 446 270 492 244 553 244 C 589 244 621 250 649 264 C 676 278 702 301 727 334 L 727 739 Z" unicode="q" />
<glyph horiz-adv-x="877" d="M 766 745 C 743 765 718 782 691 795 C 663 808 634 815 602 815 C 535 815 488 795 461 757 C 433 719 420 660 420 582 L 420 0 L 137 0 L 137 1075 L 420 1075 L 420 1004 C 431 1016 444 1027 460 1039 C 476 1050 493 1060 512 1070 C 531 1080 552 1087 574 1091 C 596 1095 618 1098 641 1098 C 687 1098 727 1090 761 1074 C 795 1058 821 1041 840 1022 L 766 745 Z" unicode="r" />
<glyph horiz-adv-x="1100" d="M 954 993 L 864 770 C 810 798 756 820 701 834 C 646 848 596 856 551 856 C 501 856 464 851 441 841 C 417 831 406 813 406 786 C 406 774 408 764 414 756 C 419 747 430 738 446 730 C 462 721 484 711 513 701 C 542 690 581 677 629 662 C 677 646 722 628 766 610 C 809 592 847 570 880 544 C 912 518 938 486 958 449 C 977 412 987 367 987 313 C 987 251 975 198 952 156 C 929 113 898 78 858 52 C 818 26 772 7 719 -5 C 666 -17 609 -23 549 -23 C 467 -23 386 -11 307 10 C 227 32 158 63 98 102 L 193 317 C 250 285 309 260 370 244 C 431 227 496 219 565 219 C 618 219 655 225 677 238 C 698 251 709 272 709 301 C 709 313 706 323 701 333 C 695 343 686 352 674 360 C 662 368 646 377 626 385 C 606 393 581 401 551 410 C 486 429 428 448 376 468 C 324 487 279 510 242 537 C 205 564 177 597 157 635 C 137 673 127 721 127 778 C 127 834 137 882 158 922 C 179 962 209 996 247 1022 C 285 1048 330 1067 383 1079 C 435 1091 493 1098 557 1098 C 625 1098 693 1088 763 1069 C 833 1050 896 1025 954 993 Z" unicode="s" />
<glyph horiz-adv-x="905" d="M 737 43 C 713 24 682 8 643 -4 C 603 -16 562 -23 518 -23 C 474 -23 435 -15 400 1 C 364 17 334 39 309 68 C 284 97 265 131 251 171 C 237 210 231 253 231 301 L 231 809 L 51 809 L 51 1075 L 231 1075 L 231 1352 L 514 1493 L 514 1075 L 772 1075 L 772 809 L 514 809 L 514 377 C 514 351 516 329 521 313 C 525 296 532 283 541 273 C 549 263 560 257 573 253 C 586 249 601 248 618 248 C 643 248 668 254 692 267 C 716 279 745 300 778 330 L 737 43 Z" unicode="t" />
<glyph horiz-adv-x="1196" d="M 776 0 L 776 72 C 751 46 717 23 674 5 C 630 -13 580 -23 524 -23 C 394 -23 296 18 228 102 C 160 185 127 307 127 469 L 127 1075 L 410 1075 L 410 494 C 410 407 423 344 451 304 C 478 264 525 244 592 244 C 659 244 706 264 734 305 C 762 346 776 407 776 487 L 776 1075 L 1059 1075 L 1059 0 L 776 0 Z" unicode="u" />
<glyph horiz-adv-x="1167" d="M 729 0 L 438 0 L 51 1075 L 362 1075 L 588 366 L 813 1075 L 1116 1075 L 729 0 Z" unicode="v" />
<glyph horiz-adv-x="1520" d="M 1159 0 L 924 0 L 760 646 L 596 0 L 360 0 L 51 1075 L 338 1075 L 483 459 L 647 1075 L 881 1075 L 1044 459 L 1190 1075 L 1468 1075 L 1159 0 Z" unicode="w" />
<glyph horiz-adv-x="1176" d="M 795 0 L 588 342 L 381 0 L 45 0 L 426 582 L 102 1075 L 438 1075 L 588 817 L 737 1075 L 1073 1075 L 750 582 L 1130 0 L 795 0 Z" unicode="x" />
<glyph horiz-adv-x="1208" d="M 604 -379 L 326 -379 L 469 0 L 51 1075 L 362 1075 L 608 351 L 854 1075 L 1157 1075 L 604 -379 Z" unicode="y" />
<glyph horiz-adv-x="1135" d="M 123 0 L 123 205 L 639 819 L 158 819 L 158 1075 L 1012 1075 L 1012 870 L 510 256 L 1012 256 L 1012 0 L 123 0 Z" unicode="z" />
<glyph horiz-adv-x="942" d="M 834 -225 C 740 -225 658 -215 590 -197 C 522 -179 465 -152 421 -116 C 377 -80 344 -35 323 19 C 301 73 291 135 291 207 L 291 352 C 291 402 280 438 259 460 C 238 482 208 494 168 494 L 123 494 L 123 723 L 168 723 C 208 723 238 734 259 756 C 280 778 291 814 291 864 L 291 1012 C 291 1082 301 1145 323 1199 C 344 1253 377 1298 421 1334 C 465 1370 522 1398 590 1416 C 658 1434 740 1444 834 1444 L 834 1257 C 782 1251 740 1242 707 1230 C 674 1218 648 1201 629 1179 C 609 1157 596 1131 589 1100 C 581 1069 578 1033 578 991 L 578 928 C 578 872 574 826 566 790 C 558 753 546 723 530 699 C 514 675 493 657 469 643 C 445 629 416 618 383 608 C 416 598 445 586 469 572 C 493 558 514 540 530 516 C 546 492 558 462 566 426 C 574 390 578 344 578 289 L 578 227 C 578 185 581 148 589 117 C 596 86 609 60 629 39 C 648 17 674 0 707 -12 C 740 -24 782 -33 834 -39 L 834 -225 Z" unicode="{" />
<glyph horiz-adv-x="584" d="M 164 -379 L 164 1638 L 420 1638 L 420 -379 L 164 -379 Z" unicode="|" />
<glyph horiz-adv-x="942" d="M 774 496 C 734 496 703 484 682 462 C 661 440 651 404 651 354 L 651 207 C 651 135 640 73 619 19 C 597 -35 565 -80 521 -116 C 477 -152 420 -179 352 -197 C 284 -215 203 -225 109 -225 L 109 -39 C 159 -33 201 -24 235 -12 C 268 0 294 17 313 39 C 332 60 345 86 353 117 C 361 148 365 185 365 227 L 365 291 C 365 346 368 392 376 428 C 384 464 396 494 412 518 C 428 542 448 560 472 574 C 496 588 525 600 559 610 C 525 620 496 631 472 645 C 448 659 428 677 412 701 C 396 725 384 755 376 792 C 368 828 365 874 365 930 L 365 991 C 365 1033 361 1069 353 1100 C 345 1131 332 1157 313 1179 C 294 1201 268 1218 235 1230 C 201 1242 159 1251 109 1257 L 109 1444 C 203 1444 284 1434 352 1416 C 420 1398 477 1370 521 1334 C 565 1298 597 1253 619 1199 C 640 1145 651 1082 651 1012 L 651 866 C 651 816 661 780 682 758 C 703 736 734 725 774 725 L 819 725 L 819 496 L 774 496 Z" unicode="}" />
<glyph horiz-adv-x="1151" d="M 1065 868 C 1046 820 1026 778 1006 740 C 985 702 962 669 937 643 C 912 616 884 595 854 581 C 824 566 790 559 752 559 C 730 559 711 560 695 563 C 678 566 662 570 647 576 C 632 582 617 589 602 598 C 587 606 571 617 555 629 C 515 655 484 676 460 690 C 436 704 414 711 395 711 C 381 711 368 709 358 705 C 347 701 337 694 327 684 C 317 673 306 658 295 639 C 283 620 270 595 254 565 L 86 651 C 104 698 124 741 145 779 C 165 817 188 849 213 876 C 238 903 266 924 296 939 C 326 953 361 961 399 961 C 419 961 438 959 455 956 C 472 953 488 949 503 943 C 518 937 533 930 548 922 C 562 913 578 903 596 891 C 620 873 647 855 677 837 C 707 818 733 809 756 809 C 770 809 782 810 792 814 C 802 818 813 825 823 835 C 833 845 843 860 855 879 C 866 898 880 923 897 954 L 1065 868 Z" unicode="~" />
<glyph horiz-adv-x="594" d="" unicode=" " />
<glyph horiz-adv-x="696" d="M 522 1282 C 522 1258 517 1236 508 1215 C 498 1194 486 1176 470 1160 C 454 1144 435 1131 414 1122 C 393 1112 371 1108 348 1108 C 324 1108 302 1112 281 1122 C 260 1131 242 1144 226 1160 C 210 1176 197 1194 188 1215 C 178 1236 174 1258 174 1282 C 174 1305 178 1327 188 1348 C 197 1369 210 1388 226 1404 C 242 1420 260 1432 281 1442 C 302 1451 324 1456 348 1456 C 371 1456 393 1451 414 1442 C 435 1432 454 1420 470 1404 C 486 1388 498 1369 508 1348 C 517 1327 522 1305 522 1282 Z M 205 0 L 205 590 L 252 983 L 444 983 L 492 590 L 492 0 L 205 0 Z" unicode="¡" />
<glyph horiz-adv-x="1270" d="M 958 907 C 940 931 923 952 905 970 C 887 988 867 1003 847 1015 C 826 1027 803 1036 778 1042 C 753 1048 725 1051 694 1051 C 650 1051 611 1043 575 1029 C 539 1015 509 994 484 967 C 458 940 438 907 424 868 C 410 829 403 785 403 737 C 403 686 409 640 423 600 C 437 559 457 524 483 496 C 509 468 541 446 579 431 C 617 415 661 408 711 408 C 769 408 821 420 866 445 C 910 469 951 503 989 547 L 1167 371 C 1125 325 1077 285 1025 252 C 972 218 911 195 842 182 L 842 -23 L 532 -23 L 532 184 C 467 198 409 221 358 253 C 306 284 263 323 227 369 C 191 415 163 468 144 528 C 124 588 115 655 115 727 C 115 800 125 867 146 927 C 167 987 196 1041 234 1087 C 271 1133 315 1171 366 1202 C 416 1232 472 1255 532 1270 L 532 1462 L 842 1462 L 842 1280 C 920 1265 985 1240 1038 1206 C 1090 1172 1134 1131 1169 1085 L 958 907 Z" unicode="¢" />
<glyph horiz-adv-x="1270" d="M 156 0 L 156 205 C 182 231 205 256 226 282 C 247 307 265 334 281 362 C 297 390 309 420 319 452 C 328 484 334 521 338 561 L 158 561 L 158 776 L 311 776 C 303 793 295 810 287 827 C 278 844 268 862 258 881 C 247 899 238 916 232 930 C 226 944 220 959 214 977 C 208 994 203 1012 201 1031 C 198 1050 197 1071 197 1094 C 197 1150 207 1200 229 1245 C 251 1289 282 1327 324 1359 C 366 1390 417 1414 477 1431 C 537 1447 606 1456 684 1456 C 780 1456 868 1439 948 1406 C 1028 1372 1100 1323 1165 1257 L 1010 1071 C 958 1121 905 1157 852 1180 C 799 1202 742 1214 680 1214 C 646 1214 616 1210 591 1202 C 566 1194 545 1184 529 1171 C 513 1157 501 1141 493 1123 C 485 1105 481 1085 481 1065 C 481 1039 484 1015 492 993 C 499 970 510 946 524 922 C 536 900 548 877 560 853 C 572 828 582 802 592 776 L 883 776 L 883 561 L 606 561 C 602 525 597 491 589 461 C 581 431 572 402 560 376 C 548 349 535 324 521 301 C 507 278 491 256 475 236 L 1153 236 L 1153 0 L 156 0 Z" unicode="£" />
<glyph horiz-adv-x="1307" d="M 702 -23 C 606 -23 520 -5 446 31 C 371 67 308 117 257 182 C 206 247 167 325 141 416 C 115 507 102 607 102 717 C 102 833 116 936 145 1028 C 174 1120 215 1197 268 1261 C 321 1324 385 1372 459 1406 C 533 1439 616 1456 707 1456 C 777 1456 839 1448 891 1432 C 943 1416 988 1393 1028 1363 C 1067 1332 1101 1294 1131 1249 C 1161 1204 1188 1152 1214 1094 L 973 977 C 955 1011 938 1041 922 1067 C 905 1093 886 1115 866 1133 C 845 1150 821 1163 795 1172 C 769 1181 738 1186 702 1186 C 636 1186 579 1168 529 1133 C 479 1098 441 1041 416 963 L 831 963 L 831 774 L 385 774 C 383 764 383 755 383 745 C 383 735 383 725 383 715 C 383 704 383 694 383 685 C 383 675 383 666 385 657 L 831 657 L 831 469 L 416 469 C 442 391 481 335 531 300 C 581 265 639 248 707 248 C 741 248 772 252 799 260 C 825 268 850 280 872 297 C 894 313 915 334 935 359 C 955 383 975 412 997 446 L 1231 307 C 1205 263 1176 222 1144 182 C 1112 142 1074 106 1032 76 C 990 46 942 22 888 4 C 834 -14 772 -23 702 -23 Z" unicode="¤" />
<glyph horiz-adv-x="1270" d="M 776 545 L 776 455 L 1085 455 L 1085 225 L 776 225 L 776 0 L 496 0 L 496 225 L 184 225 L 184 455 L 496 455 L 496 541 L 31 1434 L 360 1434 L 637 819 L 915 1434 L 1239 1434 L 776 545 Z" unicode="¥" />
<glyph horiz-adv-x="643" d="M 193 1638 L 453 1638 L 453 764 L 193 764 L 193 1638 Z M 193 496 L 453 496 L 453 -379 L 193 -379 L 193 496 Z" unicode="¦" />
<glyph horiz-adv-x="1434" d="M 1321 514 C 1321 471 1315 432 1303 398 C 1291 364 1276 333 1256 306 C 1236 278 1212 254 1185 233 C 1157 211 1128 192 1096 176 C 1108 154 1118 129 1126 100 C 1133 71 1137 37 1137 -2 C 1137 -49 1127 -93 1109 -134 C 1091 -174 1064 -210 1028 -240 C 992 -270 947 -293 894 -310 C 841 -327 780 -336 711 -336 C 627 -336 548 -323 473 -299 C 397 -275 330 -241 270 -197 L 412 0 C 460 -34 512 -59 568 -75 C 624 -91 678 -100 729 -100 C 774 -100 809 -92 834 -77 C 859 -62 872 -38 872 -4 C 872 12 867 26 859 38 C 850 50 833 62 809 75 C 785 87 750 101 706 117 C 662 133 604 152 532 176 C 464 198 404 222 352 247 C 300 272 256 301 221 335 C 185 368 158 406 140 450 C 122 494 113 546 113 606 C 113 648 118 687 130 721 C 142 755 158 786 178 814 C 198 842 221 866 248 888 C 275 909 304 928 336 944 C 322 967 312 993 306 1023 C 300 1052 297 1085 297 1122 C 297 1169 306 1213 324 1254 C 342 1294 369 1330 405 1360 C 441 1390 485 1413 538 1430 C 591 1447 653 1456 723 1456 C 806 1456 885 1443 960 1419 C 1035 1395 1103 1361 1163 1317 L 1022 1120 C 980 1150 929 1174 870 1193 C 811 1211 756 1221 705 1221 C 677 1221 654 1218 636 1213 C 618 1208 603 1201 592 1193 C 580 1185 572 1175 568 1163 C 563 1151 561 1138 561 1124 C 561 1108 565 1094 574 1082 C 582 1070 599 1057 623 1045 C 647 1032 682 1018 726 1002 C 770 986 829 967 901 944 C 968 921 1028 897 1080 872 C 1132 847 1176 818 1212 785 C 1248 752 1275 714 1293 670 C 1311 626 1321 574 1321 514 Z M 1047 494 C 1047 522 1038 547 1022 568 C 1006 589 984 608 958 624 C 931 640 901 654 867 667 C 833 679 798 692 762 705 C 712 721 667 736 627 752 C 586 768 550 783 518 799 C 474 780 442 757 420 730 C 398 702 387 668 387 627 C 387 597 395 572 411 551 C 427 530 449 512 475 496 C 501 480 532 465 566 453 C 600 440 636 428 672 416 C 721 399 766 383 806 368 C 846 352 883 337 915 322 C 958 340 991 362 1013 390 C 1035 418 1047 452 1047 494 Z" unicode="§" />
<glyph horiz-adv-x="1024" d="M 893 1376 C 893 1354 888 1334 880 1316 C 871 1297 859 1280 845 1266 C 831 1251 814 1239 795 1231 C 775 1223 755 1219 735 1219 C 713 1219 692 1223 672 1231 C 652 1239 635 1251 621 1266 C 606 1280 594 1297 586 1316 C 577 1334 573 1354 573 1376 C 573 1398 577 1418 586 1438 C 594 1457 606 1474 621 1489 C 635 1503 652 1515 672 1523 C 692 1531 713 1536 735 1536 C 755 1536 775 1531 795 1523 C 814 1515 831 1503 845 1489 C 859 1474 871 1457 880 1438 C 888 1418 893 1398 893 1376 Z M 451 1376 C 451 1354 446 1334 438 1316 C 429 1297 417 1280 403 1266 C 388 1251 371 1239 352 1231 C 332 1223 312 1219 291 1219 C 269 1219 249 1223 230 1231 C 210 1239 193 1251 179 1266 C 164 1280 152 1297 144 1316 C 135 1334 131 1354 131 1376 C 131 1398 135 1418 144 1438 C 152 1457 164 1474 179 1489 C 193 1503 210 1515 230 1523 C 249 1531 269 1536 291 1536 C 312 1536 332 1531 352 1523 C 371 1515 388 1503 403 1489 C 417 1474 429 1457 438 1438 C 446 1418 451 1398 451 1376 Z" unicode="¨" />
<glyph horiz-adv-x="1712" d="M 1595 717 C 1595 611 1576 514 1538 424 C 1500 334 1449 255 1383 189 C 1317 123 1239 71 1149 33 C 1059 -4 961 -23 856 -23 C 750 -23 653 -4 563 33 C 473 71 395 123 329 189 C 263 255 211 334 173 424 C 135 514 117 611 117 717 C 117 822 135 920 173 1010 C 211 1100 263 1178 329 1244 C 395 1310 473 1362 564 1400 C 655 1437 752 1456 856 1456 C 961 1456 1059 1437 1150 1399 C 1240 1361 1318 1309 1384 1243 C 1449 1177 1500 1100 1538 1010 C 1576 920 1595 822 1595 717 Z M 1464 717 C 1464 803 1448 884 1417 958 C 1386 1032 1343 1096 1289 1150 C 1235 1204 1171 1247 1097 1278 C 1023 1309 942 1325 856 1325 C 769 1325 689 1309 615 1278 C 541 1247 476 1204 422 1150 C 368 1096 325 1032 294 958 C 263 884 248 803 248 717 C 248 630 263 550 294 476 C 325 402 368 337 422 283 C 476 229 541 186 615 155 C 689 124 769 109 856 109 C 942 109 1023 124 1097 155 C 1171 186 1235 229 1289 283 C 1343 337 1386 402 1417 476 C 1448 550 1464 630 1464 717 Z M 1001 870 C 985 899 966 921 945 937 C 924 953 898 961 866 961 C 844 961 822 956 802 947 C 781 938 763 923 749 903 C 734 882 723 857 716 827 C 708 797 705 762 705 721 C 705 679 708 643 716 614 C 724 585 735 560 751 540 C 767 519 784 504 804 496 C 824 487 845 483 868 483 C 898 483 924 492 947 510 C 970 528 992 554 1014 588 L 1157 489 C 1125 429 1085 384 1039 352 C 992 320 934 305 864 305 C 811 305 763 314 720 334 C 676 354 639 382 609 418 C 578 454 554 497 537 549 C 520 600 512 657 512 721 C 512 781 520 837 538 889 C 555 940 579 984 611 1021 C 643 1058 680 1087 724 1108 C 768 1128 816 1139 868 1139 C 937 1139 996 1124 1046 1094 C 1095 1064 1134 1019 1163 961 L 1001 870 Z" unicode="©" />
<glyph horiz-adv-x="977" d="M 627 565 L 627 629 C 603 604 574 584 540 570 C 505 556 467 549 426 549 C 385 549 345 555 306 567 C 267 579 232 598 202 624 C 171 650 146 682 128 721 C 109 759 100 805 100 858 C 100 906 109 948 127 984 C 145 1020 171 1051 203 1075 C 235 1099 272 1117 315 1129 C 358 1141 405 1147 455 1147 C 495 1147 529 1143 557 1136 C 585 1129 608 1121 627 1112 L 627 1155 C 627 1187 616 1214 594 1236 C 572 1258 540 1270 498 1270 C 442 1270 397 1265 362 1255 C 327 1245 292 1230 256 1210 L 170 1370 C 222 1398 272 1420 322 1434 C 371 1448 430 1456 498 1456 C 550 1456 598 1449 642 1436 C 685 1422 722 1403 753 1377 C 783 1351 807 1319 824 1281 C 841 1243 850 1199 850 1151 L 850 565 L 627 565 Z M 627 934 C 605 946 583 954 559 960 C 535 966 503 969 463 969 C 419 969 385 959 361 940 C 337 921 326 894 326 858 C 326 821 338 792 362 770 C 386 748 419 737 463 737 C 494 737 525 744 555 760 C 585 775 609 795 627 821 L 627 934 Z" unicode="ª" />
<glyph horiz-adv-x="1286" d="M 911 0 L 578 537 L 911 1075 L 1204 1075 L 881 539 L 1204 0 L 911 0 Z M 395 0 L 61 537 L 395 1075 L 688 1075 L 365 539 L 688 0 L 395 0 Z" unicode="«" />
<glyph horiz-adv-x="1270" d="M 1150 182 L 869 182 L 869 571 L 120 571 L 120 838 L 1150 838 L 1150 182 Z" unicode="¬" />
<glyph horiz-adv-x="834" d="M 123 602 L 123 885 L 711 885 L 711 602 L 123 602 Z" unicode="­" />
<glyph horiz-adv-x="1712" d="M 1595 717 C 1595 611 1576 514 1538 424 C 1500 334 1449 255 1383 189 C 1317 123 1239 71 1149 33 C 1059 -4 961 -23 856 -23 C 750 -23 653 -4 563 33 C 473 71 395 123 329 189 C 263 255 211 334 173 424 C 135 514 117 611 117 717 C 117 822 135 920 173 1010 C 211 1100 263 1178 329 1244 C 395 1310 473 1362 564 1400 C 655 1437 752 1456 856 1456 C 961 1456 1059 1437 1150 1399 C 1240 1361 1318 1309 1384 1243 C 1449 1177 1500 1100 1538 1010 C 1576 920 1595 822 1595 717 Z M 1464 717 C 1464 803 1448 884 1417 958 C 1386 1032 1343 1096 1289 1150 C 1235 1204 1171 1247 1097 1278 C 1023 1309 942 1325 856 1325 C 769 1325 689 1309 615 1278 C 541 1247 476 1204 422 1150 C 368 1096 325 1032 294 958 C 263 884 248 803 248 717 C 248 630 263 550 294 476 C 325 402 368 337 422 283 C 476 229 541 186 615 155 C 689 124 769 109 856 109 C 942 109 1023 124 1097 155 C 1171 186 1235 229 1289 283 C 1343 337 1386 402 1417 476 C 1448 550 1464 630 1464 717 Z M 1208 881 C 1208 824 1195 776 1170 736 C 1145 696 1105 666 1049 645 L 1204 328 L 1012 328 L 866 623 L 727 623 L 727 328 L 557 328 L 557 1135 L 932 1135 C 970 1135 1006 1129 1040 1119 C 1074 1109 1103 1093 1128 1072 C 1152 1051 1172 1025 1186 993 C 1200 961 1208 923 1208 881 Z M 1034 877 C 1034 913 1024 939 1004 955 C 984 971 956 979 920 979 L 727 979 L 727 772 L 920 772 C 956 772 984 781 1004 799 C 1024 817 1034 843 1034 877 Z" unicode="®" />
<glyph horiz-adv-x="1024" d="M 215 1249 L 215 1464 L 809 1464 L 809 1249 L 215 1249 Z" unicode="¯" />
<glyph horiz-adv-x="995" d="M 903 1053 C 903 995 892 941 872 891 C 851 841 822 798 786 762 C 750 725 707 696 658 676 C 608 655 555 645 498 645 C 440 645 387 655 338 676 C 288 696 245 725 209 762 C 173 798 144 841 123 891 C 102 941 92 995 92 1053 C 92 1109 102 1161 123 1210 C 144 1259 173 1302 209 1338 C 245 1374 288 1403 338 1424 C 387 1445 440 1456 498 1456 C 555 1456 608 1445 658 1424 C 707 1403 750 1374 786 1338 C 822 1302 851 1259 872 1210 C 892 1161 903 1109 903 1053 Z M 688 1053 C 688 1079 683 1103 673 1126 C 663 1149 650 1169 633 1187 C 616 1204 596 1218 573 1228 C 549 1238 524 1243 498 1243 C 471 1243 446 1238 423 1228 C 399 1218 379 1204 362 1187 C 345 1169 332 1149 322 1126 C 312 1103 307 1079 307 1053 C 307 1025 312 999 322 975 C 332 951 345 931 362 914 C 379 896 399 883 423 873 C 446 863 471 858 498 858 C 524 858 549 863 573 873 C 596 883 616 896 633 914 C 650 931 663 951 673 975 C 683 999 688 1025 688 1053 Z" unicode="°" />
<glyph horiz-adv-x="1270" d="M 775 797 L 775 428 L 494 428 L 494 797 L 120 797 L 120 1063 L 494 1063 L 494 1432 L 775 1432 L 775 1063 L 1150 1063 L 1150 797 L 775 797 Z M 120 61 L 120 311 L 1150 311 L 1150 61 L 120 61 Z" unicode="±" />
<glyph horiz-adv-x="850" d="M 72 530 C 74 603 84 666 101 719 C 117 771 140 817 169 857 C 197 897 232 932 272 962 C 312 992 356 1021 406 1049 C 432 1063 454 1076 471 1088 C 488 1099 501 1110 511 1120 C 521 1130 527 1141 531 1151 C 535 1161 537 1173 537 1186 C 537 1210 527 1229 508 1243 C 489 1257 462 1264 426 1264 C 404 1264 384 1262 364 1258 C 344 1254 325 1249 306 1241 C 287 1233 268 1224 249 1212 C 229 1200 209 1185 188 1169 L 78 1333 C 105 1352 132 1369 159 1384 C 185 1399 213 1412 241 1422 C 269 1432 299 1440 330 1446 C 360 1451 394 1454 430 1454 C 480 1454 525 1448 565 1437 C 605 1426 640 1409 670 1385 C 700 1361 721 1332 733 1300 C 745 1268 752 1233 752 1196 C 752 1164 748 1135 741 1109 C 733 1083 721 1059 704 1037 C 687 1014 664 992 636 971 C 608 949 572 927 530 903 C 496 883 466 866 442 850 C 418 834 397 819 381 805 C 365 791 351 777 341 765 C 331 752 323 739 317 725 L 760 725 L 760 530 L 72 530 Z" unicode="²" />
<glyph horiz-adv-x="801" d="M 373 518 C 305 518 241 531 182 558 C 123 584 70 621 23 668 L 150 809 C 188 775 225 749 261 732 C 297 715 335 707 377 707 C 427 707 464 716 489 734 C 513 752 526 779 526 815 C 526 849 514 873 490 889 C 466 905 432 913 389 913 L 272 913 L 272 1094 L 383 1094 C 420 1094 447 1101 464 1116 C 480 1131 489 1154 489 1184 C 489 1209 479 1230 460 1246 C 441 1262 410 1270 367 1270 C 331 1270 299 1262 269 1248 C 239 1234 207 1212 172 1184 L 51 1327 C 94 1365 141 1395 193 1419 C 245 1442 304 1454 371 1454 C 419 1454 464 1449 505 1439 C 546 1429 581 1413 611 1392 C 641 1371 664 1345 680 1313 C 696 1281 705 1242 705 1198 C 705 1154 696 1118 680 1090 C 663 1062 639 1038 608 1020 C 628 1011 647 1000 663 988 C 679 976 693 961 705 944 C 717 927 725 908 731 887 C 736 865 739 842 739 817 C 739 767 730 724 713 687 C 696 650 672 619 641 594 C 609 568 571 549 526 537 C 480 524 429 518 373 518 Z" unicode="³" />
<glyph horiz-adv-x="1024" d="M 522 1219 L 283 1219 L 461 1546 L 819 1546 L 522 1219 Z" unicode="´" />
<glyph horiz-adv-x="1206" d="M 786 0 L 786 72 C 761 46 727 23 684 5 C 641 -13 591 -23 535 -23 C 524 -23 509 -22 489 -21 C 469 -19 446 -16 420 -10 L 420 -254 L 137 -395 L 137 1075 L 420 1075 L 420 494 C 420 446 424 405 432 373 C 440 341 451 315 467 296 C 482 277 501 264 524 256 C 546 248 572 244 602 244 C 631 244 657 248 680 256 C 702 264 721 277 737 296 C 753 314 765 339 773 370 C 781 401 786 440 786 487 L 786 1075 L 1069 1075 L 1069 0 L 786 0 Z" unicode="µ" />
<glyph horiz-adv-x="1483" d="M 1067 -379 L 1067 1217 L 936 1217 L 936 -379 L 702 -379 L 702 535 L 561 535 C 497 535 438 544 382 564 C 326 584 276 613 234 651 C 191 689 157 737 133 793 C 108 849 96 913 96 985 C 96 1057 108 1120 133 1176 C 158 1232 192 1279 234 1317 C 276 1355 326 1384 382 1404 C 438 1424 498 1434 561 1434 L 1300 1434 L 1300 -379 L 1067 -379 Z" unicode="¶" />
<glyph horiz-adv-x="557" d="M 471 752 C 471 726 465 701 455 677 C 445 653 431 633 414 616 C 396 598 376 584 352 574 C 328 564 304 559 278 559 C 252 559 227 564 204 574 C 180 584 160 598 143 616 C 125 633 111 653 101 677 C 91 701 86 726 86 752 C 86 778 91 802 101 826 C 111 849 125 869 143 887 C 160 904 180 918 204 928 C 227 938 252 944 278 944 C 304 944 328 938 352 928 C 376 918 396 904 414 887 C 431 869 445 849 455 826 C 465 802 471 778 471 752 Z" unicode="·" />
<glyph horiz-adv-x="1024" d="M 453 76 L 567 76 L 532 -86 C 540 -82 551 -78 564 -76 C 576 -73 592 -72 612 -72 C 634 -72 654 -74 674 -80 C 693 -86 710 -95 725 -107 C 739 -119 751 -134 759 -152 C 767 -170 772 -192 772 -217 C 772 -247 766 -274 754 -296 C 742 -318 726 -337 705 -352 C 683 -366 658 -377 628 -384 C 598 -391 564 -395 528 -395 C 472 -395 422 -387 377 -373 C 332 -359 293 -342 260 -322 L 303 -244 C 369 -276 429 -293 485 -293 C 521 -293 548 -287 567 -275 C 586 -263 596 -246 596 -223 C 596 -202 589 -188 576 -181 C 563 -173 548 -170 532 -170 C 508 -169 488 -174 471 -184 L 397 -156 L 453 76 Z" unicode="¸" />
<glyph horiz-adv-x="625" d="M 244 1161 L 94 1161 L 94 1315 C 122 1317 146 1320 166 1324 C 186 1328 204 1335 219 1344 C 234 1353 246 1365 256 1379 C 265 1393 273 1412 279 1434 L 459 1434 L 459 524 L 244 524 L 244 1161 Z" unicode="¹" />
<glyph horiz-adv-x="1006" d="M 897 1001 C 897 934 887 873 867 818 C 847 762 819 715 784 675 C 749 635 707 604 659 582 C 611 560 558 549 502 549 C 444 549 392 560 344 582 C 296 604 254 635 220 675 C 185 715 158 762 138 818 C 118 873 109 934 109 1001 C 109 1067 118 1128 138 1184 C 158 1240 185 1288 220 1328 C 254 1368 296 1400 344 1422 C 392 1444 444 1456 502 1456 C 558 1456 611 1444 659 1422 C 707 1400 749 1368 784 1328 C 819 1288 847 1240 867 1184 C 887 1128 897 1067 897 1001 Z M 664 1001 C 664 1034 660 1065 654 1094 C 647 1122 637 1147 623 1168 C 609 1189 592 1205 572 1217 C 552 1229 528 1235 502 1235 C 474 1235 450 1229 430 1217 C 410 1205 393 1189 380 1169 C 366 1148 356 1123 350 1095 C 343 1066 340 1035 340 1001 C 340 967 343 936 350 908 C 356 880 366 855 380 835 C 393 814 410 798 430 787 C 450 775 474 770 502 770 C 528 770 552 776 572 789 C 592 801 609 818 623 840 C 637 862 647 886 654 914 C 660 942 664 971 664 1001 Z" unicode="º" />
<glyph horiz-adv-x="1286" d="M 891 0 L 598 0 L 922 537 L 598 1075 L 891 1075 L 1225 539 L 891 0 Z M 375 0 L 82 0 L 406 537 L 82 1075 L 375 1075 L 709 539 L 375 0 Z" unicode="»" />
<glyph horiz-adv-x="1905" d="M 284 1161 L 134 1161 L 134 1315 C 162 1317 186 1320 206 1324 C 226 1328 244 1335 259 1344 C 274 1353 286 1365 296 1379 C 305 1393 313 1412 319 1434 L 499 1434 L 499 524 L 284 524 L 284 1161 Z M 564 0 L 261 0 L 1222 1434 L 1525 1434 L 564 0 Z M 1461 189 L 988 189 L 988 341 L 1455 910 L 1664 910 L 1664 370 L 1777 370 L 1777 185 L 1664 185 L 1664 1 L 1461 1 L 1461 189 Z M 1461 370 L 1461 648 L 1238 370 L 1461 370 Z" unicode="¼" />
<glyph horiz-adv-x="1905" d="M 262 1161 L 112 1161 L 112 1315 C 140 1317 164 1320 184 1324 C 204 1328 222 1335 237 1344 C 252 1353 264 1365 274 1379 C 283 1393 291 1412 297 1434 L 477 1434 L 477 524 L 262 524 L 262 1161 Z M 512 0 L 209 0 L 1170 1434 L 1473 1434 L 512 0 Z M 1103 0 C 1105 73 1115 136 1132 189 C 1148 241 1171 287 1200 327 C 1228 367 1263 402 1303 432 C 1343 462 1387 491 1437 519 C 1463 533 1485 546 1502 558 C 1519 569 1532 580 1542 590 C 1552 600 1558 611 1562 621 C 1566 631 1568 643 1568 656 C 1568 680 1558 699 1539 713 C 1520 727 1493 734 1457 734 C 1435 734 1415 732 1395 728 C 1375 724 1356 719 1337 711 C 1318 703 1299 694 1280 682 C 1260 670 1240 655 1219 639 L 1109 803 C 1136 822 1163 839 1190 854 C 1216 869 1244 882 1272 892 C 1300 902 1330 910 1361 916 C 1391 921 1425 924 1461 924 C 1511 924 1556 918 1596 907 C 1636 896 1671 879 1701 855 C 1731 831 1752 802 1764 770 C 1776 738 1783 703 1783 666 C 1783 634 1779 605 1772 579 C 1764 553 1752 529 1735 507 C 1718 484 1695 462 1667 441 C 1639 419 1603 397 1561 373 C 1527 353 1497 336 1473 320 C 1449 304 1428 289 1412 275 C 1396 261 1382 247 1372 235 C 1362 222 1354 209 1348 195 L 1791 195 L 1791 0 L 1103 0 Z" unicode="½" />
<glyph horiz-adv-x="1905" d="M 421 518 C 353 518 289 531 230 558 C 171 584 118 621 71 668 L 198 809 C 236 775 273 749 309 732 C 345 715 383 707 425 707 C 475 707 512 716 537 734 C 561 752 574 779 574 815 C 574 849 562 873 538 889 C 514 905 480 913 437 913 L 320 913 L 320 1094 L 431 1094 C 468 1094 495 1101 512 1116 C 528 1131 537 1154 537 1184 C 537 1209 527 1230 508 1246 C 489 1262 458 1270 415 1270 C 379 1270 347 1262 317 1248 C 287 1234 255 1212 220 1184 L 99 1327 C 142 1365 189 1395 241 1419 C 293 1442 352 1454 419 1454 C 467 1454 512 1449 553 1439 C 594 1429 629 1413 659 1392 C 689 1371 712 1345 728 1313 C 744 1281 753 1242 753 1198 C 753 1154 744 1118 728 1090 C 711 1062 687 1038 656 1020 C 676 1011 695 1000 711 988 C 727 976 741 961 753 944 C 765 927 773 908 779 887 C 784 865 787 842 787 817 C 787 767 778 724 761 687 C 744 650 720 619 689 594 C 657 568 619 549 574 537 C 528 524 477 518 421 518 Z M 703 0 L 400 0 L 1361 1434 L 1664 1434 L 703 0 Z M 1516 188 L 1043 188 L 1043 340 L 1510 909 L 1719 909 L 1719 369 L 1832 369 L 1832 184 L 1719 184 L 1719 0 L 1516 0 L 1516 188 Z M 1516 369 L 1516 647 L 1293 369 L 1516 369 Z" unicode="¾" />
<glyph horiz-adv-x="1196" d="M 819 1282 C 819 1258 814 1236 805 1215 C 795 1194 783 1176 767 1160 C 751 1144 732 1131 711 1122 C 690 1112 668 1108 645 1108 C 621 1108 599 1112 578 1122 C 557 1131 539 1144 523 1160 C 507 1176 494 1194 485 1215 C 475 1236 471 1258 471 1282 C 471 1305 475 1327 485 1348 C 494 1369 507 1388 523 1404 C 539 1420 557 1432 578 1442 C 599 1451 621 1456 645 1456 C 668 1456 690 1451 711 1442 C 732 1432 751 1420 767 1404 C 783 1388 795 1369 805 1348 C 814 1327 819 1305 819 1282 Z M 1151 215 C 1119 182 1085 151 1047 122 C 1009 93 967 68 922 47 C 877 25 828 8 776 -4 C 724 -16 668 -23 608 -23 C 530 -23 458 -14 393 2 C 328 19 272 45 226 79 C 179 113 143 157 117 209 C 91 261 78 323 78 395 C 78 443 84 485 96 522 C 108 558 124 590 144 618 C 164 645 186 668 211 687 C 235 705 260 721 285 733 C 327 753 363 772 391 790 C 419 807 441 825 457 843 C 473 861 485 882 493 904 C 500 926 504 953 506 983 L 786 983 C 786 934 781 890 773 850 C 765 810 750 773 728 739 C 706 705 677 673 640 644 C 603 615 556 587 498 561 C 472 549 450 537 433 527 C 416 517 403 506 393 494 C 383 482 375 470 371 456 C 367 442 365 426 365 408 C 365 384 369 362 378 344 C 387 326 401 310 421 297 C 440 284 465 274 496 268 C 527 261 564 258 608 258 C 646 258 682 262 716 271 C 750 279 781 291 811 307 C 840 322 867 340 893 361 C 919 382 943 405 967 430 L 1151 215 Z" unicode="¿" />
<glyph horiz-adv-x="1536" d="M 1454 0 L 1139 0 L 1026 319 L 502 319 L 389 0 L 82 0 L 631 1434 L 909 1434 L 1454 0 Z M 928 592 L 764 1059 L 600 592 L 928 592 Z M 676 1526 L 379 1853 L 737 1853 L 915 1526 L 676 1526 Z" unicode="À" />
<glyph horiz-adv-x="1536" d="M 1454 0 L 1139 0 L 1026 319 L 502 319 L 389 0 L 82 0 L 631 1434 L 909 1434 L 1454 0 Z M 928 592 L 764 1059 L 600 592 L 928 592 Z M 839 1526 L 600 1526 L 778 1853 L 1136 1853 L 839 1526 Z" unicode="Á" />
<glyph horiz-adv-x="1536" d="M 1454 0 L 1139 0 L 1026 319 L 502 319 L 389 0 L 82 0 L 631 1434 L 909 1434 L 1454 0 Z M 928 592 L 764 1059 L 600 592 L 928 592 Z M 969 1526 L 764 1679 L 559 1526 L 373 1526 L 623 1853 L 909 1853 L 1159 1526 L 969 1526 Z" unicode="Â" />
<glyph horiz-adv-x="1536" d="M 1454 0 L 1139 0 L 1026 319 L 502 319 L 389 0 L 82 0 L 631 1434 L 909 1434 L 1454 0 Z M 928 592 L 764 1059 L 600 592 L 928 592 Z M 1174 1814 C 1174 1768 1168 1727 1156 1691 C 1144 1654 1128 1623 1108 1598 C 1087 1572 1062 1553 1033 1539 C 1004 1525 972 1519 938 1519 C 916 1519 897 1520 881 1522 C 864 1524 848 1528 833 1533 C 817 1538 802 1545 786 1553 C 770 1561 751 1571 731 1583 C 715 1592 698 1601 679 1610 C 660 1619 642 1624 625 1624 C 605 1624 590 1616 580 1602 C 569 1587 561 1562 555 1526 L 371 1526 C 371 1571 376 1612 388 1648 C 399 1684 415 1715 436 1741 C 456 1766 481 1785 510 1799 C 539 1813 571 1820 606 1820 C 627 1820 646 1819 663 1817 C 679 1815 695 1811 711 1806 C 726 1801 742 1795 758 1787 C 774 1779 792 1769 813 1757 C 829 1747 846 1738 865 1729 C 883 1720 902 1716 920 1716 C 939 1716 954 1723 964 1738 C 974 1752 983 1778 989 1814 L 1174 1814 Z" unicode="Ã" />
<glyph horiz-adv-x="1536" d="M 1454 0 L 1139 0 L 1026 319 L 502 319 L 389 0 L 82 0 L 631 1434 L 909 1434 L 1454 0 Z M 928 592 L 764 1059 L 600 592 L 928 592 Z M 1147 1683 C 1147 1661 1142 1641 1134 1623 C 1125 1604 1113 1587 1099 1573 C 1085 1558 1068 1546 1049 1538 C 1029 1530 1009 1526 989 1526 C 967 1526 946 1530 926 1538 C 906 1546 889 1558 875 1573 C 860 1587 848 1604 840 1623 C 831 1641 827 1661 827 1683 C 827 1705 831 1725 840 1745 C 848 1764 860 1781 875 1796 C 889 1810 906 1822 926 1830 C 946 1838 967 1843 989 1843 C 1009 1843 1029 1838 1049 1830 C 1068 1822 1085 1810 1099 1796 C 1113 1781 1125 1764 1134 1745 C 1142 1725 1147 1705 1147 1683 Z M 705 1683 C 705 1661 700 1641 692 1623 C 683 1604 671 1587 657 1573 C 642 1558 625 1546 606 1538 C 586 1530 566 1526 545 1526 C 523 1526 503 1530 484 1538 C 464 1546 447 1558 433 1573 C 418 1587 406 1604 398 1623 C 389 1641 385 1661 385 1683 C 385 1705 389 1725 398 1745 C 406 1764 418 1781 433 1796 C 447 1810 464 1822 484 1830 C 503 1838 523 1843 545 1843 C 566 1843 586 1838 606 1830 C 625 1822 642 1810 657 1796 C 671 1781 683 1764 692 1745 C 700 1725 705 1705 705 1683 Z" unicode="Ä" />
<glyph horiz-adv-x="1536" d="M 1139 0 L 1026 319 L 502 319 L 389 0 L 82 0 L 586 1317 C 556 1341 534 1371 518 1407 C 502 1443 494 1482 494 1526 C 494 1565 501 1601 515 1635 C 529 1669 548 1698 573 1723 C 597 1747 626 1767 660 1781 C 694 1795 730 1802 770 1802 C 809 1802 846 1795 880 1781 C 914 1767 943 1747 968 1723 C 992 1698 1012 1669 1026 1635 C 1040 1601 1047 1565 1047 1526 C 1047 1482 1038 1443 1022 1407 C 1005 1371 982 1341 952 1317 L 1454 0 L 1139 0 Z M 891 1526 C 891 1543 887 1559 881 1574 C 875 1589 866 1602 856 1613 C 845 1624 832 1633 817 1639 C 802 1645 786 1649 770 1649 C 752 1649 736 1645 722 1639 C 707 1633 694 1624 684 1613 C 673 1602 664 1589 658 1574 C 652 1559 649 1543 649 1526 C 649 1508 652 1492 658 1477 C 664 1462 673 1449 684 1438 C 694 1427 707 1418 722 1412 C 736 1406 752 1403 770 1403 C 786 1403 802 1406 817 1412 C 832 1418 845 1427 856 1438 C 866 1449 875 1462 881 1477 C 887 1492 891 1508 891 1526 Z M 928 592 L 764 1059 L 600 592 L 928 592 Z" unicode="Å" />
<glyph horiz-adv-x="2126" d="M 1974 1434 L 1974 1159 L 1307 1159 L 1307 901 L 1841 901 L 1841 631 L 1307 631 L 1307 274 L 2005 274 L 2005 0 L 1032 0 L 1032 256 L 522 256 L 356 0 L 29 0 L 991 1434 L 1974 1434 Z M 686 508 L 1032 508 L 1032 1040 L 686 508 Z" unicode="Æ" />
<glyph horiz-adv-x="1372" d="M 1004 1016 C 988 1046 972 1069 958 1085 C 943 1100 925 1114 904 1128 C 882 1142 859 1152 833 1160 C 807 1167 776 1171 741 1171 C 687 1171 639 1159 597 1137 C 555 1115 520 1084 491 1044 C 462 1004 440 956 425 900 C 410 844 403 783 403 717 C 403 652 410 592 426 537 C 441 481 463 433 492 393 C 521 352 557 320 599 297 C 641 273 689 262 743 262 C 801 262 852 274 895 300 C 938 325 981 373 1024 444 L 1266 301 C 1241 250 1212 205 1178 165 C 1144 125 1105 91 1061 63 C 1017 35 967 13 913 -1 C 859 -15 799 -23 735 -23 C 669 -23 610 -15 556 0 C 502 16 452 39 405 69 C 357 99 315 135 279 179 C 242 222 213 267 191 314 C 169 360 149 417 133 485 C 117 553 109 630 109 717 C 109 825 124 925 156 1016 C 187 1106 231 1184 287 1250 C 343 1315 410 1366 488 1402 C 566 1438 651 1456 745 1456 C 865 1456 970 1429 1059 1377 C 1147 1325 1218 1245 1270 1139 L 1004 1016 Z M 657 76 L 771 76 L 736 -86 C 744 -82 755 -78 768 -76 C 780 -73 796 -72 816 -72 C 838 -72 858 -74 878 -80 C 897 -86 914 -95 929 -107 C 943 -119 955 -134 963 -152 C 971 -170 976 -192 976 -217 C 976 -247 970 -274 958 -296 C 946 -318 930 -337 909 -352 C 887 -366 862 -377 832 -384 C 802 -391 768 -395 732 -395 C 676 -395 626 -387 581 -373 C 536 -359 497 -342 464 -322 L 507 -244 C 573 -276 633 -293 689 -293 C 725 -293 752 -287 771 -275 C 790 -263 800 -246 800 -223 C 800 -202 793 -188 780 -181 C 767 -173 752 -170 736 -170 C 712 -169 692 -174 675 -184 L 601 -156 L 657 76 Z" unicode="Ç" />
<glyph horiz-adv-x="1331" d="M 1210 0 L 184 0 L 184 1434 L 1180 1434 L 1180 1153 L 471 1153 L 471 905 L 1047 905 L 1047 627 L 471 627 L 471 281 L 1210 281 L 1210 0 Z M 598 1526 L 301 1853 L 659 1853 L 837 1526 L 598 1526 Z" unicode="È" />
<glyph horiz-adv-x="1331" d="M 1210 0 L 184 0 L 184 1434 L 1180 1434 L 1180 1153 L 471 1153 L 471 905 L 1047 905 L 1047 627 L 471 627 L 471 281 L 1210 281 L 1210 0 Z M 762 1526 L 523 1526 L 701 1853 L 1059 1853 L 762 1526 Z" unicode="É" />
<glyph horiz-adv-x="1331" d="M 1210 0 L 184 0 L 184 1434 L 1180 1434 L 1180 1153 L 471 1153 L 471 905 L 1047 905 L 1047 627 L 471 627 L 471 281 L 1210 281 L 1210 0 Z M 891 1526 L 686 1679 L 481 1526 L 295 1526 L 545 1853 L 831 1853 L 1081 1526 L 891 1526 Z" unicode="Ê" />
<glyph horiz-adv-x="1331" d="M 1210 0 L 184 0 L 184 1434 L 1180 1434 L 1180 1153 L 471 1153 L 471 905 L 1047 905 L 1047 627 L 471 627 L 471 281 L 1210 281 L 1210 0 Z M 1069 1683 C 1069 1661 1064 1641 1056 1623 C 1047 1604 1035 1587 1021 1573 C 1007 1558 990 1546 971 1538 C 951 1530 931 1526 911 1526 C 889 1526 868 1530 848 1538 C 828 1546 811 1558 797 1573 C 782 1587 770 1604 762 1623 C 753 1641 749 1661 749 1683 C 749 1705 753 1725 762 1745 C 770 1764 782 1781 797 1796 C 811 1810 828 1822 848 1830 C 868 1838 889 1843 911 1843 C 931 1843 951 1838 971 1830 C 990 1822 1007 1810 1021 1796 C 1035 1781 1047 1764 1056 1745 C 1064 1725 1069 1705 1069 1683 Z M 627 1683 C 627 1661 622 1641 614 1623 C 605 1604 593 1587 579 1573 C 564 1558 547 1546 528 1538 C 508 1530 488 1526 467 1526 C 445 1526 425 1530 406 1538 C 386 1546 369 1558 355 1573 C 340 1587 328 1604 320 1623 C 311 1641 307 1661 307 1683 C 307 1705 311 1725 320 1745 C 328 1764 340 1781 355 1796 C 369 1810 386 1822 406 1830 C 425 1838 445 1843 467 1843 C 488 1843 508 1838 528 1830 C 547 1822 564 1810 579 1796 C 593 1781 605 1764 614 1745 C 622 1725 627 1705 627 1683 Z" unicode="Ë" />
<glyph horiz-adv-x="696" d="M 205 0 L 205 1434 L 492 1434 L 492 0 L 205 0 Z M 239 1526 L -58 1853 L 300 1853 L 478 1526 L 239 1526 Z" unicode="Ì" />
<glyph horiz-adv-x="696" d="M 205 0 L 205 1434 L 492 1434 L 492 0 L 205 0 Z M 443 1526 L 204 1526 L 382 1853 L 740 1853 L 443 1526 Z" unicode="Í" />
<glyph horiz-adv-x="696" d="M 205 0 L 205 1434 L 492 1434 L 492 0 L 205 0 Z M 552 1506 L 347 1659 L 142 1506 L -44 1506 L 206 1833 L 492 1833 L 742 1506 L 552 1506 Z" unicode="Î" />
<glyph horiz-adv-x="696" d="M 205 0 L 205 1434 L 492 1434 L 492 0 L 205 0 Z M 730 1673 C 730 1651 725 1631 717 1613 C 708 1594 696 1577 682 1563 C 668 1548 651 1536 632 1528 C 612 1520 592 1516 572 1516 C 550 1516 529 1520 509 1528 C 489 1536 472 1548 458 1563 C 443 1577 431 1594 423 1613 C 414 1631 410 1651 410 1673 C 410 1695 414 1715 423 1735 C 431 1754 443 1771 458 1786 C 472 1800 489 1812 509 1820 C 529 1828 550 1833 572 1833 C 592 1833 612 1828 632 1820 C 651 1812 668 1800 682 1786 C 696 1771 708 1754 717 1735 C 725 1715 730 1695 730 1673 Z M 288 1673 C 288 1651 283 1631 275 1613 C 266 1594 254 1577 240 1563 C 225 1548 208 1536 189 1528 C 169 1520 149 1516 128 1516 C 106 1516 86 1520 67 1528 C 47 1536 30 1548 16 1563 C 1 1577 -10 1594 -19 1613 C -27 1631 -32 1651 -32 1673 C -32 1695 -27 1715 -19 1735 C -10 1754 1 1771 16 1786 C 30 1800 47 1812 67 1820 C 86 1828 106 1833 128 1833 C 149 1833 169 1828 189 1820 C 208 1812 225 1800 240 1786 C 254 1771 266 1754 275 1735 C 283 1715 288 1695 288 1673 Z" unicode="Ï" />
<glyph horiz-adv-x="1479" d="M 1376 717 C 1376 608 1359 510 1326 423 C 1292 335 1243 260 1177 196 C 1111 132 1031 84 939 50 C 847 16 748 0 643 0 L 215 0 L 215 631 L 82 631 L 82 866 L 215 866 L 215 1434 L 664 1434 C 766 1434 860 1421 947 1395 C 1034 1369 1109 1328 1173 1272 C 1237 1215 1286 1141 1322 1050 C 1358 958 1376 847 1376 717 Z M 1081 717 C 1081 790 1072 854 1056 909 C 1040 963 1014 1009 980 1046 C 946 1082 902 1110 848 1128 C 794 1146 729 1155 653 1155 L 494 1155 L 494 866 L 686 866 L 686 631 L 494 631 L 494 279 L 643 279 C 718 279 783 289 838 310 C 893 331 939 361 975 399 C 1011 437 1037 484 1055 538 C 1072 592 1081 651 1081 717 Z" unicode="Ð" />
<glyph horiz-adv-x="1530" d="M 1346 0 L 1090 0 L 467 925 L 467 0 L 184 0 L 184 1434 L 459 1434 L 1063 532 L 1063 1434 L 1346 1434 L 1346 0 Z M 1174 1814 C 1174 1768 1168 1727 1156 1691 C 1144 1654 1128 1623 1108 1598 C 1087 1572 1062 1553 1033 1539 C 1004 1525 972 1519 938 1519 C 916 1519 897 1520 881 1522 C 864 1524 848 1528 833 1533 C 817 1538 802 1545 786 1553 C 770 1561 751 1571 731 1583 C 715 1592 698 1601 679 1610 C 660 1619 642 1624 625 1624 C 605 1624 590 1616 580 1602 C 569 1587 561 1562 555 1526 L 371 1526 C 371 1571 376 1612 388 1648 C 399 1684 415 1715 436 1741 C 456 1766 481 1785 510 1799 C 539 1813 571 1820 606 1820 C 627 1820 646 1819 663 1817 C 679 1815 695 1811 711 1806 C 726 1801 742 1795 758 1787 C 774 1779 792 1769 813 1757 C 829 1747 846 1738 865 1729 C 883 1720 902 1716 920 1716 C 939 1716 954 1723 964 1738 C 974 1752 983 1778 989 1814 L 1174 1814 Z" unicode="Ñ" />
<glyph horiz-adv-x="1473" d="M 1368 719 C 1368 603 1352 499 1321 407 C 1290 315 1247 238 1191 174 C 1135 110 1069 62 991 28 C 913 -6 828 -23 735 -23 C 641 -23 555 -6 478 27 C 400 60 334 108 279 172 C 223 235 180 312 150 404 C 119 495 104 599 104 715 C 104 831 119 934 150 1026 C 181 1118 225 1195 281 1259 C 337 1323 404 1371 482 1405 C 560 1439 645 1456 739 1456 C 832 1456 917 1439 994 1406 C 1071 1372 1137 1324 1193 1261 C 1248 1197 1291 1120 1322 1029 C 1352 938 1368 835 1368 719 Z M 1073 715 C 1073 787 1064 852 1048 909 C 1031 965 1008 1013 978 1052 C 948 1090 912 1120 870 1140 C 828 1160 783 1171 733 1171 C 683 1171 637 1161 596 1141 C 554 1121 519 1092 490 1054 C 461 1016 439 968 423 912 C 407 856 399 791 399 719 C 399 646 407 581 424 525 C 440 468 464 420 494 381 C 524 342 559 312 601 292 C 643 272 689 262 739 262 C 789 262 834 272 876 292 C 917 312 952 341 981 379 C 1010 417 1033 465 1049 521 C 1065 577 1073 642 1073 715 Z M 637 1526 L 340 1853 L 698 1853 L 876 1526 L 637 1526 Z" unicode="Ò" />
<glyph horiz-adv-x="1473" d="M 1368 719 C 1368 603 1352 499 1321 407 C 1290 315 1247 238 1191 174 C 1135 110 1069 62 991 28 C 913 -6 828 -23 735 -23 C 641 -23 555 -6 478 27 C 400 60 334 108 279 172 C 223 235 180 312 150 404 C 119 495 104 599 104 715 C 104 831 119 934 150 1026 C 181 1118 225 1195 281 1259 C 337 1323 404 1371 482 1405 C 560 1439 645 1456 739 1456 C 832 1456 917 1439 994 1406 C 1071 1372 1137 1324 1193 1261 C 1248 1197 1291 1120 1322 1029 C 1352 938 1368 835 1368 719 Z M 1073 715 C 1073 787 1064 852 1048 909 C 1031 965 1008 1013 978 1052 C 948 1090 912 1120 870 1140 C 828 1160 783 1171 733 1171 C 683 1171 637 1161 596 1141 C 554 1121 519 1092 490 1054 C 461 1016 439 968 423 912 C 407 856 399 791 399 719 C 399 646 407 581 424 525 C 440 468 464 420 494 381 C 524 342 559 312 601 292 C 643 272 689 262 739 262 C 789 262 834 272 876 292 C 917 312 952 341 981 379 C 1010 417 1033 465 1049 521 C 1065 577 1073 642 1073 715 Z M 801 1526 L 562 1526 L 740 1853 L 1098 1853 L 801 1526 Z" unicode="Ó" />
<glyph horiz-adv-x="1473" d="M 1368 719 C 1368 603 1352 499 1321 407 C 1290 315 1247 238 1191 174 C 1135 110 1069 62 991 28 C 913 -6 828 -23 735 -23 C 641 -23 555 -6 478 27 C 400 60 334 108 279 172 C 223 235 180 312 150 404 C 119 495 104 599 104 715 C 104 831 119 934 150 1026 C 181 1118 225 1195 281 1259 C 337 1323 404 1371 482 1405 C 560 1439 645 1456 739 1456 C 832 1456 917 1439 994 1406 C 1071 1372 1137 1324 1193 1261 C 1248 1197 1291 1120 1322 1029 C 1352 938 1368 835 1368 719 Z M 1073 715 C 1073 787 1064 852 1048 909 C 1031 965 1008 1013 978 1052 C 948 1090 912 1120 870 1140 C 828 1160 783 1171 733 1171 C 683 1171 637 1161 596 1141 C 554 1121 519 1092 490 1054 C 461 1016 439 968 423 912 C 407 856 399 791 399 719 C 399 646 407 581 424 525 C 440 468 464 420 494 381 C 524 342 559 312 601 292 C 643 272 689 262 739 262 C 789 262 834 272 876 292 C 917 312 952 341 981 379 C 1010 417 1033 465 1049 521 C 1065 577 1073 642 1073 715 Z M 930 1516 L 725 1669 L 520 1516 L 334 1516 L 584 1843 L 870 1843 L 1120 1516 L 930 1516 Z" unicode="Ô" />
<glyph horiz-adv-x="1473" d="M 1368 719 C 1368 603 1352 499 1321 407 C 1290 315 1247 238 1191 174 C 1135 110 1069 62 991 28 C 913 -6 828 -23 735 -23 C 641 -23 555 -6 478 27 C 400 60 334 108 279 172 C 223 235 180 312 150 404 C 119 495 104 599 104 715 C 104 831 119 934 150 1026 C 181 1118 225 1195 281 1259 C 337 1323 404 1371 482 1405 C 560 1439 645 1456 739 1456 C 832 1456 917 1439 994 1406 C 1071 1372 1137 1324 1193 1261 C 1248 1197 1291 1120 1322 1029 C 1352 938 1368 835 1368 719 Z M 1073 715 C 1073 787 1064 852 1048 909 C 1031 965 1008 1013 978 1052 C 948 1090 912 1120 870 1140 C 828 1160 783 1171 733 1171 C 683 1171 637 1161 596 1141 C 554 1121 519 1092 490 1054 C 461 1016 439 968 423 912 C 407 856 399 791 399 719 C 399 646 407 581 424 525 C 440 468 464 420 494 381 C 524 342 559 312 601 292 C 643 272 689 262 739 262 C 789 262 834 272 876 292 C 917 312 952 341 981 379 C 1010 417 1033 465 1049 521 C 1065 577 1073 642 1073 715 Z M 1135 1814 C 1135 1768 1129 1727 1117 1691 C 1105 1654 1089 1623 1069 1598 C 1048 1572 1023 1553 994 1539 C 965 1525 933 1519 899 1519 C 877 1519 858 1520 842 1522 C 825 1524 809 1528 794 1533 C 778 1538 763 1545 747 1553 C 731 1561 712 1571 692 1583 C 676 1592 659 1601 640 1610 C 621 1619 603 1624 586 1624 C 566 1624 551 1616 541 1602 C 530 1587 522 1562 516 1526 L 332 1526 C 332 1571 337 1612 349 1648 C 360 1684 376 1715 397 1741 C 417 1766 442 1785 471 1799 C 500 1813 532 1820 567 1820 C 588 1820 607 1819 624 1817 C 640 1815 656 1811 672 1806 C 687 1801 703 1795 719 1787 C 735 1779 753 1769 774 1757 C 790 1747 807 1738 826 1729 C 844 1720 863 1716 881 1716 C 900 1716 915 1723 925 1738 C 935 1752 944 1778 950 1814 L 1135 1814 Z" unicode="Õ" />
<glyph horiz-adv-x="1473" d="M 1368 719 C 1368 603 1352 499 1321 407 C 1290 315 1247 238 1191 174 C 1135 110 1069 62 991 28 C 913 -6 828 -23 735 -23 C 641 -23 555 -6 478 27 C 400 60 334 108 279 172 C 223 235 180 312 150 404 C 119 495 104 599 104 715 C 104 831 119 934 150 1026 C 181 1118 225 1195 281 1259 C 337 1323 404 1371 482 1405 C 560 1439 645 1456 739 1456 C 832 1456 917 1439 994 1406 C 1071 1372 1137 1324 1193 1261 C 1248 1197 1291 1120 1322 1029 C 1352 938 1368 835 1368 719 Z M 1073 715 C 1073 787 1064 852 1048 909 C 1031 965 1008 1013 978 1052 C 948 1090 912 1120 870 1140 C 828 1160 783 1171 733 1171 C 683 1171 637 1161 596 1141 C 554 1121 519 1092 490 1054 C 461 1016 439 968 423 912 C 407 856 399 791 399 719 C 399 646 407 581 424 525 C 440 468 464 420 494 381 C 524 342 559 312 601 292 C 643 272 689 262 739 262 C 789 262 834 272 876 292 C 917 312 952 341 981 379 C 1010 417 1033 465 1049 521 C 1065 577 1073 642 1073 715 Z M 1108 1683 C 1108 1661 1103 1641 1095 1623 C 1086 1604 1074 1587 1060 1573 C 1046 1558 1029 1546 1010 1538 C 990 1530 970 1526 950 1526 C 928 1526 907 1530 887 1538 C 867 1546 850 1558 836 1573 C 821 1587 809 1604 801 1623 C 792 1641 788 1661 788 1683 C 788 1705 792 1725 801 1745 C 809 1764 821 1781 836 1796 C 850 1810 867 1822 887 1830 C 907 1838 928 1843 950 1843 C 970 1843 990 1838 1010 1830 C 1029 1822 1046 1810 1060 1796 C 1074 1781 1086 1764 1095 1745 C 1103 1725 1108 1705 1108 1683 Z M 666 1683 C 666 1661 661 1641 653 1623 C 644 1604 632 1587 618 1573 C 603 1558 586 1546 567 1538 C 547 1530 527 1526 506 1526 C 484 1526 464 1530 445 1538 C 425 1546 408 1558 394 1573 C 379 1587 367 1604 359 1623 C 350 1641 346 1661 346 1683 C 346 1705 350 1725 359 1745 C 367 1764 379 1781 394 1796 C 408 1810 425 1822 445 1830 C 464 1838 484 1843 506 1843 C 527 1843 547 1838 567 1830 C 586 1822 603 1810 618 1796 C 632 1781 644 1764 653 1745 C 661 1725 666 1705 666 1683 Z" unicode="Ö" />
<glyph horiz-adv-x="1270" d="M 977 184 L 635 532 L 293 184 L 115 362 L 463 705 L 115 1047 L 293 1225 L 635 877 L 977 1225 L 1155 1047 L 807 705 L 1155 362 L 977 184 Z" unicode="×" />
<glyph horiz-adv-x="1473" d="M 1354 717 C 1354 607 1339 507 1311 417 C 1283 326 1242 248 1189 183 C 1135 118 1070 67 993 31 C 916 -4 829 -23 731 -23 C 667 -23 596 -10 520 16 L 463 -102 L 193 -102 L 317 152 C 252 218 201 298 164 394 C 127 489 109 597 109 717 C 109 825 123 925 151 1016 C 179 1106 219 1184 273 1250 C 326 1315 391 1366 468 1402 C 545 1438 633 1456 731 1456 C 803 1456 870 1443 934 1419 L 991 1536 L 1262 1536 L 1141 1286 C 1173 1254 1202 1218 1228 1178 C 1254 1138 1278 1091 1298 1038 C 1318 985 1332 933 1341 882 C 1349 830 1354 775 1354 717 Z M 815 1176 C 788 1182 760 1186 731 1186 C 671 1186 620 1174 578 1150 C 535 1126 500 1092 473 1050 C 445 1008 425 958 412 901 C 399 844 393 783 393 717 C 393 661 397 608 407 559 C 416 509 430 465 449 426 L 815 1176 Z M 1069 717 C 1069 774 1064 828 1054 879 C 1044 930 1029 976 1008 1018 L 639 260 C 667 252 698 248 731 248 C 790 248 841 260 884 284 C 926 308 961 341 989 383 C 1016 425 1036 475 1049 532 C 1062 589 1069 651 1069 717 Z" unicode="Ø" />
<glyph horiz-adv-x="1509" d="M 1335 633 C 1335 529 1321 436 1295 355 C 1269 273 1231 205 1181 149 C 1131 93 1070 50 998 21 C 926 -8 844 -23 754 -23 C 667 -23 588 -8 517 20 C 446 48 385 90 334 146 C 283 201 244 269 216 350 C 188 431 174 524 174 629 L 174 1434 L 461 1434 L 461 633 C 461 517 487 425 540 358 C 592 291 664 258 754 258 C 844 258 916 291 969 358 C 1022 424 1049 515 1049 629 L 1049 1434 L 1335 1434 L 1335 633 Z M 668 1495 L 371 1822 L 729 1822 L 907 1495 L 668 1495 Z" unicode="Ù" />
<glyph horiz-adv-x="1509" d="M 1335 633 C 1335 529 1321 436 1295 355 C 1269 273 1231 205 1181 149 C 1131 93 1070 50 998 21 C 926 -8 844 -23 754 -23 C 667 -23 588 -8 517 20 C 446 48 385 90 334 146 C 283 201 244 269 216 350 C 188 431 174 524 174 629 L 174 1434 L 461 1434 L 461 633 C 461 517 487 425 540 358 C 592 291 664 258 754 258 C 844 258 916 291 969 358 C 1022 424 1049 515 1049 629 L 1049 1434 L 1335 1434 L 1335 633 Z M 831 1495 L 592 1495 L 770 1822 L 1128 1822 L 831 1495 Z" unicode="Ú" />
<glyph horiz-adv-x="1509" d="M 1335 633 C 1335 529 1321 436 1295 355 C 1269 273 1231 205 1181 149 C 1131 93 1070 50 998 21 C 926 -8 844 -23 754 -23 C 667 -23 588 -8 517 20 C 446 48 385 90 334 146 C 283 201 244 269 216 350 C 188 431 174 524 174 629 L 174 1434 L 461 1434 L 461 633 C 461 517 487 425 540 358 C 592 291 664 258 754 258 C 844 258 916 291 969 358 C 1022 424 1049 515 1049 629 L 1049 1434 L 1335 1434 L 1335 633 Z M 961 1526 L 756 1679 L 551 1526 L 365 1526 L 615 1853 L 901 1853 L 1151 1526 L 961 1526 Z" unicode="Û" />
<glyph horiz-adv-x="1509" d="M 1335 633 C 1335 529 1321 436 1295 355 C 1269 273 1231 205 1181 149 C 1131 93 1070 50 998 21 C 926 -8 844 -23 754 -23 C 667 -23 588 -8 517 20 C 446 48 385 90 334 146 C 283 201 244 269 216 350 C 188 431 174 524 174 629 L 174 1434 L 461 1434 L 461 633 C 461 517 487 425 540 358 C 592 291 664 258 754 258 C 844 258 916 291 969 358 C 1022 424 1049 515 1049 629 L 1049 1434 L 1335 1434 L 1335 633 Z M 1137 1683 C 1137 1661 1132 1641 1124 1623 C 1115 1604 1103 1587 1089 1573 C 1075 1558 1058 1546 1039 1538 C 1019 1530 999 1526 979 1526 C 957 1526 936 1530 916 1538 C 896 1546 879 1558 865 1573 C 850 1587 838 1604 830 1623 C 821 1641 817 1661 817 1683 C 817 1705 821 1725 830 1745 C 838 1764 850 1781 865 1796 C 879 1810 896 1822 916 1830 C 936 1838 957 1843 979 1843 C 999 1843 1019 1838 1039 1830 C 1058 1822 1075 1810 1089 1796 C 1103 1781 1115 1764 1124 1745 C 1132 1725 1137 1705 1137 1683 Z M 695 1683 C 695 1661 690 1641 682 1623 C 673 1604 661 1587 647 1573 C 632 1558 615 1546 596 1538 C 576 1530 556 1526 535 1526 C 513 1526 493 1530 474 1538 C 454 1546 437 1558 423 1573 C 408 1587 396 1604 388 1623 C 379 1641 375 1661 375 1683 C 375 1705 379 1725 388 1745 C 396 1764 408 1781 423 1796 C 437 1810 454 1822 474 1830 C 493 1838 513 1843 535 1843 C 556 1843 576 1838 596 1830 C 615 1822 632 1810 647 1796 C 661 1781 673 1764 682 1745 C 690 1725 695 1705 695 1683 Z" unicode="Ü" />
<glyph horiz-adv-x="1462" d="M 1418 1434 L 875 567 L 875 0 L 588 0 L 588 561 L 45 1434 L 375 1434 L 733 834 L 1092 1434 L 1418 1434 Z M 807 1506 L 568 1506 L 746 1833 L 1104 1833 L 807 1506 Z" unicode="Ý" />
<glyph horiz-adv-x="1393" d="M 1305 758 C 1305 674 1291 603 1265 544 C 1239 484 1202 436 1156 398 C 1110 360 1055 332 992 314 C 928 296 860 287 786 287 L 471 287 L 471 0 L 184 0 L 184 1434 L 471 1434 L 471 1212 L 811 1212 C 878 1212 942 1202 1002 1184 C 1062 1165 1114 1137 1159 1099 C 1204 1061 1240 1014 1266 957 C 1292 900 1305 834 1305 758 Z M 1010 752 C 1010 814 991 860 953 890 C 915 919 864 934 801 934 L 471 934 L 471 565 L 805 565 C 871 565 922 580 957 611 C 992 642 1010 689 1010 752 Z" unicode="Þ" />
<glyph horiz-adv-x="1200" d="M 1118 453 C 1118 379 1108 314 1088 260 C 1068 206 1039 159 1001 121 C 963 83 912 53 849 32 C 786 10 710 0 621 0 L 575 0 L 575 256 L 612 256 C 643 256 672 259 699 266 C 725 272 749 283 769 299 C 789 314 804 334 815 360 C 825 385 831 416 831 453 C 831 488 826 520 818 548 C 809 576 795 600 775 620 C 755 640 730 656 699 666 C 668 676 631 682 588 682 L 575 682 L 575 928 L 586 928 C 628 928 661 941 685 968 C 709 994 721 1031 721 1077 C 721 1119 708 1153 684 1180 C 659 1207 620 1221 567 1221 C 516 1221 479 1208 455 1184 C 431 1159 420 1115 420 1053 L 420 -254 L 137 -395 L 137 1067 C 137 1143 147 1208 168 1262 C 188 1315 218 1358 256 1392 C 294 1425 339 1449 393 1464 C 446 1479 505 1487 571 1487 C 631 1487 688 1478 741 1462 C 794 1446 840 1422 880 1390 C 919 1358 950 1318 973 1271 C 996 1223 1008 1169 1008 1108 C 1008 1032 991 971 957 924 C 923 877 877 843 817 823 C 855 815 893 803 929 785 C 965 767 997 744 1025 714 C 1053 684 1075 648 1092 605 C 1109 562 1118 511 1118 453 Z" unicode="ß" />
<glyph horiz-adv-x="1139" d="M 729 0 L 729 72 C 716 58 702 46 686 35 C 670 24 650 14 628 4 C 605 -5 582 -12 559 -16 C 535 -20 511 -23 487 -23 C 437 -23 388 -15 340 0 C 292 16 249 39 211 71 C 173 102 143 142 120 190 C 97 238 86 294 86 360 C 86 419 97 471 120 516 C 142 560 173 597 213 627 C 252 657 298 679 351 694 C 404 709 461 717 522 717 C 572 717 613 712 646 704 C 678 695 706 685 729 674 L 729 727 C 729 767 715 799 689 825 C 662 851 624 864 575 864 C 512 864 461 859 422 850 C 382 841 335 822 281 793 L 172 989 C 240 1029 304 1057 365 1073 C 426 1089 496 1098 575 1098 C 640 1098 699 1089 753 1073 C 807 1056 853 1032 891 1000 C 929 968 959 928 980 882 C 1001 835 1012 781 1012 721 L 1012 0 L 729 0 Z M 729 451 C 717 458 704 464 692 470 C 679 476 665 480 650 484 C 634 488 617 491 598 493 C 579 495 557 496 532 496 C 478 496 438 484 410 460 C 382 436 369 403 369 360 C 369 341 371 323 377 306 C 383 288 392 273 405 260 C 418 247 435 237 456 229 C 476 221 502 217 532 217 C 555 217 577 219 597 225 C 617 230 636 237 653 246 C 670 255 685 266 698 278 C 710 290 721 302 729 315 L 729 451 Z M 480 1219 L 183 1546 L 541 1546 L 719 1219 L 480 1219 Z" unicode="à" />
<glyph horiz-adv-x="1139" d="M 729 0 L 729 72 C 716 58 702 46 686 35 C 670 24 650 14 628 4 C 605 -5 582 -12 559 -16 C 535 -20 511 -23 487 -23 C 437 -23 388 -15 340 0 C 292 16 249 39 211 71 C 173 102 143 142 120 190 C 97 238 86 294 86 360 C 86 419 97 471 120 516 C 142 560 173 597 213 627 C 252 657 298 679 351 694 C 404 709 461 717 522 717 C 572 717 613 712 646 704 C 678 695 706 685 729 674 L 729 727 C 729 767 715 799 689 825 C 662 851 624 864 575 864 C 512 864 461 859 422 850 C 382 841 335 822 281 793 L 172 989 C 240 1029 304 1057 365 1073 C 426 1089 496 1098 575 1098 C 640 1098 699 1089 753 1073 C 807 1056 853 1032 891 1000 C 929 968 959 928 980 882 C 1001 835 1012 781 1012 721 L 1012 0 L 729 0 Z M 729 451 C 717 458 704 464 692 470 C 679 476 665 480 650 484 C 634 488 617 491 598 493 C 579 495 557 496 532 496 C 478 496 438 484 410 460 C 382 436 369 403 369 360 C 369 341 371 323 377 306 C 383 288 392 273 405 260 C 418 247 435 237 456 229 C 476 221 502 217 532 217 C 555 217 577 219 597 225 C 617 230 636 237 653 246 C 670 255 685 266 698 278 C 710 290 721 302 729 315 L 729 451 Z M 643 1219 L 404 1219 L 582 1546 L 940 1546 L 643 1219 Z" unicode="á" />
<glyph horiz-adv-x="1139" d="M 729 0 L 729 72 C 716 58 702 46 686 35 C 670 24 650 14 628 4 C 605 -5 582 -12 559 -16 C 535 -20 511 -23 487 -23 C 437 -23 388 -15 340 0 C 292 16 249 39 211 71 C 173 102 143 142 120 190 C 97 238 86 294 86 360 C 86 419 97 471 120 516 C 142 560 173 597 213 627 C 252 657 298 679 351 694 C 404 709 461 717 522 717 C 572 717 613 712 646 704 C 678 695 706 685 729 674 L 729 727 C 729 767 715 799 689 825 C 662 851 624 864 575 864 C 512 864 461 859 422 850 C 382 841 335 822 281 793 L 172 989 C 240 1029 304 1057 365 1073 C 426 1089 496 1098 575 1098 C 640 1098 699 1089 753 1073 C 807 1056 853 1032 891 1000 C 929 968 959 928 980 882 C 1001 835 1012 781 1012 721 L 1012 0 L 729 0 Z M 729 451 C 717 458 704 464 692 470 C 679 476 665 480 650 484 C 634 488 617 491 598 493 C 579 495 557 496 532 496 C 478 496 438 484 410 460 C 382 436 369 403 369 360 C 369 341 371 323 377 306 C 383 288 392 273 405 260 C 418 247 435 237 456 229 C 476 221 502 217 532 217 C 555 217 577 219 597 225 C 617 230 636 237 653 246 C 670 255 685 266 698 278 C 710 290 721 302 729 315 L 729 451 Z M 772 1210 L 567 1363 L 362 1210 L 176 1210 L 426 1537 L 712 1537 L 962 1210 L 772 1210 Z" unicode="â" />
<glyph horiz-adv-x="1139" d="M 729 0 L 729 72 C 716 58 702 46 686 35 C 670 24 650 14 628 4 C 605 -5 582 -12 559 -16 C 535 -20 511 -23 487 -23 C 437 -23 388 -15 340 0 C 292 16 249 39 211 71 C 173 102 143 142 120 190 C 97 238 86 294 86 360 C 86 419 97 471 120 516 C 142 560 173 597 213 627 C 252 657 298 679 351 694 C 404 709 461 717 522 717 C 572 717 613 712 646 704 C 678 695 706 685 729 674 L 729 727 C 729 767 715 799 689 825 C 662 851 624 864 575 864 C 512 864 461 859 422 850 C 382 841 335 822 281 793 L 172 989 C 240 1029 304 1057 365 1073 C 426 1089 496 1098 575 1098 C 640 1098 699 1089 753 1073 C 807 1056 853 1032 891 1000 C 929 968 959 928 980 882 C 1001 835 1012 781 1012 721 L 1012 0 L 729 0 Z M 729 451 C 717 458 704 464 692 470 C 679 476 665 480 650 484 C 634 488 617 491 598 493 C 579 495 557 496 532 496 C 478 496 438 484 410 460 C 382 436 369 403 369 360 C 369 341 371 323 377 306 C 383 288 392 273 405 260 C 418 247 435 237 456 229 C 476 221 502 217 532 217 C 555 217 577 219 597 225 C 617 230 636 237 653 246 C 670 255 685 266 698 278 C 710 290 721 302 729 315 L 729 451 Z M 977 1507 C 977 1461 971 1420 959 1384 C 947 1347 931 1316 911 1291 C 890 1265 865 1246 836 1232 C 807 1218 775 1212 741 1212 C 719 1212 700 1213 684 1215 C 667 1217 651 1221 636 1226 C 620 1231 605 1238 589 1246 C 573 1254 554 1264 534 1276 C 518 1285 501 1294 482 1303 C 463 1312 445 1317 428 1317 C 408 1317 393 1309 383 1295 C 372 1280 364 1255 358 1219 L 174 1219 C 174 1264 179 1305 191 1341 C 202 1377 218 1408 239 1434 C 259 1459 284 1478 313 1492 C 342 1506 374 1513 409 1513 C 430 1513 449 1512 466 1510 C 482 1508 498 1504 514 1499 C 529 1494 545 1488 561 1480 C 577 1472 595 1462 616 1450 C 632 1440 649 1431 668 1422 C 686 1413 705 1409 723 1409 C 742 1409 757 1416 767 1431 C 777 1445 786 1471 792 1507 L 977 1507 Z" unicode="ã" />
<glyph horiz-adv-x="1139" d="M 729 0 L 729 72 C 716 58 702 46 686 35 C 670 24 650 14 628 4 C 605 -5 582 -12 559 -16 C 535 -20 511 -23 487 -23 C 437 -23 388 -15 340 0 C 292 16 249 39 211 71 C 173 102 143 142 120 190 C 97 238 86 294 86 360 C 86 419 97 471 120 516 C 142 560 173 597 213 627 C 252 657 298 679 351 694 C 404 709 461 717 522 717 C 572 717 613 712 646 704 C 678 695 706 685 729 674 L 729 727 C 729 767 715 799 689 825 C 662 851 624 864 575 864 C 512 864 461 859 422 850 C 382 841 335 822 281 793 L 172 989 C 240 1029 304 1057 365 1073 C 426 1089 496 1098 575 1098 C 640 1098 699 1089 753 1073 C 807 1056 853 1032 891 1000 C 929 968 959 928 980 882 C 1001 835 1012 781 1012 721 L 1012 0 L 729 0 Z M 729 451 C 717 458 704 464 692 470 C 679 476 665 480 650 484 C 634 488 617 491 598 493 C 579 495 557 496 532 496 C 478 496 438 484 410 460 C 382 436 369 403 369 360 C 369 341 371 323 377 306 C 383 288 392 273 405 260 C 418 247 435 237 456 229 C 476 221 502 217 532 217 C 555 217 577 219 597 225 C 617 230 636 237 653 246 C 670 255 685 266 698 278 C 710 290 721 302 729 315 L 729 451 Z M 950 1367 C 950 1345 945 1325 937 1307 C 928 1288 916 1271 902 1257 C 888 1242 871 1230 852 1222 C 832 1214 812 1210 792 1210 C 770 1210 749 1214 729 1222 C 709 1230 692 1242 678 1257 C 663 1271 651 1288 643 1307 C 634 1325 630 1345 630 1367 C 630 1389 634 1409 643 1429 C 651 1448 663 1465 678 1480 C 692 1494 709 1506 729 1514 C 749 1522 770 1527 792 1527 C 812 1527 832 1522 852 1514 C 871 1506 888 1494 902 1480 C 916 1465 928 1448 937 1429 C 945 1409 950 1389 950 1367 Z M 508 1367 C 508 1345 503 1325 495 1307 C 486 1288 474 1271 460 1257 C 445 1242 428 1230 409 1222 C 389 1214 369 1210 348 1210 C 326 1210 306 1214 287 1222 C 267 1230 250 1242 236 1257 C 221 1271 209 1288 201 1307 C 192 1325 188 1345 188 1367 C 188 1389 192 1409 201 1429 C 209 1448 221 1465 236 1480 C 250 1494 267 1506 287 1514 C 306 1522 326 1527 348 1527 C 369 1527 389 1522 409 1514 C 428 1506 445 1494 460 1480 C 474 1465 486 1448 495 1429 C 503 1409 508 1389 508 1367 Z" unicode="ä" />
<glyph horiz-adv-x="1139" d="M 729 0 L 729 72 C 716 58 702 46 686 35 C 670 24 650 14 628 4 C 605 -5 582 -12 559 -16 C 535 -20 511 -23 487 -23 C 437 -23 388 -15 340 0 C 292 16 249 39 211 71 C 173 102 143 142 120 190 C 97 238 86 294 86 360 C 86 419 97 471 120 516 C 142 560 173 597 213 627 C 252 657 298 679 351 694 C 404 709 461 717 522 717 C 572 717 613 712 646 704 C 678 695 706 685 729 674 L 729 727 C 729 767 715 799 689 825 C 662 851 624 864 575 864 C 512 864 461 859 422 850 C 382 841 335 822 281 793 L 172 989 C 240 1029 304 1057 365 1073 C 426 1089 496 1098 575 1098 C 640 1098 699 1089 753 1073 C 807 1056 853 1032 891 1000 C 929 968 959 928 980 882 C 1001 835 1012 781 1012 721 L 1012 0 L 729 0 Z M 729 451 C 717 458 704 464 692 470 C 679 476 665 480 650 484 C 634 488 617 491 598 493 C 579 495 557 496 532 496 C 478 496 438 484 410 460 C 382 436 369 403 369 360 C 369 341 371 323 377 306 C 383 288 392 273 405 260 C 418 247 435 237 456 229 C 476 221 502 217 532 217 C 555 217 577 219 597 225 C 617 230 636 237 653 246 C 670 255 685 266 698 278 C 710 290 721 302 729 315 L 729 451 Z M 845 1491 C 845 1451 838 1415 824 1382 C 810 1348 790 1320 766 1296 C 741 1272 712 1253 678 1239 C 644 1225 608 1219 569 1219 C 529 1219 493 1225 459 1239 C 425 1253 396 1272 372 1296 C 347 1320 328 1348 314 1382 C 300 1415 293 1451 293 1491 C 293 1530 300 1566 314 1600 C 328 1634 347 1663 372 1688 C 396 1712 425 1732 459 1746 C 493 1760 529 1767 569 1767 C 608 1767 644 1760 678 1746 C 712 1732 741 1712 766 1688 C 790 1663 810 1634 824 1600 C 838 1566 845 1530 845 1491 Z M 690 1491 C 690 1508 686 1524 680 1539 C 674 1554 665 1567 655 1578 C 644 1589 631 1598 616 1604 C 601 1610 585 1614 569 1614 C 551 1614 535 1610 521 1604 C 506 1598 493 1589 483 1578 C 472 1567 463 1554 457 1539 C 451 1524 448 1508 448 1491 C 448 1473 451 1457 457 1442 C 463 1427 472 1414 483 1403 C 493 1392 506 1383 521 1377 C 535 1371 551 1368 569 1368 C 585 1368 601 1371 616 1377 C 631 1383 644 1392 655 1403 C 665 1414 674 1427 680 1442 C 686 1457 690 1473 690 1491 Z" unicode="å" />
<glyph horiz-adv-x="1726" d="M 1638 537 C 1638 516 1637 498 1637 484 C 1636 469 1635 456 1634 446 L 991 446 C 993 409 1001 378 1015 352 C 1029 326 1046 306 1067 290 C 1087 274 1110 262 1136 255 C 1161 247 1186 244 1212 244 C 1232 244 1250 245 1268 249 C 1286 252 1303 257 1320 265 C 1337 272 1351 280 1363 288 C 1374 296 1385 306 1397 319 L 1597 152 C 1575 124 1550 99 1521 77 C 1491 55 1460 37 1426 22 C 1392 7 1357 -3 1321 -11 C 1284 -19 1248 -23 1212 -23 C 1127 -23 1053 -8 991 22 C 929 52 877 91 836 141 C 784 83 731 42 675 16 C 619 -10 557 -23 487 -23 C 437 -23 388 -15 340 0 C 292 16 249 39 211 71 C 173 102 143 142 120 190 C 97 238 86 294 86 360 C 86 419 97 471 120 516 C 142 560 173 597 213 627 C 252 657 298 679 351 694 C 404 709 461 717 522 717 C 572 717 613 712 646 704 C 678 695 706 685 729 674 L 729 727 C 729 767 715 799 688 825 C 661 851 623 864 575 864 C 507 864 452 858 410 847 C 368 835 325 817 281 793 L 172 989 C 234 1025 295 1053 357 1071 C 419 1089 491 1098 575 1098 C 651 1098 715 1087 767 1066 C 818 1045 862 1014 899 973 C 934 1011 975 1041 1023 1064 C 1071 1086 1125 1098 1186 1098 C 1258 1098 1322 1083 1378 1053 C 1434 1023 1481 983 1519 932 C 1557 881 1587 822 1607 754 C 1627 686 1638 613 1638 537 Z M 1364 659 C 1362 683 1356 706 1348 730 C 1340 753 1328 774 1312 792 C 1296 810 1277 824 1254 835 C 1230 846 1203 852 1171 852 C 1145 852 1122 847 1102 837 C 1081 827 1063 813 1048 796 C 1033 778 1021 758 1012 735 C 1003 711 997 686 995 659 L 1364 659 Z M 729 451 C 717 458 704 464 692 470 C 679 476 665 480 650 484 C 634 488 617 491 598 493 C 579 495 557 496 532 496 C 478 496 438 484 410 460 C 382 436 369 403 369 360 C 369 314 383 279 412 254 C 440 229 480 217 532 217 C 555 217 577 219 597 225 C 617 230 636 237 653 246 C 670 255 685 266 698 278 C 710 290 721 302 729 315 C 729 337 729 360 729 383 C 729 405 729 428 729 451 Z" unicode="æ" />
<glyph horiz-adv-x="1100" d="M 1026 217 C 1000 182 972 150 943 121 C 914 91 882 66 847 45 C 811 23 772 7 730 -5 C 687 -17 639 -23 586 -23 C 516 -23 450 -9 389 18 C 327 45 274 83 228 133 C 182 182 147 241 121 310 C 95 378 82 454 82 537 C 82 619 94 694 120 763 C 146 832 182 891 228 941 C 274 990 328 1028 391 1056 C 454 1084 523 1098 598 1098 C 688 1098 769 1078 840 1038 C 910 998 972 939 1024 860 L 838 672 C 822 694 805 715 788 734 C 771 752 753 768 734 782 C 714 795 693 805 670 813 C 646 821 620 825 592 825 C 558 825 527 818 500 804 C 472 790 449 771 430 746 C 410 721 395 691 385 656 C 374 620 369 581 369 537 C 369 493 374 454 385 419 C 395 384 410 354 430 329 C 449 303 472 284 500 270 C 527 256 558 250 592 250 C 619 250 644 253 667 259 C 690 265 712 273 732 285 C 752 297 772 311 790 328 C 808 345 827 365 846 387 L 1026 217 Z M 527 76 L 641 76 L 606 -86 C 614 -82 625 -78 638 -76 C 650 -73 666 -72 686 -72 C 708 -72 728 -74 748 -80 C 767 -86 784 -95 799 -107 C 813 -119 825 -134 833 -152 C 841 -170 846 -192 846 -217 C 846 -247 840 -274 828 -296 C 816 -318 800 -337 779 -352 C 757 -366 732 -377 702 -384 C 672 -391 638 -395 602 -395 C 546 -395 496 -387 451 -373 C 406 -359 367 -342 334 -322 L 377 -244 C 443 -276 503 -293 559 -293 C 595 -293 622 -287 641 -275 C 660 -263 670 -246 670 -223 C 670 -202 663 -188 650 -181 C 637 -173 622 -170 606 -170 C 582 -169 562 -174 545 -184 L 471 -156 L 527 76 Z" unicode="ç" />
<glyph horiz-adv-x="1102" d="M 1014 537 C 1014 516 1013 498 1013 484 C 1012 469 1011 456 1010 446 L 367 446 C 369 409 377 378 391 352 C 405 326 422 306 442 290 C 462 274 485 262 511 255 C 536 247 562 244 588 244 C 607 244 625 245 642 248 C 658 251 675 256 692 263 C 709 270 724 278 737 288 C 750 297 762 307 772 319 L 973 152 C 951 124 926 99 897 77 C 867 55 836 37 802 22 C 768 7 732 -3 696 -11 C 660 -19 624 -23 588 -23 C 528 -23 475 -15 428 -1 C 381 12 340 32 305 56 C 269 80 238 107 211 139 C 183 171 160 206 142 245 C 123 284 108 328 98 376 C 87 424 82 478 82 537 C 82 619 94 694 118 763 C 142 832 176 891 219 941 C 262 990 313 1028 371 1056 C 429 1084 493 1098 561 1098 C 633 1098 697 1083 753 1053 C 809 1023 856 983 895 932 C 933 881 963 822 983 754 C 1003 686 1014 613 1014 537 Z M 739 659 C 737 683 731 706 723 730 C 715 753 703 774 687 792 C 671 810 652 824 629 835 C 606 846 579 852 547 852 C 521 852 497 847 477 837 C 457 827 439 813 424 796 C 409 778 397 758 388 735 C 379 711 373 686 371 659 L 739 659 Z M 470 1219 L 173 1546 L 531 1546 L 709 1219 L 470 1219 Z" unicode="è" />
<glyph horiz-adv-x="1102" d="M 1014 537 C 1014 516 1013 498 1013 484 C 1012 469 1011 456 1010 446 L 367 446 C 369 409 377 378 391 352 C 405 326 422 306 442 290 C 462 274 485 262 511 255 C 536 247 562 244 588 244 C 607 244 625 245 642 248 C 658 251 675 256 692 263 C 709 270 724 278 737 288 C 750 297 762 307 772 319 L 973 152 C 951 124 926 99 897 77 C 867 55 836 37 802 22 C 768 7 732 -3 696 -11 C 660 -19 624 -23 588 -23 C 528 -23 475 -15 428 -1 C 381 12 340 32 305 56 C 269 80 238 107 211 139 C 183 171 160 206 142 245 C 123 284 108 328 98 376 C 87 424 82 478 82 537 C 82 619 94 694 118 763 C 142 832 176 891 219 941 C 262 990 313 1028 371 1056 C 429 1084 493 1098 561 1098 C 633 1098 697 1083 753 1053 C 809 1023 856 983 895 932 C 933 881 963 822 983 754 C 1003 686 1014 613 1014 537 Z M 739 659 C 737 683 731 706 723 730 C 715 753 703 774 687 792 C 671 810 652 824 629 835 C 606 846 579 852 547 852 C 521 852 497 847 477 837 C 457 827 439 813 424 796 C 409 778 397 758 388 735 C 379 711 373 686 371 659 L 739 659 Z M 633 1219 L 394 1219 L 572 1546 L 930 1546 L 633 1219 Z" unicode="é" />
<glyph horiz-adv-x="1102" d="M 1014 537 C 1014 516 1013 498 1013 484 C 1012 469 1011 456 1010 446 L 367 446 C 369 409 377 378 391 352 C 405 326 422 306 442 290 C 462 274 485 262 511 255 C 536 247 562 244 588 244 C 607 244 625 245 642 248 C 658 251 675 256 692 263 C 709 270 724 278 737 288 C 750 297 762 307 772 319 L 973 152 C 951 124 926 99 897 77 C 867 55 836 37 802 22 C 768 7 732 -3 696 -11 C 660 -19 624 -23 588 -23 C 528 -23 475 -15 428 -1 C 381 12 340 32 305 56 C 269 80 238 107 211 139 C 183 171 160 206 142 245 C 123 284 108 328 98 376 C 87 424 82 478 82 537 C 82 619 94 694 118 763 C 142 832 176 891 219 941 C 262 990 313 1028 371 1056 C 429 1084 493 1098 561 1098 C 633 1098 697 1083 753 1053 C 809 1023 856 983 895 932 C 933 881 963 822 983 754 C 1003 686 1014 613 1014 537 Z M 739 659 C 737 683 731 706 723 730 C 715 753 703 774 687 792 C 671 810 652 824 629 835 C 606 846 579 852 547 852 C 521 852 497 847 477 837 C 457 827 439 813 424 796 C 409 778 397 758 388 735 C 379 711 373 686 371 659 L 739 659 Z M 762 1200 L 557 1353 L 352 1200 L 166 1200 L 416 1527 L 702 1527 L 952 1200 L 762 1200 Z" unicode="ê" />
<glyph horiz-adv-x="1102" d="M 1014 537 C 1014 516 1013 498 1013 484 C 1012 469 1011 456 1010 446 L 367 446 C 369 409 377 378 391 352 C 405 326 422 306 442 290 C 462 274 485 262 511 255 C 536 247 562 244 588 244 C 607 244 625 245 642 248 C 658 251 675 256 692 263 C 709 270 724 278 737 288 C 750 297 762 307 772 319 L 973 152 C 951 124 926 99 897 77 C 867 55 836 37 802 22 C 768 7 732 -3 696 -11 C 660 -19 624 -23 588 -23 C 528 -23 475 -15 428 -1 C 381 12 340 32 305 56 C 269 80 238 107 211 139 C 183 171 160 206 142 245 C 123 284 108 328 98 376 C 87 424 82 478 82 537 C 82 619 94 694 118 763 C 142 832 176 891 219 941 C 262 990 313 1028 371 1056 C 429 1084 493 1098 561 1098 C 633 1098 697 1083 753 1053 C 809 1023 856 983 895 932 C 933 881 963 822 983 754 C 1003 686 1014 613 1014 537 Z M 739 659 C 737 683 731 706 723 730 C 715 753 703 774 687 792 C 671 810 652 824 629 835 C 606 846 579 852 547 852 C 521 852 497 847 477 837 C 457 827 439 813 424 796 C 409 778 397 758 388 735 C 379 711 373 686 371 659 L 739 659 Z M 940 1367 C 940 1345 935 1325 927 1307 C 918 1288 906 1271 892 1257 C 878 1242 861 1230 842 1222 C 822 1214 802 1210 782 1210 C 760 1210 739 1214 719 1222 C 699 1230 682 1242 668 1257 C 653 1271 641 1288 633 1307 C 624 1325 620 1345 620 1367 C 620 1389 624 1409 633 1429 C 641 1448 653 1465 668 1480 C 682 1494 699 1506 719 1514 C 739 1522 760 1527 782 1527 C 802 1527 822 1522 842 1514 C 861 1506 878 1494 892 1480 C 906 1465 918 1448 927 1429 C 935 1409 940 1389 940 1367 Z M 498 1367 C 498 1345 493 1325 485 1307 C 476 1288 464 1271 450 1257 C 435 1242 418 1230 399 1222 C 379 1214 359 1210 338 1210 C 316 1210 296 1214 277 1222 C 257 1230 240 1242 226 1257 C 211 1271 199 1288 191 1307 C 182 1325 178 1345 178 1367 C 178 1389 182 1409 191 1429 C 199 1448 211 1465 226 1480 C 240 1494 257 1506 277 1514 C 296 1522 316 1527 338 1527 C 359 1527 379 1522 399 1514 C 418 1506 435 1494 450 1480 C 464 1465 476 1448 485 1429 C 493 1409 498 1389 498 1367 Z" unicode="ë" />
<glyph horiz-adv-x="578" d="M 147 0 L 147 1075 L 430 1075 L 430 0 L 147 0 Z M 184 1219 L -113 1546 L 245 1546 L 423 1219 L 184 1219 Z" unicode="ì" />
<glyph horiz-adv-x="578" d="M 147 0 L 147 1075 L 430 1075 L 430 0 L 147 0 Z M 394 1219 L 155 1219 L 333 1546 L 691 1546 L 394 1219 Z" unicode="í" />
<glyph horiz-adv-x="578" d="M 147 0 L 147 1075 L 430 1075 L 430 0 L 147 0 Z M 493 1189 L 288 1342 L 83 1189 L -103 1189 L 147 1516 L 433 1516 L 683 1189 L 493 1189 Z" unicode="î" />
<glyph horiz-adv-x="578" d="M 147 0 L 147 1075 L 430 1075 L 430 0 L 147 0 Z M 671 1357 C 671 1335 666 1315 658 1297 C 649 1278 637 1261 623 1247 C 609 1232 592 1220 573 1212 C 553 1204 533 1200 513 1200 C 491 1200 470 1204 450 1212 C 430 1220 413 1232 399 1247 C 384 1261 372 1278 364 1297 C 355 1315 351 1335 351 1357 C 351 1379 355 1399 364 1419 C 372 1438 384 1455 399 1470 C 413 1484 430 1496 450 1504 C 470 1512 491 1517 513 1517 C 533 1517 553 1512 573 1504 C 592 1496 609 1484 623 1470 C 637 1455 649 1438 658 1419 C 666 1399 671 1379 671 1357 Z M 229 1357 C 229 1335 224 1315 216 1297 C 207 1278 195 1261 181 1247 C 166 1232 149 1220 130 1212 C 110 1204 90 1200 69 1200 C 47 1200 27 1204 8 1212 C -11 1220 -28 1232 -43 1247 C -57 1261 -69 1278 -78 1297 C -86 1315 -91 1335 -91 1357 C -91 1379 -86 1399 -78 1419 C -69 1438 -57 1455 -43 1470 C -28 1484 -11 1496 8 1504 C 27 1512 47 1517 69 1517 C 90 1517 110 1512 130 1504 C 149 1496 166 1484 181 1470 C 195 1455 207 1438 216 1419 C 224 1399 229 1379 229 1357 Z" unicode="ï" />
<glyph horiz-adv-x="1137" d="M 1055 578 C 1055 475 1042 386 1018 311 C 994 235 960 173 916 123 C 872 73 821 37 761 13 C 701 -11 637 -23 567 -23 C 497 -23 432 -11 373 13 C 313 37 262 70 219 114 C 176 158 142 210 118 272 C 94 333 82 401 82 475 C 82 549 93 616 117 678 C 141 739 173 792 213 836 C 253 880 301 914 355 938 C 409 962 466 975 526 975 C 578 975 624 968 664 955 C 704 941 743 922 780 897 C 770 943 753 984 731 1022 C 708 1060 680 1094 647 1124 L 551 1030 L 420 1147 L 494 1219 C 431 1243 371 1258 315 1262 L 315 1456 C 381 1454 441 1446 497 1432 C 552 1418 603 1398 651 1374 L 735 1456 L 866 1339 L 797 1272 C 841 1230 880 1183 913 1131 C 945 1079 972 1023 993 963 C 1014 903 1030 841 1040 776 C 1050 710 1055 644 1055 578 Z M 778 475 C 778 511 773 545 765 576 C 756 606 743 633 725 655 C 707 677 685 695 659 708 C 633 720 602 727 567 727 C 531 727 501 720 475 708 C 449 696 427 678 410 656 C 392 634 379 607 371 576 C 362 545 358 511 358 475 C 358 438 362 404 371 374 C 379 344 392 318 410 296 C 427 274 449 257 475 245 C 501 233 531 227 567 227 C 602 227 633 233 659 247 C 685 260 707 278 725 301 C 743 323 756 350 765 380 C 773 410 778 441 778 475 Z" unicode="ð" />
<glyph horiz-adv-x="1196" d="M 786 0 L 786 582 C 786 666 772 729 745 770 C 718 810 671 831 604 831 C 574 831 548 827 526 819 C 503 811 484 797 468 779 C 452 760 440 735 432 704 C 424 673 420 634 420 588 L 420 0 L 137 0 L 137 1075 L 420 1075 L 420 1004 C 432 1016 446 1027 463 1039 C 480 1050 500 1060 523 1070 C 545 1080 569 1087 594 1091 C 619 1095 645 1098 672 1098 C 740 1098 799 1086 849 1063 C 899 1040 940 1007 973 965 C 1005 923 1029 871 1045 811 C 1061 750 1069 682 1069 606 L 1069 0 L 786 0 Z M 1002 1507 C 1002 1461 996 1420 984 1384 C 972 1347 956 1316 936 1291 C 915 1265 890 1246 861 1232 C 832 1218 800 1212 766 1212 C 744 1212 725 1213 709 1215 C 692 1217 676 1221 661 1226 C 645 1231 630 1238 614 1246 C 598 1254 579 1264 559 1276 C 543 1285 526 1294 507 1303 C 488 1312 470 1317 453 1317 C 433 1317 418 1309 408 1295 C 397 1280 389 1255 383 1219 L 199 1219 C 199 1264 204 1305 216 1341 C 227 1377 243 1408 264 1434 C 284 1459 309 1478 338 1492 C 367 1506 399 1513 434 1513 C 455 1513 474 1512 491 1510 C 507 1508 523 1504 539 1499 C 554 1494 570 1488 586 1480 C 602 1472 620 1462 641 1450 C 657 1440 674 1431 693 1422 C 711 1413 730 1409 748 1409 C 767 1409 782 1416 792 1431 C 802 1445 811 1471 817 1507 L 1002 1507 Z" unicode="ñ" />
<glyph horiz-adv-x="1137" d="M 1055 537 C 1055 454 1042 378 1018 310 C 994 241 960 182 916 133 C 872 83 821 45 761 18 C 701 -9 637 -23 567 -23 C 497 -23 432 -9 373 18 C 313 45 262 83 219 133 C 176 182 142 241 118 310 C 94 378 82 454 82 537 C 82 619 94 694 118 763 C 142 832 176 891 219 941 C 262 990 313 1028 373 1056 C 432 1084 497 1098 567 1098 C 637 1098 701 1084 761 1056 C 821 1028 872 990 916 941 C 960 891 994 832 1018 763 C 1042 694 1055 619 1055 537 Z M 768 537 C 768 577 763 615 755 650 C 747 685 734 716 718 742 C 701 768 680 788 655 803 C 630 817 601 825 567 825 C 533 825 503 817 479 803 C 454 788 433 768 417 742 C 401 716 389 686 381 651 C 373 616 369 578 369 537 C 369 495 373 457 381 422 C 389 386 401 356 417 331 C 433 305 454 285 479 271 C 503 257 533 250 567 250 C 601 250 630 257 655 273 C 680 289 701 310 718 337 C 734 363 747 394 755 429 C 763 463 768 499 768 537 Z M 478 1219 L 181 1546 L 539 1546 L 717 1219 L 478 1219 Z" unicode="ò" />
<glyph horiz-adv-x="1137" d="M 1055 537 C 1055 454 1042 378 1018 310 C 994 241 960 182 916 133 C 872 83 821 45 761 18 C 701 -9 637 -23 567 -23 C 497 -23 432 -9 373 18 C 313 45 262 83 219 133 C 176 182 142 241 118 310 C 94 378 82 454 82 537 C 82 619 94 694 118 763 C 142 832 176 891 219 941 C 262 990 313 1028 373 1056 C 432 1084 497 1098 567 1098 C 637 1098 701 1084 761 1056 C 821 1028 872 990 916 941 C 960 891 994 832 1018 763 C 1042 694 1055 619 1055 537 Z M 768 537 C 768 577 763 615 755 650 C 747 685 734 716 718 742 C 701 768 680 788 655 803 C 630 817 601 825 567 825 C 533 825 503 817 479 803 C 454 788 433 768 417 742 C 401 716 389 686 381 651 C 373 616 369 578 369 537 C 369 495 373 457 381 422 C 389 386 401 356 417 331 C 433 305 454 285 479 271 C 503 257 533 250 567 250 C 601 250 630 257 655 273 C 680 289 701 310 718 337 C 734 363 747 394 755 429 C 763 463 768 499 768 537 Z M 641 1219 L 402 1219 L 580 1546 L 938 1546 L 641 1219 Z" unicode="ó" />
<glyph horiz-adv-x="1137" d="M 1055 537 C 1055 454 1042 378 1018 310 C 994 241 960 182 916 133 C 872 83 821 45 761 18 C 701 -9 637 -23 567 -23 C 497 -23 432 -9 373 18 C 313 45 262 83 219 133 C 176 182 142 241 118 310 C 94 378 82 454 82 537 C 82 619 94 694 118 763 C 142 832 176 891 219 941 C 262 990 313 1028 373 1056 C 432 1084 497 1098 567 1098 C 637 1098 701 1084 761 1056 C 821 1028 872 990 916 941 C 960 891 994 832 1018 763 C 1042 694 1055 619 1055 537 Z M 768 537 C 768 577 763 615 755 650 C 747 685 734 716 718 742 C 701 768 680 788 655 803 C 630 817 601 825 567 825 C 533 825 503 817 479 803 C 454 788 433 768 417 742 C 401 716 389 686 381 651 C 373 616 369 578 369 537 C 369 495 373 457 381 422 C 389 386 401 356 417 331 C 433 305 454 285 479 271 C 503 257 533 250 567 250 C 601 250 630 257 655 273 C 680 289 701 310 718 337 C 734 363 747 394 755 429 C 763 463 768 499 768 537 Z M 770 1200 L 565 1353 L 360 1200 L 174 1200 L 424 1527 L 710 1527 L 960 1200 L 770 1200 Z" unicode="ô" />
<glyph horiz-adv-x="1137" d="M 1055 537 C 1055 454 1042 378 1018 310 C 994 241 960 182 916 133 C 872 83 821 45 761 18 C 701 -9 637 -23 567 -23 C 497 -23 432 -9 373 18 C 313 45 262 83 219 133 C 176 182 142 241 118 310 C 94 378 82 454 82 537 C 82 619 94 694 118 763 C 142 832 176 891 219 941 C 262 990 313 1028 373 1056 C 432 1084 497 1098 567 1098 C 637 1098 701 1084 761 1056 C 821 1028 872 990 916 941 C 960 891 994 832 1018 763 C 1042 694 1055 619 1055 537 Z M 768 537 C 768 577 763 615 755 650 C 747 685 734 716 718 742 C 701 768 680 788 655 803 C 630 817 601 825 567 825 C 533 825 503 817 479 803 C 454 788 433 768 417 742 C 401 716 389 686 381 651 C 373 616 369 578 369 537 C 369 495 373 457 381 422 C 389 386 401 356 417 331 C 433 305 454 285 479 271 C 503 257 533 250 567 250 C 601 250 630 257 655 273 C 680 289 701 310 718 337 C 734 363 747 394 755 429 C 763 463 768 499 768 537 Z M 967 1507 C 967 1461 961 1420 949 1384 C 937 1347 921 1316 901 1291 C 880 1265 855 1246 826 1232 C 797 1218 765 1212 731 1212 C 709 1212 690 1213 674 1215 C 657 1217 641 1221 626 1226 C 610 1231 595 1238 579 1246 C 563 1254 544 1264 524 1276 C 508 1285 491 1294 472 1303 C 453 1312 435 1317 418 1317 C 398 1317 383 1309 373 1295 C 362 1280 354 1255 348 1219 L 164 1219 C 164 1264 169 1305 181 1341 C 192 1377 208 1408 229 1434 C 249 1459 274 1478 303 1492 C 332 1506 364 1513 399 1513 C 420 1513 439 1512 456 1510 C 472 1508 488 1504 504 1499 C 519 1494 535 1488 551 1480 C 567 1472 585 1462 606 1450 C 622 1440 639 1431 658 1422 C 676 1413 695 1409 713 1409 C 732 1409 747 1416 757 1431 C 767 1445 776 1471 782 1507 L 967 1507 Z" unicode="õ" />
<glyph horiz-adv-x="1137" d="M 1055 537 C 1055 454 1042 378 1018 310 C 994 241 960 182 916 133 C 872 83 821 45 761 18 C 701 -9 637 -23 567 -23 C 497 -23 432 -9 373 18 C 313 45 262 83 219 133 C 176 182 142 241 118 310 C 94 378 82 454 82 537 C 82 619 94 694 118 763 C 142 832 176 891 219 941 C 262 990 313 1028 373 1056 C 432 1084 497 1098 567 1098 C 637 1098 701 1084 761 1056 C 821 1028 872 990 916 941 C 960 891 994 832 1018 763 C 1042 694 1055 619 1055 537 Z M 768 537 C 768 577 763 615 755 650 C 747 685 734 716 718 742 C 701 768 680 788 655 803 C 630 817 601 825 567 825 C 533 825 503 817 479 803 C 454 788 433 768 417 742 C 401 716 389 686 381 651 C 373 616 369 578 369 537 C 369 495 373 457 381 422 C 389 386 401 356 417 331 C 433 305 454 285 479 271 C 503 257 533 250 567 250 C 601 250 630 257 655 273 C 680 289 701 310 718 337 C 734 363 747 394 755 429 C 763 463 768 499 768 537 Z M 948 1357 C 948 1335 943 1315 935 1297 C 926 1278 914 1261 900 1247 C 886 1232 869 1220 850 1212 C 830 1204 810 1200 790 1200 C 768 1200 747 1204 727 1212 C 707 1220 690 1232 676 1247 C 661 1261 649 1278 641 1297 C 632 1315 628 1335 628 1357 C 628 1379 632 1399 641 1419 C 649 1438 661 1455 676 1470 C 690 1484 707 1496 727 1504 C 747 1512 768 1517 790 1517 C 810 1517 830 1512 850 1504 C 869 1496 886 1484 900 1470 C 914 1455 926 1438 935 1419 C 943 1399 948 1379 948 1357 Z M 506 1357 C 506 1335 501 1315 493 1297 C 484 1278 472 1261 458 1247 C 443 1232 426 1220 407 1212 C 387 1204 367 1200 346 1200 C 324 1200 304 1204 285 1212 C 265 1220 248 1232 234 1247 C 219 1261 207 1278 199 1297 C 190 1315 186 1335 186 1357 C 186 1379 190 1399 199 1419 C 207 1438 219 1455 234 1470 C 248 1484 265 1496 285 1504 C 304 1512 324 1517 346 1517 C 367 1517 387 1512 407 1504 C 426 1496 443 1484 458 1470 C 472 1455 484 1438 493 1419 C 501 1399 506 1379 506 1357 Z" unicode="ö" />
<glyph horiz-adv-x="1270" d="M 807 1143 C 807 1119 802 1097 793 1077 C 783 1056 771 1038 755 1023 C 739 1007 721 995 700 986 C 679 977 657 973 635 973 C 611 973 588 977 567 986 C 546 995 528 1007 513 1023 C 497 1038 485 1056 476 1077 C 467 1097 463 1119 463 1143 C 463 1166 467 1188 476 1210 C 485 1231 497 1250 513 1266 C 529 1282 547 1294 568 1304 C 589 1314 611 1319 635 1319 C 657 1319 679 1314 700 1304 C 721 1294 739 1282 755 1266 C 771 1250 783 1231 793 1210 C 802 1188 807 1166 807 1143 Z M 119 580 L 119 829 L 1149 829 L 1149 580 L 119 580 Z M 807 262 C 807 238 802 215 793 194 C 783 173 771 155 755 140 C 739 124 721 112 700 103 C 679 94 657 90 635 90 C 611 90 588 94 567 103 C 546 112 528 124 513 140 C 497 155 485 173 476 194 C 467 215 463 238 463 262 C 463 285 467 307 476 328 C 485 349 497 368 513 384 C 529 400 547 412 568 422 C 589 431 611 436 635 436 C 657 436 679 431 700 422 C 721 412 739 400 755 384 C 771 368 783 349 793 328 C 802 307 807 285 807 262 Z" unicode="÷" />
<glyph horiz-adv-x="1137" d="M 1055 537 C 1055 454 1042 378 1018 310 C 994 241 960 182 916 133 C 872 83 821 45 761 18 C 701 -9 637 -23 567 -23 C 519 -23 466 -14 408 4 L 352 -102 L 100 -102 L 223 129 C 179 178 144 237 119 306 C 94 375 82 452 82 537 C 82 619 94 694 118 763 C 142 832 176 891 219 941 C 262 990 313 1028 373 1056 C 432 1084 497 1098 567 1098 C 595 1098 622 1095 648 1091 C 674 1087 699 1080 723 1071 L 778 1178 L 1030 1178 L 909 948 C 955 898 990 838 1016 768 C 1042 698 1055 621 1055 537 Z M 621 858 C 603 862 585 864 567 864 C 529 864 497 855 470 838 C 442 821 420 798 402 768 C 384 738 370 704 361 664 C 352 624 348 582 348 537 C 348 507 349 480 353 454 C 356 428 361 404 369 381 L 621 858 Z M 788 537 C 788 567 786 596 782 623 C 778 650 772 676 764 700 L 510 219 C 527 213 546 211 567 211 C 604 211 636 220 664 239 C 692 257 715 282 733 312 C 751 342 765 377 774 416 C 783 455 788 495 788 537 Z" unicode="ø" />
<glyph horiz-adv-x="1196" d="M 776 0 L 776 72 C 751 46 717 23 674 5 C 630 -13 580 -23 524 -23 C 394 -23 296 18 228 102 C 160 185 127 307 127 469 L 127 1075 L 410 1075 L 410 494 C 410 407 423 344 451 304 C 478 264 525 244 592 244 C 659 244 706 264 734 305 C 762 346 776 407 776 487 L 776 1075 L 1059 1075 L 1059 0 L 776 0 Z M 504 1219 L 207 1546 L 565 1546 L 743 1219 L 504 1219 Z" unicode="ù" />
<glyph horiz-adv-x="1196" d="M 776 0 L 776 72 C 751 46 717 23 674 5 C 630 -13 580 -23 524 -23 C 394 -23 296 18 228 102 C 160 185 127 307 127 469 L 127 1075 L 410 1075 L 410 494 C 410 407 423 344 451 304 C 478 264 525 244 592 244 C 659 244 706 264 734 305 C 762 346 776 407 776 487 L 776 1075 L 1059 1075 L 1059 0 L 776 0 Z M 667 1219 L 428 1219 L 606 1546 L 964 1546 L 667 1219 Z" unicode="ú" />
<glyph horiz-adv-x="1196" d="M 776 0 L 776 72 C 751 46 717 23 674 5 C 630 -13 580 -23 524 -23 C 394 -23 296 18 228 102 C 160 185 127 307 127 469 L 127 1075 L 410 1075 L 410 494 C 410 407 423 344 451 304 C 478 264 525 244 592 244 C 659 244 706 264 734 305 C 762 346 776 407 776 487 L 776 1075 L 1059 1075 L 1059 0 L 776 0 Z M 797 1219 L 592 1372 L 387 1219 L 201 1219 L 451 1546 L 737 1546 L 987 1219 L 797 1219 Z" unicode="û" />
<glyph horiz-adv-x="1196" d="M 776 0 L 776 72 C 751 46 717 23 674 5 C 630 -13 580 -23 524 -23 C 394 -23 296 18 228 102 C 160 185 127 307 127 469 L 127 1075 L 410 1075 L 410 494 C 410 407 423 344 451 304 C 478 264 525 244 592 244 C 659 244 706 264 734 305 C 762 346 776 407 776 487 L 776 1075 L 1059 1075 L 1059 0 L 776 0 Z M 975 1376 C 975 1354 970 1334 962 1316 C 953 1297 941 1280 927 1266 C 913 1251 896 1239 877 1231 C 857 1223 837 1219 817 1219 C 795 1219 774 1223 754 1231 C 734 1239 717 1251 703 1266 C 688 1280 676 1297 668 1316 C 659 1334 655 1354 655 1376 C 655 1398 659 1418 668 1438 C 676 1457 688 1474 703 1489 C 717 1503 734 1515 754 1523 C 774 1531 795 1536 817 1536 C 837 1536 857 1531 877 1523 C 896 1515 913 1503 927 1489 C 941 1474 953 1457 962 1438 C 970 1418 975 1398 975 1376 Z M 533 1376 C 533 1354 528 1334 520 1316 C 511 1297 499 1280 485 1266 C 470 1251 453 1239 434 1231 C 414 1223 394 1219 373 1219 C 351 1219 331 1223 312 1231 C 292 1239 275 1251 261 1266 C 246 1280 234 1297 226 1316 C 217 1334 213 1354 213 1376 C 213 1398 217 1418 226 1438 C 234 1457 246 1474 261 1489 C 275 1503 292 1515 312 1523 C 331 1531 351 1536 373 1536 C 394 1536 414 1531 434 1523 C 453 1515 470 1503 485 1489 C 499 1474 511 1457 520 1438 C 528 1418 533 1398 533 1376 Z" unicode="ü" />
<glyph horiz-adv-x="1208" d="M 604 -379 L 326 -379 L 469 0 L 51 1075 L 362 1075 L 608 351 L 854 1075 L 1157 1075 L 604 -379 Z M 676 1200 L 437 1200 L 615 1527 L 973 1527 L 676 1200 Z" unicode="ý" />
<glyph horiz-adv-x="1151" d="M 1065 524 C 1065 444 1055 370 1037 303 C 1018 236 991 178 955 130 C 919 82 876 44 824 17 C 772 -9 713 -23 647 -23 C 599 -23 556 -14 517 1 C 477 17 445 37 420 61 L 420 -254 L 137 -395 L 137 1352 L 420 1493 L 420 1008 C 433 1020 447 1031 463 1042 C 479 1052 496 1062 515 1070 C 533 1078 554 1085 576 1090 C 598 1095 621 1098 647 1098 C 704 1098 758 1087 809 1065 C 859 1043 904 1008 942 962 C 980 915 1010 855 1032 783 C 1054 711 1065 624 1065 524 Z M 778 518 C 778 573 773 620 765 660 C 756 699 744 731 728 757 C 712 782 692 801 670 813 C 647 825 622 831 594 831 C 550 831 515 822 488 805 C 460 787 438 766 420 741 L 420 336 C 431 320 443 306 457 295 C 470 283 485 274 502 266 C 519 258 535 252 551 249 C 567 245 586 244 610 244 C 664 244 706 267 735 313 C 763 359 778 427 778 518 Z" unicode="þ" />
<glyph horiz-adv-x="1208" d="M 604 -379 L 326 -379 L 469 0 L 51 1075 L 362 1075 L 608 351 L 854 1075 L 1157 1075 L 604 -379 Z M 983 1357 C 983 1335 978 1315 970 1297 C 961 1278 949 1261 935 1247 C 921 1232 904 1220 885 1212 C 865 1204 845 1200 825 1200 C 803 1200 782 1204 762 1212 C 742 1220 725 1232 711 1247 C 696 1261 684 1278 676 1297 C 667 1315 663 1335 663 1357 C 663 1379 667 1399 676 1419 C 684 1438 696 1455 711 1470 C 725 1484 742 1496 762 1504 C 782 1512 803 1517 825 1517 C 845 1517 865 1512 885 1504 C 904 1496 921 1484 935 1470 C 949 1455 961 1438 970 1419 C 978 1399 983 1379 983 1357 Z M 541 1357 C 541 1335 536 1315 528 1297 C 519 1278 507 1261 493 1247 C 478 1232 461 1220 442 1212 C 422 1204 402 1200 381 1200 C 359 1200 339 1204 320 1212 C 300 1220 283 1232 269 1247 C 254 1261 242 1278 234 1297 C 225 1315 221 1335 221 1357 C 221 1379 225 1399 234 1419 C 242 1438 254 1455 269 1470 C 283 1484 300 1496 320 1504 C 339 1512 359 1517 381 1517 C 402 1517 422 1512 442 1504 C 461 1496 478 1484 493 1470 C 507 1455 519 1438 528 1419 C 536 1399 541 1379 541 1357 Z" unicode="ÿ" />
<glyph horiz-adv-x="1536" d="M 1454 0 L 1139 0 L 1026 319 L 502 319 L 389 0 L 82 0 L 631 1434 L 909 1434 L 1454 0 Z M 928 592 L 764 1059 L 600 592 L 928 592 Z M 471 1556 L 471 1771 L 1065 1771 L 1065 1556 L 471 1556 Z" unicode="Ā" />
<glyph horiz-adv-x="1139" d="M 729 0 L 729 72 C 716 58 702 46 686 35 C 670 24 650 14 628 4 C 605 -5 582 -12 559 -16 C 535 -20 511 -23 487 -23 C 437 -23 388 -15 340 0 C 292 16 249 39 211 71 C 173 102 143 142 120 190 C 97 238 86 294 86 360 C 86 419 97 471 120 516 C 142 560 173 597 213 627 C 252 657 298 679 351 694 C 404 709 461 717 522 717 C 572 717 613 712 646 704 C 678 695 706 685 729 674 L 729 727 C 729 767 715 799 689 825 C 662 851 624 864 575 864 C 512 864 461 859 422 850 C 382 841 335 822 281 793 L 172 989 C 240 1029 304 1057 365 1073 C 426 1089 496 1098 575 1098 C 640 1098 699 1089 753 1073 C 807 1056 853 1032 891 1000 C 929 968 959 928 980 882 C 1001 835 1012 781 1012 721 L 1012 0 L 729 0 Z M 729 451 C 717 458 704 464 692 470 C 679 476 665 480 650 484 C 634 488 617 491 598 493 C 579 495 557 496 532 496 C 478 496 438 484 410 460 C 382 436 369 403 369 360 C 369 341 371 323 377 306 C 383 288 392 273 405 260 C 418 247 435 237 456 229 C 476 221 502 217 532 217 C 555 217 577 219 597 225 C 617 230 636 237 653 246 C 670 255 685 266 698 278 C 710 290 721 302 729 315 L 729 451 Z M 272 1249 L 272 1464 L 866 1464 L 866 1249 L 272 1249 Z" unicode="ā" />
<glyph horiz-adv-x="1536" d="M 1454 0 L 1139 0 L 1026 319 L 502 319 L 389 0 L 82 0 L 631 1434 L 909 1434 L 1454 0 Z M 928 592 L 764 1059 L 600 592 L 928 592 Z M 766 1526 C 710 1526 660 1533 616 1548 C 572 1562 535 1584 503 1612 C 471 1640 445 1674 425 1714 C 405 1754 392 1801 385 1853 L 557 1853 C 570 1807 594 1774 628 1752 C 662 1730 709 1720 770 1720 C 832 1720 879 1730 913 1751 C 947 1771 971 1805 985 1853 L 1151 1853 C 1143 1801 1129 1754 1108 1714 C 1087 1674 1060 1640 1027 1612 C 994 1584 956 1562 912 1548 C 868 1533 819 1526 766 1526 Z" unicode="Ă" />
<glyph horiz-adv-x="1139" d="M 729 0 L 729 72 C 716 58 702 46 686 35 C 670 24 650 14 628 4 C 605 -5 582 -12 559 -16 C 535 -20 511 -23 487 -23 C 437 -23 388 -15 340 0 C 292 16 249 39 211 71 C 173 102 143 142 120 190 C 97 238 86 294 86 360 C 86 419 97 471 120 516 C 142 560 173 597 213 627 C 252 657 298 679 351 694 C 404 709 461 717 522 717 C 572 717 613 712 646 704 C 678 695 706 685 729 674 L 729 727 C 729 767 715 799 689 825 C 662 851 624 864 575 864 C 512 864 461 859 422 850 C 382 841 335 822 281 793 L 172 989 C 240 1029 304 1057 365 1073 C 426 1089 496 1098 575 1098 C 640 1098 699 1089 753 1073 C 807 1056 853 1032 891 1000 C 929 968 959 928 980 882 C 1001 835 1012 781 1012 721 L 1012 0 L 729 0 Z M 729 451 C 717 458 704 464 692 470 C 679 476 665 480 650 484 C 634 488 617 491 598 493 C 579 495 557 496 532 496 C 478 496 438 484 410 460 C 382 436 369 403 369 360 C 369 341 371 323 377 306 C 383 288 392 273 405 260 C 418 247 435 237 456 229 C 476 221 502 217 532 217 C 555 217 577 219 597 225 C 617 230 636 237 653 246 C 670 255 685 266 698 278 C 710 290 721 302 729 315 L 729 451 Z M 567 1219 C 511 1219 461 1226 417 1241 C 373 1255 336 1277 304 1305 C 272 1333 246 1367 226 1407 C 206 1447 193 1494 186 1546 L 358 1546 C 371 1500 395 1467 429 1445 C 463 1423 510 1413 571 1413 C 633 1413 680 1423 714 1444 C 748 1464 772 1498 786 1546 L 952 1546 C 944 1494 930 1447 909 1407 C 888 1367 861 1333 828 1305 C 795 1277 757 1255 713 1241 C 669 1226 620 1219 567 1219 Z" unicode="ă" />
<glyph horiz-adv-x="1536" d="M 1454 0 L 1139 0 L 1026 319 L 502 319 L 389 0 L 82 0 L 631 1434 L 909 1434 L 1454 0 Z M 928 592 L 764 1059 L 600 592 L 928 592 Z M 1423 0 C 1381 -2 1346 -9 1316 -19 C 1286 -29 1261 -41 1242 -55 C 1222 -69 1208 -85 1199 -101 C 1189 -117 1185 -134 1185 -150 C 1185 -174 1193 -193 1209 -207 C 1225 -220 1248 -227 1279 -227 C 1293 -227 1307 -224 1322 -220 C 1336 -215 1349 -209 1361 -203 L 1423 -326 C 1381 -353 1341 -374 1303 -389 C 1264 -404 1220 -412 1171 -412 C 1137 -412 1106 -407 1079 -397 C 1052 -387 1029 -373 1010 -356 C 991 -339 977 -320 967 -298 C 957 -276 952 -254 952 -231 C 952 -201 957 -174 968 -150 C 978 -126 992 -104 1010 -85 C 1028 -66 1048 -49 1070 -35 C 1092 -21 1116 -9 1140 0 L 1423 0 Z" unicode="Ą" />
<glyph horiz-adv-x="1139" d="M 729 0 L 729 72 C 716 58 702 46 686 35 C 670 24 650 14 628 4 C 605 -5 582 -12 559 -16 C 535 -20 511 -23 487 -23 C 437 -23 388 -15 340 0 C 292 16 249 39 211 71 C 173 102 143 142 120 190 C 97 238 86 294 86 360 C 86 419 97 471 120 516 C 142 560 173 597 213 627 C 252 657 298 679 351 694 C 404 709 461 717 522 717 C 572 717 613 712 646 704 C 678 695 706 685 729 674 L 729 727 C 729 767 715 799 689 825 C 662 851 624 864 575 864 C 512 864 461 859 422 850 C 382 841 335 822 281 793 L 172 989 C 240 1029 304 1057 365 1073 C 426 1089 496 1098 575 1098 C 640 1098 699 1089 753 1073 C 807 1056 853 1032 891 1000 C 929 968 959 928 980 882 C 1001 835 1012 781 1012 721 L 1012 0 L 729 0 Z M 729 451 C 717 458 704 464 692 470 C 679 476 665 480 650 484 C 634 488 617 491 598 493 C 579 495 557 496 532 496 C 478 496 438 484 410 460 C 382 436 369 403 369 360 C 369 341 371 323 377 306 C 383 288 392 273 405 260 C 418 247 435 237 456 229 C 476 221 502 217 532 217 C 555 217 577 219 597 225 C 617 230 636 237 653 246 C 670 255 685 266 698 278 C 710 290 721 302 729 315 L 729 451 Z M 1012 0 C 970 -2 935 -9 905 -19 C 875 -29 850 -41 831 -55 C 811 -69 797 -85 788 -101 C 778 -117 774 -134 774 -150 C 774 -174 782 -193 798 -207 C 814 -220 837 -227 868 -227 C 882 -227 896 -224 911 -220 C 925 -215 938 -209 950 -203 L 1012 -326 C 970 -353 930 -374 892 -389 C 853 -404 809 -412 760 -412 C 726 -412 695 -407 668 -397 C 641 -387 618 -373 599 -356 C 580 -339 566 -320 556 -298 C 546 -276 541 -254 541 -231 C 541 -201 546 -174 557 -150 C 567 -126 581 -104 599 -85 C 617 -66 637 -49 659 -35 C 681 -21 705 -9 729 0 L 1012 0 Z" unicode="ą" />
<glyph horiz-adv-x="1372" d="M 1004 1016 C 988 1046 972 1069 958 1085 C 943 1100 925 1114 904 1128 C 882 1142 859 1152 833 1160 C 807 1167 776 1171 741 1171 C 687 1171 639 1159 597 1137 C 555 1115 520 1084 491 1044 C 462 1004 440 956 425 900 C 410 844 403 783 403 717 C 403 652 410 592 426 537 C 441 481 463 433 492 393 C 521 352 557 320 599 297 C 641 273 689 262 743 262 C 801 262 852 274 895 300 C 938 325 981 373 1024 444 L 1266 301 C 1241 250 1212 205 1178 165 C 1144 125 1105 91 1061 63 C 1017 35 967 13 913 -1 C 859 -15 799 -23 735 -23 C 669 -23 610 -15 556 0 C 502 16 452 39 405 69 C 357 99 315 135 279 179 C 242 222 213 267 191 314 C 169 360 149 417 133 485 C 117 553 109 630 109 717 C 109 825 124 925 156 1016 C 187 1106 231 1184 287 1250 C 343 1315 410 1366 488 1402 C 566 1438 651 1456 745 1456 C 865 1456 970 1429 1059 1377 C 1147 1325 1218 1245 1270 1139 L 1004 1016 Z M 786 1526 L 547 1526 L 725 1853 L 1083 1853 L 786 1526 Z" unicode="Ć" />
<glyph horiz-adv-x="1100" d="M 1026 217 C 1000 182 972 150 943 121 C 914 91 882 66 847 45 C 811 23 772 7 730 -5 C 687 -17 639 -23 586 -23 C 516 -23 450 -9 389 18 C 327 45 274 83 228 133 C 182 182 147 241 121 310 C 95 378 82 454 82 537 C 82 619 94 694 120 763 C 146 832 182 891 228 941 C 274 990 328 1028 391 1056 C 454 1084 523 1098 598 1098 C 688 1098 769 1078 840 1038 C 910 998 972 939 1024 860 L 838 672 C 822 694 805 715 788 734 C 771 752 753 768 734 782 C 714 795 693 805 670 813 C 646 821 620 825 592 825 C 558 825 527 818 500 804 C 472 790 449 771 430 746 C 410 721 395 691 385 656 C 374 620 369 581 369 537 C 369 493 374 454 385 419 C 395 384 410 354 430 329 C 449 303 472 284 500 270 C 527 256 558 250 592 250 C 619 250 644 253 667 259 C 690 265 712 273 732 285 C 752 297 772 311 790 328 C 808 345 827 365 846 387 L 1026 217 Z M 633 1219 L 394 1219 L 572 1546 L 930 1546 L 633 1219 Z" unicode="ć" />
<glyph horiz-adv-x="1372" d="" unicode="Ĉ" />
<glyph horiz-adv-x="1100" d="" unicode="ĉ" />
<glyph horiz-adv-x="1372" d="" unicode="Ċ" />
<glyph horiz-adv-x="1100" d="" unicode="ċ" />
<glyph horiz-adv-x="1372" d="M 1004 1016 C 988 1046 972 1069 958 1085 C 943 1100 925 1114 904 1128 C 882 1142 859 1152 833 1160 C 807 1167 776 1171 741 1171 C 687 1171 639 1159 597 1137 C 555 1115 520 1084 491 1044 C 462 1004 440 956 425 900 C 410 844 403 783 403 717 C 403 652 410 592 426 537 C 441 481 463 433 492 393 C 521 352 557 320 599 297 C 641 273 689 262 743 262 C 801 262 852 274 895 300 C 938 325 981 373 1024 444 L 1266 301 C 1241 250 1212 205 1178 165 C 1144 125 1105 91 1061 63 C 1017 35 967 13 913 -1 C 859 -15 799 -23 735 -23 C 669 -23 610 -15 556 0 C 502 16 452 39 405 69 C 357 99 315 135 279 179 C 242 222 213 267 191 314 C 169 360 149 417 133 485 C 117 553 109 630 109 717 C 109 825 124 925 156 1016 C 187 1106 231 1184 287 1250 C 343 1315 410 1366 488 1402 C 566 1438 651 1456 745 1456 C 865 1456 970 1429 1059 1377 C 1147 1325 1218 1245 1270 1139 L 1004 1016 Z M 868 1526 L 582 1526 L 332 1853 L 522 1853 L 727 1700 L 932 1853 L 1118 1853 L 868 1526 Z" unicode="Č" />
<glyph horiz-adv-x="1100" d="M 1026 217 C 1000 182 972 150 943 121 C 914 91 882 66 847 45 C 811 23 772 7 730 -5 C 687 -17 639 -23 586 -23 C 516 -23 450 -9 389 18 C 327 45 274 83 228 133 C 182 182 147 241 121 310 C 95 378 82 454 82 537 C 82 619 94 694 120 763 C 146 832 182 891 228 941 C 274 990 328 1028 391 1056 C 454 1084 523 1098 598 1098 C 688 1098 769 1078 840 1038 C 910 998 972 939 1024 860 L 838 672 C 822 694 805 715 788 734 C 771 752 753 768 734 782 C 714 795 693 805 670 813 C 646 821 620 825 592 825 C 558 825 527 818 500 804 C 472 790 449 771 430 746 C 410 721 395 691 385 656 C 374 620 369 581 369 537 C 369 493 374 454 385 419 C 395 384 410 354 430 329 C 449 303 472 284 500 270 C 527 256 558 250 592 250 C 619 250 644 253 667 259 C 690 265 712 273 732 285 C 752 297 772 311 790 328 C 808 345 827 365 846 387 L 1026 217 Z M 737 1219 L 451 1219 L 201 1546 L 391 1546 L 596 1393 L 801 1546 L 987 1546 L 737 1219 Z" unicode="č" />
<glyph horiz-adv-x="1448" d="M 1346 717 C 1346 633 1336 557 1317 489 C 1298 421 1272 360 1238 307 C 1204 253 1163 207 1117 169 C 1071 131 1020 99 966 74 C 912 48 854 30 794 18 C 734 6 673 0 612 0 L 184 0 L 184 1434 L 633 1434 C 735 1434 829 1421 917 1395 C 1004 1369 1079 1328 1143 1272 C 1206 1215 1256 1141 1292 1050 C 1328 958 1346 847 1346 717 Z M 1051 717 C 1051 790 1042 854 1026 909 C 1010 963 984 1009 950 1046 C 916 1082 872 1110 818 1128 C 764 1146 699 1155 623 1155 L 471 1155 L 471 279 L 612 279 C 687 279 752 289 807 310 C 862 331 908 361 944 399 C 980 437 1006 484 1024 538 C 1042 592 1051 651 1051 717 Z M 866 1526 L 580 1526 L 330 1853 L 520 1853 L 725 1700 L 930 1853 L 1116 1853 L 866 1526 Z" unicode="Ď" />
<glyph horiz-adv-x="1354" d="M 727 0 L 727 68 C 713 55 698 44 684 34 C 669 24 652 15 634 5 C 615 -4 595 -11 573 -16 C 551 -20 526 -23 500 -23 C 442 -23 388 -11 338 10 C 287 32 243 67 205 114 C 167 160 137 220 115 292 C 93 364 82 451 82 551 C 82 631 91 704 110 771 C 128 838 155 896 191 944 C 226 992 270 1030 322 1057 C 374 1084 433 1098 500 1098 C 524 1098 547 1096 569 1092 C 590 1088 611 1081 632 1072 C 652 1063 670 1054 685 1045 C 700 1035 714 1025 727 1014 L 727 1352 L 1010 1493 L 1010 0 L 727 0 Z M 727 739 C 716 753 705 766 693 777 C 681 787 667 797 651 805 C 635 813 618 820 598 824 C 578 828 558 831 537 831 C 482 831 440 808 412 762 C 383 716 369 647 369 557 C 369 501 373 454 382 415 C 390 375 403 343 419 318 C 435 292 454 274 477 262 C 499 250 525 244 553 244 C 575 244 594 246 611 250 C 628 254 643 261 657 269 C 671 277 683 286 695 297 C 706 308 717 320 727 334 L 727 739 Z M 1299 915 L 1142 915 L 1166 1381 L 1435 1381 L 1299 915 Z" unicode="ď" />
<glyph horiz-adv-x="1479" d="M 1376 717 C 1376 608 1359 510 1326 423 C 1292 335 1243 260 1177 196 C 1111 132 1031 84 939 50 C 847 16 748 0 643 0 L 215 0 L 215 631 L 82 631 L 82 866 L 215 866 L 215 1434 L 664 1434 C 766 1434 860 1421 947 1395 C 1034 1369 1109 1328 1173 1272 C 1237 1215 1286 1141 1322 1050 C 1358 958 1376 847 1376 717 Z M 1081 717 C 1081 790 1072 854 1056 909 C 1040 963 1014 1009 980 1046 C 946 1082 902 1110 848 1128 C 794 1146 729 1155 653 1155 L 494 1155 L 494 866 L 686 866 L 686 631 L 494 631 L 494 279 L 643 279 C 718 279 783 289 838 310 C 893 331 939 361 975 399 C 1011 437 1037 484 1055 538 C 1072 592 1081 651 1081 717 Z" unicode="Đ" />
<glyph horiz-adv-x="1200" d="M 553 244 C 575 244 594 246 611 250 C 628 254 643 261 657 269 C 671 277 683 286 695 297 C 706 308 717 320 727 334 L 727 739 C 683 800 619 831 537 831 C 482 831 440 808 412 762 C 383 716 369 647 369 557 C 369 501 373 454 382 415 C 390 375 403 343 419 318 C 435 292 454 274 477 262 C 499 250 525 244 553 244 Z M 1010 1493 L 1010 1300 L 1159 1300 L 1159 1085 L 1010 1085 L 1010 0 L 727 0 L 727 68 C 700 44 668 22 632 4 C 595 -13 551 -23 500 -23 C 442 -23 388 -11 338 10 C 287 32 243 67 205 114 C 167 160 137 220 115 292 C 93 364 82 451 82 551 C 82 631 91 704 110 771 C 128 838 155 896 191 944 C 226 992 270 1030 322 1057 C 374 1084 433 1098 500 1098 C 524 1098 548 1095 571 1090 C 593 1085 614 1079 634 1071 C 653 1063 670 1054 686 1044 C 702 1034 715 1024 727 1014 L 727 1352 L 1010 1493 Z" unicode="đ" />
<glyph horiz-adv-x="1331" d="M 1210 0 L 184 0 L 184 1434 L 1180 1434 L 1180 1153 L 471 1153 L 471 905 L 1047 905 L 1047 627 L 471 627 L 471 281 L 1210 281 L 1210 0 Z M 389 1556 L 389 1771 L 983 1771 L 983 1556 L 389 1556 Z" unicode="Ē" />
<glyph horiz-adv-x="1102" d="M 1014 537 C 1014 516 1013 498 1013 484 C 1012 469 1011 456 1010 446 L 367 446 C 369 409 377 378 391 352 C 405 326 422 306 442 290 C 462 274 485 262 511 255 C 536 247 562 244 588 244 C 607 244 625 245 642 248 C 658 251 675 256 692 263 C 709 270 724 278 737 288 C 750 297 762 307 772 319 L 973 152 C 951 124 926 99 897 77 C 867 55 836 37 802 22 C 768 7 732 -3 696 -11 C 660 -19 624 -23 588 -23 C 528 -23 475 -15 428 -1 C 381 12 340 32 305 56 C 269 80 238 107 211 139 C 183 171 160 206 142 245 C 123 284 108 328 98 376 C 87 424 82 478 82 537 C 82 619 94 694 118 763 C 142 832 176 891 219 941 C 262 990 313 1028 371 1056 C 429 1084 493 1098 561 1098 C 633 1098 697 1083 753 1053 C 809 1023 856 983 895 932 C 933 881 963 822 983 754 C 1003 686 1014 613 1014 537 Z M 739 659 C 737 683 731 706 723 730 C 715 753 703 774 687 792 C 671 810 652 824 629 835 C 606 846 579 852 547 852 C 521 852 497 847 477 837 C 457 827 439 813 424 796 C 409 778 397 758 388 735 C 379 711 373 686 371 659 L 739 659 Z M 254 1249 L 254 1464 L 848 1464 L 848 1249 L 254 1249 Z" unicode="ē" />
<glyph horiz-adv-x="1331" d="" unicode="Ĕ" />
<glyph horiz-adv-x="1102" d="" unicode="ĕ" />
<glyph horiz-adv-x="1331" d="M 1210 0 L 184 0 L 184 1434 L 1180 1434 L 1180 1153 L 471 1153 L 471 905 L 1047 905 L 1047 627 L 471 627 L 471 281 L 1210 281 L 1210 0 Z M 844 1683 C 844 1661 839 1641 831 1623 C 822 1604 810 1587 796 1573 C 782 1558 765 1546 746 1538 C 726 1530 706 1526 686 1526 C 664 1526 643 1530 623 1538 C 603 1546 586 1558 572 1573 C 557 1587 545 1604 537 1623 C 528 1641 524 1661 524 1683 C 524 1705 528 1725 537 1745 C 545 1764 557 1781 572 1796 C 586 1810 603 1822 623 1830 C 643 1838 664 1843 686 1843 C 706 1843 726 1838 746 1830 C 765 1822 782 1810 796 1796 C 810 1781 822 1764 831 1745 C 839 1725 844 1705 844 1683 Z" unicode="Ė" />
<glyph horiz-adv-x="1102" d="M 1014 537 C 1014 516 1013 498 1013 484 C 1012 469 1011 456 1010 446 L 367 446 C 369 409 377 378 391 352 C 405 326 422 306 442 290 C 462 274 485 262 511 255 C 536 247 562 244 588 244 C 607 244 625 245 642 248 C 658 251 675 256 692 263 C 709 270 724 278 737 288 C 750 297 762 307 772 319 L 973 152 C 951 124 926 99 897 77 C 867 55 836 37 802 22 C 768 7 732 -3 696 -11 C 660 -19 624 -23 588 -23 C 528 -23 475 -15 428 -1 C 381 12 340 32 305 56 C 269 80 238 107 211 139 C 183 171 160 206 142 245 C 123 284 108 328 98 376 C 87 424 82 478 82 537 C 82 619 94 694 118 763 C 142 832 176 891 219 941 C 262 990 313 1028 371 1056 C 429 1084 493 1098 561 1098 C 633 1098 697 1083 753 1053 C 809 1023 856 983 895 932 C 933 881 963 822 983 754 C 1003 686 1014 613 1014 537 Z M 739 659 C 737 683 731 706 723 730 C 715 753 703 774 687 792 C 671 810 652 824 629 835 C 606 846 579 852 547 852 C 521 852 497 847 477 837 C 457 827 439 813 424 796 C 409 778 397 758 388 735 C 379 711 373 686 371 659 L 739 659 Z M 709 1376 C 709 1354 704 1334 696 1316 C 687 1297 675 1280 661 1266 C 647 1251 630 1239 611 1231 C 591 1223 571 1219 551 1219 C 529 1219 508 1223 488 1231 C 468 1239 451 1251 437 1266 C 422 1280 410 1297 402 1316 C 393 1334 389 1354 389 1376 C 389 1398 393 1418 402 1438 C 410 1457 422 1474 437 1489 C 451 1503 468 1515 488 1523 C 508 1531 529 1536 551 1536 C 571 1536 591 1531 611 1523 C 630 1515 647 1503 661 1489 C 675 1474 687 1457 696 1438 C 704 1418 709 1398 709 1376 Z" unicode="ė" />
<glyph horiz-adv-x="1331" d="M 1210 0 L 184 0 L 184 1434 L 1180 1434 L 1180 1153 L 471 1153 L 471 905 L 1047 905 L 1047 627 L 471 627 L 471 281 L 1210 281 L 1210 0 Z M 1210 0 C 1168 -2 1133 -9 1103 -19 C 1073 -29 1048 -41 1029 -55 C 1009 -69 995 -85 986 -101 C 976 -117 972 -134 972 -150 C 972 -174 980 -193 996 -207 C 1012 -220 1035 -227 1066 -227 C 1080 -227 1094 -224 1109 -220 C 1123 -215 1136 -209 1148 -203 L 1210 -326 C 1168 -353 1128 -374 1090 -389 C 1051 -404 1007 -412 958 -412 C 924 -412 893 -407 866 -397 C 839 -387 816 -373 797 -356 C 778 -339 764 -320 754 -298 C 744 -276 739 -254 739 -231 C 739 -201 744 -174 755 -150 C 765 -126 779 -104 797 -85 C 815 -66 835 -49 857 -35 C 879 -21 903 -9 927 0 L 1210 0 Z" unicode="Ę" />
<glyph horiz-adv-x="1102" d="M 772 319 L 973 152 C 946 120 918 93 889 73 C 859 52 830 34 801 20 C 772 6 744 -6 718 -17 C 691 -27 666 -39 644 -52 C 621 -64 603 -80 589 -98 C 575 -116 568 -138 568 -165 C 568 -185 575 -200 591 -211 C 606 -221 627 -227 655 -227 C 663 -227 671 -225 681 -223 C 691 -221 709 -214 737 -203 L 799 -326 C 751 -357 707 -379 669 -392 C 631 -405 590 -412 547 -412 C 513 -412 482 -407 455 -397 C 428 -387 405 -373 386 -356 C 367 -339 353 -320 343 -298 C 333 -276 328 -254 328 -231 C 328 -182 342 -139 372 -101 C 402 -63 439 -34 483 -14 C 421 -2 365 18 316 49 C 266 79 224 118 190 166 C 155 213 128 268 110 331 C 91 393 82 462 82 537 C 82 619 94 694 118 763 C 142 832 176 891 219 941 C 262 990 313 1028 371 1056 C 429 1084 493 1098 561 1098 C 633 1098 697 1083 753 1053 C 809 1023 856 983 895 932 C 933 881 963 822 983 754 C 1003 686 1014 613 1014 537 C 1014 516 1013 498 1013 484 C 1012 469 1011 456 1010 446 L 367 446 C 369 409 377 378 391 352 C 405 326 422 306 442 290 C 462 274 485 262 511 255 C 536 247 562 244 588 244 C 627 244 662 250 694 264 C 725 277 751 295 772 319 Z M 739 659 C 737 683 731 706 723 730 C 715 753 703 774 687 792 C 671 810 652 824 629 835 C 606 846 579 852 547 852 C 521 852 497 847 477 837 C 457 827 439 813 424 796 C 409 778 397 758 388 735 C 379 711 373 686 371 659 L 739 659 Z" unicode="ę" />
<glyph horiz-adv-x="1331" d="M 1210 0 L 184 0 L 184 1434 L 1180 1434 L 1180 1153 L 471 1153 L 471 905 L 1047 905 L 1047 627 L 471 627 L 471 281 L 1210 281 L 1210 0 Z M 817 1526 L 531 1526 L 281 1853 L 471 1853 L 676 1700 L 881 1853 L 1067 1853 L 817 1526 Z" unicode="Ě" />
<glyph horiz-adv-x="1102" d="M 1014 537 C 1014 516 1013 498 1013 484 C 1012 469 1011 456 1010 446 L 367 446 C 369 409 377 378 391 352 C 405 326 422 306 442 290 C 462 274 485 262 511 255 C 536 247 562 244 588 244 C 607 244 625 245 642 248 C 658 251 675 256 692 263 C 709 270 724 278 737 288 C 750 297 762 307 772 319 L 973 152 C 951 124 926 99 897 77 C 867 55 836 37 802 22 C 768 7 732 -3 696 -11 C 660 -19 624 -23 588 -23 C 528 -23 475 -15 428 -1 C 381 12 340 32 305 56 C 269 80 238 107 211 139 C 183 171 160 206 142 245 C 123 284 108 328 98 376 C 87 424 82 478 82 537 C 82 619 94 694 118 763 C 142 832 176 891 219 941 C 262 990 313 1028 371 1056 C 429 1084 493 1098 561 1098 C 633 1098 697 1083 753 1053 C 809 1023 856 983 895 932 C 933 881 963 822 983 754 C 1003 686 1014 613 1014 537 Z M 739 659 C 737 683 731 706 723 730 C 715 753 703 774 687 792 C 671 810 652 824 629 835 C 606 846 579 852 547 852 C 521 852 497 847 477 837 C 457 827 439 813 424 796 C 409 778 397 758 388 735 C 379 711 373 686 371 659 L 739 659 Z M 694 1219 L 408 1219 L 158 1546 L 348 1546 L 553 1393 L 758 1546 L 944 1546 L 694 1219 Z" unicode="ě" />
<glyph horiz-adv-x="1430" d="" unicode="Ĝ" />
<glyph horiz-adv-x="1151" d="" unicode="ĝ" />
<glyph horiz-adv-x="1430" d="M 1311 555 C 1311 463 1296 381 1267 309 C 1238 237 1198 176 1147 127 C 1096 78 1035 41 965 15 C 894 -10 817 -23 735 -23 C 641 -23 555 -5 479 29 C 402 63 336 113 281 177 C 226 241 184 318 154 410 C 124 501 109 603 109 717 C 109 825 124 925 156 1016 C 187 1106 231 1184 287 1250 C 343 1315 410 1366 488 1402 C 566 1438 651 1456 745 1456 C 888 1456 1003 1423 1091 1359 C 1178 1295 1244 1208 1288 1098 L 1016 985 C 1002 1011 988 1036 972 1059 C 956 1081 938 1101 917 1118 C 895 1134 870 1147 842 1157 C 813 1166 779 1171 741 1171 C 687 1171 639 1159 597 1137 C 555 1115 520 1084 491 1044 C 462 1004 440 956 425 900 C 410 844 403 783 403 717 C 403 651 410 590 426 534 C 441 478 463 429 492 388 C 521 347 557 315 599 292 C 641 269 689 258 743 258 C 824 258 888 274 934 306 C 980 338 1010 389 1022 461 L 1024 475 L 797 475 L 797 743 L 1311 743 L 1311 555 Z M 737 1524 C 681 1524 631 1531 587 1546 C 543 1560 506 1582 474 1610 C 442 1638 416 1672 396 1712 C 376 1752 363 1799 356 1851 L 528 1851 C 541 1805 565 1772 599 1750 C 633 1728 680 1718 741 1718 C 803 1718 850 1728 884 1749 C 918 1769 942 1803 956 1851 L 1122 1851 C 1114 1799 1100 1752 1079 1712 C 1058 1672 1031 1638 998 1610 C 965 1582 927 1560 883 1546 C 839 1531 790 1524 737 1524 Z" unicode="Ğ" />
<glyph horiz-adv-x="1151" d="M 1010 166 C 1010 66 998 -18 975 -88 C 952 -158 918 -214 874 -256 C 832 -295 781 -327 719 -352 C 657 -376 583 -391 496 -397 L 412 -172 C 474 -166 526 -158 567 -148 C 608 -138 640 -125 662 -109 C 682 -94 697 -73 709 -47 C 720 -21 726 15 727 61 L 727 68 C 713 56 699 45 684 35 C 669 25 652 15 633 5 C 614 -4 594 -11 572 -16 C 550 -20 526 -23 500 -23 C 442 -23 388 -11 338 10 C 287 32 243 67 205 114 C 167 160 137 220 115 292 C 93 364 82 451 82 551 C 82 631 91 704 110 771 C 128 838 155 896 191 944 C 226 992 270 1030 322 1057 C 374 1084 433 1098 500 1098 C 522 1098 545 1096 567 1092 C 589 1088 611 1081 632 1072 C 653 1063 671 1054 686 1045 C 700 1035 714 1025 727 1014 L 727 1075 L 1010 1075 L 1010 166 Z M 553 244 C 591 244 624 251 652 266 C 680 281 705 304 727 334 L 727 739 C 716 753 705 766 694 776 C 683 786 670 795 654 804 C 638 812 620 819 601 824 C 581 828 560 831 537 831 C 482 831 440 808 412 762 C 383 716 369 647 369 557 C 369 449 385 370 417 320 C 449 269 495 244 553 244 Z M 573 1219 C 517 1219 467 1226 423 1241 C 379 1255 342 1277 310 1305 C 278 1333 252 1367 232 1407 C 212 1447 199 1494 192 1546 L 364 1546 C 377 1500 401 1467 435 1445 C 469 1423 516 1413 577 1413 C 639 1413 686 1423 720 1444 C 754 1464 778 1498 792 1546 L 958 1546 C 950 1494 936 1447 915 1407 C 894 1367 867 1333 834 1305 C 801 1277 763 1255 719 1241 C 675 1226 626 1219 573 1219 Z" unicode="ğ" />
<glyph horiz-adv-x="1430" d="" unicode="Ġ" />
<glyph horiz-adv-x="1151" d="" unicode="ġ" />
<glyph horiz-adv-x="1430" d="M 1311 555 C 1311 463 1296 381 1267 309 C 1238 237 1198 176 1147 127 C 1096 78 1035 41 965 15 C 894 -10 817 -23 735 -23 C 641 -23 555 -5 479 29 C 402 63 336 113 281 177 C 226 241 184 318 154 410 C 124 501 109 603 109 717 C 109 825 124 925 156 1016 C 187 1106 231 1184 287 1250 C 343 1315 410 1366 488 1402 C 566 1438 651 1456 745 1456 C 888 1456 1003 1423 1091 1359 C 1178 1295 1244 1208 1288 1098 L 1016 985 C 1002 1011 988 1036 972 1059 C 956 1081 938 1101 917 1118 C 895 1134 870 1147 842 1157 C 813 1166 779 1171 741 1171 C 687 1171 639 1159 597 1137 C 555 1115 520 1084 491 1044 C 462 1004 440 956 425 900 C 410 844 403 783 403 717 C 403 651 410 590 426 534 C 441 478 463 429 492 388 C 521 347 557 315 599 292 C 641 269 689 258 743 258 C 824 258 888 274 934 306 C 980 338 1010 389 1022 461 L 1024 475 L 797 475 L 797 743 L 1311 743 L 1311 555 Z M 734 -491 L 585 -491 L 607 -99 L 840 -99 L 734 -491 Z" unicode="Ģ" />
<glyph horiz-adv-x="1151" d="M 1010 166 C 1010 66 998 -18 975 -88 C 952 -158 918 -214 874 -256 C 832 -295 781 -327 719 -352 C 657 -376 583 -391 496 -397 L 412 -172 C 474 -166 526 -158 567 -148 C 608 -138 640 -125 662 -109 C 682 -94 697 -73 709 -47 C 720 -21 726 15 727 61 L 727 68 C 713 56 699 45 684 35 C 669 25 652 15 633 5 C 614 -4 594 -11 572 -16 C 550 -20 526 -23 500 -23 C 442 -23 388 -11 338 10 C 287 32 243 67 205 114 C 167 160 137 220 115 292 C 93 364 82 451 82 551 C 82 631 91 704 110 771 C 128 838 155 896 191 944 C 226 992 270 1030 322 1057 C 374 1084 433 1098 500 1098 C 522 1098 545 1096 567 1092 C 589 1088 611 1081 632 1072 C 653 1063 671 1054 686 1045 C 700 1035 714 1025 727 1014 L 727 1075 L 1010 1075 L 1010 166 Z M 553 244 C 591 244 624 251 652 266 C 680 281 705 304 727 334 L 727 739 C 716 753 705 766 694 776 C 683 786 670 795 654 804 C 638 812 620 819 601 824 C 581 828 560 831 537 831 C 482 831 440 808 412 762 C 383 716 369 647 369 557 C 369 449 385 370 417 320 C 449 269 495 244 553 244 Z M 580 1622 L 742 1622 L 718 1197 L 465 1197 L 580 1622 Z" unicode="ģ" />
<glyph horiz-adv-x="1530" d="" unicode="Ĥ" />
<glyph horiz-adv-x="1196" d="" unicode="ĥ" />
<glyph horiz-adv-x="1530" d="" unicode="Ħ" />
<glyph horiz-adv-x="1196" d="" unicode="ħ" />
<glyph horiz-adv-x="696" d="" unicode="Ĩ" />
<glyph horiz-adv-x="578" d="" unicode="ĩ" />
<glyph horiz-adv-x="696" d="M 205 0 L 205 1434 L 492 1434 L 492 0 L 205 0 Z M 52 1556 L 52 1771 L 646 1771 L 646 1556 L 52 1556 Z" unicode="Ī" />
<glyph horiz-adv-x="578" d="M 147 0 L 147 1075 L 430 1075 L 430 0 L 147 0 Z M -7 1249 L -7 1464 L 587 1464 L 587 1249 L -7 1249 Z" unicode="ī" />
<glyph horiz-adv-x="696" d="" unicode="Ĭ" />
<glyph horiz-adv-x="578" d="" unicode="ĭ" />
<glyph horiz-adv-x="696" d="M 205 0 L 205 1434 L 492 1434 L 492 0 L 205 0 Z M 489 0 C 447 -2 412 -9 382 -19 C 352 -29 327 -41 308 -55 C 288 -69 274 -85 265 -101 C 255 -117 251 -134 251 -150 C 251 -174 259 -193 275 -207 C 291 -220 314 -227 345 -227 C 359 -227 373 -224 388 -220 C 402 -215 415 -209 427 -203 L 489 -326 C 447 -353 407 -374 369 -389 C 330 -404 286 -412 237 -412 C 203 -412 172 -407 145 -397 C 118 -387 95 -373 76 -356 C 57 -339 43 -320 33 -298 C 23 -276 18 -254 18 -231 C 18 -201 23 -174 34 -150 C 44 -126 58 -104 76 -85 C 94 -66 114 -49 136 -35 C 158 -21 182 -9 206 0 L 489 0 Z" unicode="Į" />
<glyph horiz-adv-x="578" d="M 451 1325 C 451 1303 446 1282 438 1262 C 429 1242 417 1225 403 1211 C 388 1196 371 1184 351 1176 C 331 1167 311 1163 289 1163 C 267 1163 246 1167 226 1176 C 206 1184 189 1196 175 1211 C 160 1225 148 1242 140 1262 C 131 1282 127 1303 127 1325 C 127 1347 131 1367 140 1387 C 148 1407 160 1424 175 1439 C 189 1453 206 1465 226 1474 C 246 1482 267 1487 289 1487 C 311 1487 331 1482 351 1474 C 371 1465 388 1453 403 1439 C 417 1424 429 1407 438 1387 C 446 1367 451 1347 451 1325 Z M 147 0 L 147 1075 L 430 1075 L 430 0 L 147 0 Z M 430 0 C 388 -2 353 -9 323 -19 C 293 -29 268 -41 249 -55 C 229 -69 215 -85 206 -101 C 196 -117 192 -134 192 -150 C 192 -174 200 -193 216 -207 C 232 -220 255 -227 286 -227 C 300 -227 314 -224 329 -220 C 343 -215 356 -209 368 -203 L 430 -326 C 388 -353 348 -374 310 -389 C 271 -404 227 -412 178 -412 C 144 -412 113 -407 86 -397 C 59 -387 36 -373 17 -356 C -1 -339 -16 -320 -26 -298 C -36 -276 -41 -254 -41 -231 C -41 -201 -35 -174 -25 -150 C -14 -126 0 -104 17 -85 C 35 -66 55 -49 77 -35 C 99 -21 123 -9 147 0 L 430 0 Z" unicode="į" />
<glyph horiz-adv-x="696" d="M 205 0 L 205 1434 L 492 1434 L 492 0 L 205 0 Z M 509 1683 C 509 1661 504 1641 496 1623 C 487 1604 475 1587 461 1573 C 447 1558 430 1546 411 1538 C 391 1530 371 1526 351 1526 C 329 1526 308 1530 288 1538 C 268 1546 251 1558 237 1573 C 222 1587 210 1604 202 1623 C 193 1641 189 1661 189 1683 C 189 1705 193 1725 202 1745 C 210 1764 222 1781 237 1796 C 251 1810 268 1822 288 1830 C 308 1838 329 1843 351 1843 C 371 1843 391 1838 411 1830 C 430 1822 447 1810 461 1796 C 475 1781 487 1764 496 1745 C 504 1725 509 1705 509 1683 Z" unicode="İ" />
<glyph horiz-adv-x="578" d="M 147 0 L 147 1075 L 430 1075 L 430 0 L 147 0 Z" unicode="ı" />
<glyph horiz-adv-x="2028" d="" unicode="Ĳ" />
<glyph horiz-adv-x="1155" d="" unicode="ĳ" />
<glyph horiz-adv-x="1331" d="" unicode="Ĵ" />
<glyph horiz-adv-x="578" d="" unicode="ĵ" />
<glyph horiz-adv-x="1475" d="M 1434 0 L 1090 0 L 700 692 L 471 422 L 471 0 L 184 0 L 184 1434 L 471 1434 L 471 811 L 981 1434 L 1327 1434 L 907 938 L 1434 0 Z M 759 -481 L 610 -481 L 632 -89 L 865 -89 L 759 -481 Z" unicode="Ķ" />
<glyph horiz-adv-x="1128" d="M 762 0 L 557 496 L 420 326 L 420 0 L 137 0 L 137 1352 L 420 1493 L 420 707 L 705 1075 L 1038 1075 L 762 733 L 1071 0 L 762 0 Z M 595 -491 L 446 -491 L 468 -99 L 701 -99 L 595 -491 Z" unicode="ķ" />
<glyph horiz-adv-x="1128" d="" unicode="ĸ" />
<glyph horiz-adv-x="1270" d="M 184 0 L 184 1434 L 471 1434 L 471 283 L 1190 283 L 1190 0 L 184 0 Z M 433 1526 L 194 1526 L 372 1853 L 730 1853 L 433 1526 Z" unicode="Ĺ" />
<glyph horiz-adv-x="578" d="M 147 0 L 147 1352 L 430 1493 L 430 0 L 147 0 Z M 361 1526 L 122 1526 L 300 1853 L 658 1853 L 361 1526 Z" unicode="ĺ" />
<glyph horiz-adv-x="1270" d="M 184 0 L 184 1434 L 471 1434 L 471 283 L 1190 283 L 1190 0 L 184 0 Z M 667 -491 L 518 -491 L 540 -99 L 773 -99 L 667 -491 Z" unicode="Ļ" />
<glyph horiz-adv-x="578" d="M 147 0 L 147 1352 L 430 1493 L 430 0 L 147 0 Z M 303 -491 L 154 -491 L 176 -99 L 409 -99 L 303 -491 Z" unicode="ļ" />
<glyph horiz-adv-x="1270" d="M 184 0 L 184 1434 L 471 1434 L 471 283 L 1190 283 L 1190 0 L 184 0 Z M 833 1169 L 677 1169 L 701 1636 L 967 1636 L 833 1169 Z" unicode="Ľ" />
<glyph horiz-adv-x="772" d="M 147 0 L 147 1352 L 430 1493 L 430 0 L 147 0 Z M 718 915 L 561 915 L 585 1381 L 854 1381 L 718 915 Z" unicode="ľ" />
<glyph horiz-adv-x="1270" d="" unicode="Ŀ" />
<glyph horiz-adv-x="1016" d="" unicode="ŀ" />
<glyph horiz-adv-x="1300" d="M 215 0 L 215 483 L 82 381 L 82 657 L 215 760 L 215 1434 L 498 1434 L 498 936 L 735 1112 L 735 836 L 498 659 L 498 283 L 1221 283 L 1221 0 L 215 0 Z" unicode="Ł" />
<glyph horiz-adv-x="659" d="M 469 641 L 469 0 L 190 0 L 190 489 L 72 408 L 72 684 L 190 766 L 190 1352 L 469 1493 L 469 915 L 588 999 L 588 723 L 469 641 Z" unicode="ł" />
<glyph horiz-adv-x="1530" d="M 1346 0 L 1090 0 L 467 925 L 467 0 L 184 0 L 184 1434 L 459 1434 L 1063 532 L 1063 1434 L 1346 1434 L 1346 0 Z M 835 1526 L 596 1526 L 774 1853 L 1132 1853 L 835 1526 Z" unicode="Ń" />
<glyph horiz-adv-x="1196" d="M 786 0 L 786 582 C 786 666 772 729 745 770 C 718 810 671 831 604 831 C 574 831 548 827 526 819 C 503 811 484 797 468 779 C 452 760 440 735 432 704 C 424 673 420 634 420 588 L 420 0 L 137 0 L 137 1075 L 420 1075 L 420 1004 C 432 1016 446 1027 463 1039 C 480 1050 500 1060 523 1070 C 545 1080 569 1087 594 1091 C 619 1095 645 1098 672 1098 C 740 1098 799 1086 849 1063 C 899 1040 940 1007 973 965 C 1005 923 1029 871 1045 811 C 1061 750 1069 682 1069 606 L 1069 0 L 786 0 Z M 608 1219 L 369 1219 L 547 1546 L 905 1546 L 608 1219 Z" unicode="ń" />
<glyph horiz-adv-x="1530" d="M 1346 0 L 1090 0 L 467 925 L 467 0 L 184 0 L 184 1434 L 459 1434 L 1063 532 L 1063 1434 L 1346 1434 L 1346 0 Z M 786 -481 L 637 -481 L 659 -89 L 892 -89 L 786 -481 Z" unicode="Ņ" />
<glyph horiz-adv-x="1196" d="M 786 0 L 786 582 C 786 666 772 729 745 770 C 718 810 671 831 604 831 C 574 831 548 827 526 819 C 503 811 484 797 468 779 C 452 760 440 735 432 704 C 424 673 420 634 420 588 L 420 0 L 137 0 L 137 1075 L 420 1075 L 420 1004 C 432 1016 446 1027 463 1039 C 480 1050 500 1060 523 1070 C 545 1080 569 1087 594 1091 C 619 1095 645 1098 672 1098 C 740 1098 799 1086 849 1063 C 899 1040 940 1007 973 965 C 1005 923 1029 871 1045 811 C 1061 750 1069 682 1069 606 L 1069 0 L 786 0 Z M 620 -491 L 471 -491 L 493 -99 L 726 -99 L 620 -491 Z" unicode="ņ" />
<glyph horiz-adv-x="1530" d="M 1346 0 L 1090 0 L 467 925 L 467 0 L 184 0 L 184 1434 L 459 1434 L 1063 532 L 1063 1434 L 1346 1434 L 1346 0 Z M 907 1526 L 621 1526 L 371 1853 L 561 1853 L 766 1700 L 971 1853 L 1157 1853 L 907 1526 Z" unicode="Ň" />
<glyph horiz-adv-x="1196" d="M 786 0 L 786 582 C 786 666 772 729 745 770 C 718 810 671 831 604 831 C 574 831 548 827 526 819 C 503 811 484 797 468 779 C 452 760 440 735 432 704 C 424 673 420 634 420 588 L 420 0 L 137 0 L 137 1075 L 420 1075 L 420 1004 C 432 1016 446 1027 463 1039 C 480 1050 500 1060 523 1070 C 545 1080 569 1087 594 1091 C 619 1095 645 1098 672 1098 C 740 1098 799 1086 849 1063 C 899 1040 940 1007 973 965 C 1005 923 1029 871 1045 811 C 1061 750 1069 682 1069 606 L 1069 0 L 786 0 Z M 741 1219 L 455 1219 L 205 1546 L 395 1546 L 600 1393 L 805 1546 L 991 1546 L 741 1219 Z" unicode="ň" />
<glyph horiz-adv-x="1675" d="" unicode="ŉ" />
<glyph horiz-adv-x="1530" d="" unicode="Ŋ" />
<glyph horiz-adv-x="1196" d="" unicode="ŋ" />
<glyph horiz-adv-x="1473" d="M 1368 719 C 1368 603 1352 499 1321 407 C 1290 315 1247 238 1191 174 C 1135 110 1069 62 991 28 C 913 -6 828 -23 735 -23 C 641 -23 555 -6 478 27 C 400 60 334 108 279 172 C 223 235 180 312 150 404 C 119 495 104 599 104 715 C 104 831 119 934 150 1026 C 181 1118 225 1195 281 1259 C 337 1323 404 1371 482 1405 C 560 1439 645 1456 739 1456 C 832 1456 917 1439 994 1406 C 1071 1372 1137 1324 1193 1261 C 1248 1197 1291 1120 1322 1029 C 1352 938 1368 835 1368 719 Z M 1073 715 C 1073 787 1064 852 1048 909 C 1031 965 1008 1013 978 1052 C 948 1090 912 1120 870 1140 C 828 1160 783 1171 733 1171 C 683 1171 637 1161 596 1141 C 554 1121 519 1092 490 1054 C 461 1016 439 968 423 912 C 407 856 399 791 399 719 C 399 646 407 581 424 525 C 440 468 464 420 494 381 C 524 342 559 312 601 292 C 643 272 689 262 739 262 C 789 262 834 272 876 292 C 917 312 952 341 981 379 C 1010 417 1033 465 1049 521 C 1065 577 1073 642 1073 715 Z M 438 1556 L 438 1771 L 1032 1771 L 1032 1556 L 438 1556 Z" unicode="Ō" />
<glyph horiz-adv-x="1137" d="M 1055 537 C 1055 454 1042 378 1018 310 C 994 241 960 182 916 133 C 872 83 821 45 761 18 C 701 -9 637 -23 567 -23 C 497 -23 432 -9 373 18 C 313 45 262 83 219 133 C 176 182 142 241 118 310 C 94 378 82 454 82 537 C 82 619 94 694 118 763 C 142 832 176 891 219 941 C 262 990 313 1028 373 1056 C 432 1084 497 1098 567 1098 C 637 1098 701 1084 761 1056 C 821 1028 872 990 916 941 C 960 891 994 832 1018 763 C 1042 694 1055 619 1055 537 Z M 768 537 C 768 577 763 615 755 650 C 747 685 734 716 718 742 C 701 768 680 788 655 803 C 630 817 601 825 567 825 C 533 825 503 817 479 803 C 454 788 433 768 417 742 C 401 716 389 686 381 651 C 373 616 369 578 369 537 C 369 495 373 457 381 422 C 389 386 401 356 417 331 C 433 305 454 285 479 271 C 503 257 533 250 567 250 C 601 250 630 257 655 273 C 680 289 701 310 718 337 C 734 363 747 394 755 429 C 763 463 768 499 768 537 Z M 270 1249 L 270 1464 L 864 1464 L 864 1249 L 270 1249 Z" unicode="ō" />
<glyph horiz-adv-x="1473" d="" unicode="Ŏ" />
<glyph horiz-adv-x="1137" d="" unicode="ŏ" />
<glyph horiz-adv-x="1473" d="M 1368 719 C 1368 603 1352 499 1321 407 C 1290 315 1247 238 1191 174 C 1135 110 1069 62 991 28 C 913 -6 828 -23 735 -23 C 641 -23 555 -6 478 27 C 400 60 334 108 279 172 C 223 235 180 312 150 404 C 119 495 104 599 104 715 C 104 831 119 934 150 1026 C 181 1118 225 1195 281 1259 C 337 1323 404 1371 482 1405 C 560 1439 645 1456 739 1456 C 832 1456 917 1439 994 1406 C 1071 1372 1137 1324 1193 1261 C 1248 1197 1291 1120 1322 1029 C 1352 938 1368 835 1368 719 Z M 1073 715 C 1073 787 1064 852 1048 909 C 1031 965 1008 1013 978 1052 C 948 1090 912 1120 870 1140 C 828 1160 783 1171 733 1171 C 683 1171 637 1161 596 1141 C 554 1121 519 1092 490 1054 C 461 1016 439 968 423 912 C 407 856 399 791 399 719 C 399 646 407 581 424 525 C 440 468 464 420 494 381 C 524 342 559 312 601 292 C 643 272 689 262 739 262 C 789 262 834 272 876 292 C 917 312 952 341 981 379 C 1010 417 1033 465 1049 521 C 1065 577 1073 642 1073 715 Z M 979 1526 L 739 1526 L 917 1853 L 1276 1853 L 979 1526 Z M 528 1526 L 289 1526 L 467 1853 L 825 1853 L 528 1526 Z" unicode="Ő" />
<glyph horiz-adv-x="1137" d="M 1055 537 C 1055 454 1042 378 1018 310 C 994 241 960 182 916 133 C 872 83 821 45 761 18 C 701 -9 637 -23 567 -23 C 497 -23 432 -9 373 18 C 313 45 262 83 219 133 C 176 182 142 241 118 310 C 94 378 82 454 82 537 C 82 619 94 694 118 763 C 142 832 176 891 219 941 C 262 990 313 1028 373 1056 C 432 1084 497 1098 567 1098 C 637 1098 701 1084 761 1056 C 821 1028 872 990 916 941 C 960 891 994 832 1018 763 C 1042 694 1055 619 1055 537 Z M 768 537 C 768 577 763 615 755 650 C 747 685 734 716 718 742 C 701 768 680 788 655 803 C 630 817 601 825 567 825 C 533 825 503 817 479 803 C 454 788 433 768 417 742 C 401 716 389 686 381 651 C 373 616 369 578 369 537 C 369 495 373 457 381 422 C 389 386 401 356 417 331 C 433 305 454 285 479 271 C 503 257 533 250 567 250 C 601 250 630 257 655 273 C 680 289 701 310 718 337 C 734 363 747 394 755 429 C 763 463 768 499 768 537 Z M 838 1219 L 598 1219 L 776 1546 L 1135 1546 L 838 1219 Z M 387 1219 L 148 1219 L 326 1546 L 684 1546 L 387 1219 Z" unicode="ő" />
<glyph horiz-adv-x="2161" d="M 1321 627 L 1321 281 L 2040 281 L 2040 0 L 1075 0 L 1075 129 C 1057 105 1037 84 1014 65 C 990 46 964 30 935 17 C 906 4 875 -5 841 -12 C 807 -19 770 -23 731 -23 C 637 -23 550 -5 472 30 C 393 65 326 117 271 187 C 215 256 174 336 148 426 C 122 516 109 613 109 717 C 109 839 126 950 162 1048 C 198 1146 246 1226 306 1286 C 366 1346 432 1390 503 1416 C 574 1442 650 1456 731 1456 C 775 1456 814 1452 848 1445 C 882 1437 912 1427 940 1414 C 968 1401 992 1386 1013 1369 C 1034 1352 1055 1331 1075 1305 L 1075 1434 L 2009 1434 L 2009 1153 L 1321 1153 L 1321 905 L 1894 905 L 1894 627 L 1321 627 Z M 1059 717 C 1059 780 1053 838 1042 890 C 1030 942 1012 989 986 1033 C 960 1076 926 1110 883 1134 C 839 1158 789 1171 731 1171 C 681 1171 635 1161 595 1142 C 554 1123 519 1094 491 1055 C 462 1015 440 967 425 911 C 410 855 403 790 403 717 C 403 643 410 578 425 522 C 440 466 462 418 491 379 C 519 339 554 310 595 291 C 635 271 681 262 731 262 C 789 262 839 274 883 299 C 926 323 960 357 986 401 C 1012 444 1030 492 1042 544 C 1053 596 1059 653 1059 717 Z" unicode="Œ" />
<glyph horiz-adv-x="1761" d="M 1673 537 C 1673 516 1672 498 1672 484 C 1671 469 1670 456 1669 446 L 1026 446 C 1028 409 1036 378 1050 352 C 1064 326 1081 306 1102 290 C 1122 274 1145 262 1171 255 C 1196 247 1221 244 1247 244 C 1286 244 1321 250 1353 264 C 1385 277 1411 295 1432 319 L 1632 152 C 1588 96 1531 53 1462 23 C 1392 -7 1321 -23 1247 -23 C 1207 -23 1169 -19 1134 -12 C 1098 -5 1066 5 1036 20 C 1006 34 979 51 957 69 C 934 87 913 108 895 131 C 877 105 857 83 835 65 C 813 47 788 31 761 18 C 733 4 703 -5 671 -12 C 639 -19 604 -23 567 -23 C 497 -23 432 -9 373 18 C 313 45 262 83 219 133 C 176 182 142 241 118 310 C 94 378 82 454 82 537 C 82 619 94 694 118 763 C 142 832 176 891 219 941 C 262 990 313 1028 373 1056 C 432 1084 497 1098 567 1098 C 604 1098 639 1094 671 1087 C 703 1079 733 1069 762 1055 C 790 1041 815 1024 837 1006 C 858 988 878 966 897 940 C 935 988 981 1026 1034 1055 C 1086 1083 1149 1098 1221 1098 C 1292 1098 1356 1083 1412 1053 C 1468 1023 1515 983 1554 932 C 1592 881 1622 822 1642 754 C 1662 686 1673 613 1673 537 Z M 1399 659 C 1397 683 1391 706 1383 730 C 1375 753 1363 774 1347 792 C 1331 810 1312 824 1289 835 C 1265 846 1238 852 1206 852 C 1158 852 1118 834 1086 799 C 1054 763 1036 717 1030 659 L 1399 659 Z M 768 537 C 768 577 763 615 755 650 C 747 685 734 716 718 742 C 701 768 680 788 655 803 C 630 817 601 825 567 825 C 533 825 503 817 479 803 C 454 788 433 768 417 742 C 401 716 389 686 381 651 C 373 616 369 578 369 537 C 369 495 373 457 381 422 C 389 386 401 356 417 331 C 433 305 454 285 479 271 C 503 257 533 250 567 250 C 601 250 630 257 655 273 C 680 289 701 310 718 337 C 734 363 747 394 755 429 C 763 463 768 499 768 537 Z" unicode="œ" />
<glyph horiz-adv-x="1462" d="M 1016 0 L 760 516 L 471 516 L 471 0 L 184 0 L 184 1434 L 852 1434 C 919 1434 983 1424 1043 1406 C 1103 1387 1155 1359 1200 1321 C 1245 1283 1281 1235 1307 1178 C 1333 1121 1346 1055 1346 979 C 1346 921 1340 871 1328 828 C 1316 784 1298 745 1274 711 C 1250 676 1222 646 1190 622 C 1157 597 1117 575 1071 557 L 1346 0 L 1016 0 Z M 1051 973 C 1051 1007 1046 1036 1036 1059 C 1026 1082 1011 1101 992 1115 C 973 1129 951 1139 927 1145 C 903 1151 876 1155 846 1155 L 471 1155 L 471 786 L 846 786 C 882 786 912 790 937 798 C 962 806 983 818 1000 834 C 1017 850 1030 869 1038 892 C 1046 914 1051 941 1051 973 Z M 741 1526 L 502 1526 L 680 1853 L 1038 1853 L 741 1526 Z" unicode="Ŕ" />
<glyph horiz-adv-x="877" d="M 766 745 C 743 765 718 782 691 795 C 663 808 634 815 602 815 C 535 815 488 795 461 757 C 433 719 420 660 420 582 L 420 0 L 137 0 L 137 1075 L 420 1075 L 420 1004 C 431 1016 444 1027 460 1039 C 476 1050 493 1060 512 1070 C 531 1080 552 1087 574 1091 C 596 1095 618 1098 641 1098 C 687 1098 727 1090 761 1074 C 795 1058 821 1041 840 1022 L 766 745 Z M 563 1219 L 324 1219 L 502 1546 L 860 1546 L 563 1219 Z" unicode="ŕ" />
<glyph horiz-adv-x="1462" d="M 1016 0 L 760 516 L 471 516 L 471 0 L 184 0 L 184 1434 L 852 1434 C 919 1434 983 1424 1043 1406 C 1103 1387 1155 1359 1200 1321 C 1245 1283 1281 1235 1307 1178 C 1333 1121 1346 1055 1346 979 C 1346 921 1340 871 1328 828 C 1316 784 1298 745 1274 711 C 1250 676 1222 646 1190 622 C 1157 597 1117 575 1071 557 L 1346 0 L 1016 0 Z M 1051 973 C 1051 1007 1046 1036 1036 1059 C 1026 1082 1011 1101 992 1115 C 973 1129 951 1139 927 1145 C 903 1151 876 1155 846 1155 L 471 1155 L 471 786 L 846 786 C 882 786 912 790 937 798 C 962 806 983 818 1000 834 C 1017 850 1030 869 1038 892 C 1046 914 1051 941 1051 973 Z M 753 -481 L 604 -481 L 626 -89 L 859 -89 L 753 -481 Z" unicode="Ŗ" />
<glyph horiz-adv-x="877" d="M 766 745 C 743 765 718 782 691 795 C 663 808 634 815 602 815 C 535 815 488 795 461 757 C 433 719 420 660 420 582 L 420 0 L 137 0 L 137 1075 L 420 1075 L 420 1004 C 431 1016 444 1027 460 1039 C 476 1050 493 1060 512 1070 C 531 1080 552 1087 574 1091 C 596 1095 618 1098 641 1098 C 687 1098 727 1090 761 1074 C 795 1058 821 1041 840 1022 L 766 745 Z M 296 -491 L 147 -491 L 169 -99 L 402 -99 L 296 -491 Z" unicode="ŗ" />
<glyph horiz-adv-x="1462" d="M 1016 0 L 760 516 L 471 516 L 471 0 L 184 0 L 184 1434 L 852 1434 C 919 1434 983 1424 1043 1406 C 1103 1387 1155 1359 1200 1321 C 1245 1283 1281 1235 1307 1178 C 1333 1121 1346 1055 1346 979 C 1346 921 1340 871 1328 828 C 1316 784 1298 745 1274 711 C 1250 676 1222 646 1190 622 C 1157 597 1117 575 1071 557 L 1346 0 L 1016 0 Z M 1051 973 C 1051 1007 1046 1036 1036 1059 C 1026 1082 1011 1101 992 1115 C 973 1129 951 1139 927 1145 C 903 1151 876 1155 846 1155 L 471 1155 L 471 786 L 846 786 C 882 786 912 790 937 798 C 962 806 983 818 1000 834 C 1017 850 1030 869 1038 892 C 1046 914 1051 941 1051 973 Z M 874 1526 L 588 1526 L 338 1853 L 528 1853 L 733 1700 L 938 1853 L 1124 1853 L 874 1526 Z" unicode="Ř" />
<glyph horiz-adv-x="877" d="M 766 745 C 743 765 718 782 691 795 C 663 808 634 815 602 815 C 535 815 488 795 461 757 C 433 719 420 660 420 582 L 420 0 L 137 0 L 137 1075 L 420 1075 L 420 1004 C 431 1016 444 1027 460 1039 C 476 1050 493 1060 512 1070 C 531 1080 552 1087 574 1091 C 596 1095 618 1098 641 1098 C 687 1098 727 1090 761 1074 C 795 1058 821 1041 840 1022 L 766 745 Z M 582 1219 L 296 1219 L 46 1546 L 236 1546 L 441 1393 L 646 1546 L 832 1546 L 582 1219 Z" unicode="ř" />
<glyph horiz-adv-x="1354" d="M 1235 434 C 1235 366 1224 304 1202 248 C 1180 192 1146 143 1100 103 C 1054 63 995 32 925 10 C 854 -12 770 -23 672 -23 C 612 -23 554 -16 499 -4 C 443 7 392 25 344 47 C 296 69 252 97 213 129 C 174 161 141 198 115 238 L 322 422 C 372 363 428 321 491 296 C 553 270 619 258 688 258 C 736 258 776 261 806 268 C 836 275 861 285 881 297 C 901 309 916 324 925 341 C 933 357 938 382 938 414 C 938 436 934 456 926 474 C 918 492 902 508 879 523 C 856 537 824 551 782 565 C 740 578 686 592 618 608 C 552 623 491 641 436 661 C 381 681 334 707 295 739 C 255 771 225 810 203 858 C 181 906 170 965 170 1036 C 170 1100 183 1159 210 1211 C 236 1263 273 1307 319 1343 C 365 1379 420 1407 482 1427 C 544 1446 611 1456 682 1456 C 736 1456 788 1451 837 1441 C 886 1431 934 1416 981 1394 C 1028 1372 1068 1348 1101 1324 C 1133 1299 1168 1268 1204 1231 L 997 1030 C 969 1058 945 1079 925 1095 C 904 1110 880 1124 854 1137 C 827 1150 799 1160 770 1167 C 740 1174 708 1178 672 1178 C 633 1178 601 1174 575 1166 C 549 1158 528 1149 512 1137 C 496 1125 484 1111 477 1096 C 470 1080 467 1065 467 1049 C 467 1026 471 1007 480 991 C 488 975 504 960 526 948 C 548 936 577 924 614 913 C 651 902 698 890 756 877 C 837 857 905 837 959 816 C 1013 795 1060 768 1102 736 C 1143 703 1175 662 1199 612 C 1223 562 1235 502 1235 434 Z M 686 1526 L 447 1526 L 625 1853 L 983 1853 L 686 1526 Z" unicode="Ś" />
<glyph horiz-adv-x="1100" d="M 954 993 L 864 770 C 810 798 756 820 701 834 C 646 848 596 856 551 856 C 501 856 464 851 441 841 C 417 831 406 813 406 786 C 406 774 408 764 414 756 C 419 747 430 738 446 730 C 462 721 484 711 513 701 C 542 690 581 677 629 662 C 677 646 722 628 766 610 C 809 592 847 570 880 544 C 912 518 938 486 958 449 C 977 412 987 367 987 313 C 987 251 975 198 952 156 C 929 113 898 78 858 52 C 818 26 772 7 719 -5 C 666 -17 609 -23 549 -23 C 467 -23 386 -11 307 10 C 227 32 158 63 98 102 L 193 317 C 250 285 309 260 370 244 C 431 227 496 219 565 219 C 618 219 655 225 677 238 C 698 251 709 272 709 301 C 709 313 706 323 701 333 C 695 343 686 352 674 360 C 662 368 646 377 626 385 C 606 393 581 401 551 410 C 486 429 428 448 376 468 C 324 487 279 510 242 537 C 205 564 177 597 157 635 C 137 673 127 721 127 778 C 127 834 137 882 158 922 C 179 962 209 996 247 1022 C 285 1048 330 1067 383 1079 C 435 1091 493 1098 557 1098 C 625 1098 693 1088 763 1069 C 833 1050 896 1025 954 993 Z M 579 1219 L 340 1219 L 518 1546 L 876 1546 L 579 1219 Z" unicode="ś" />
<glyph horiz-adv-x="1354" d="" unicode="Ŝ" />
<glyph horiz-adv-x="1100" d="" unicode="ŝ" />
<glyph horiz-adv-x="1354" d="M 1235 434 C 1235 366 1224 304 1202 248 C 1180 192 1146 143 1100 103 C 1054 63 995 32 925 10 C 854 -12 770 -23 672 -23 C 612 -23 554 -16 499 -4 C 443 7 392 25 344 47 C 296 69 252 97 213 129 C 174 161 141 198 115 238 L 322 422 C 372 363 428 321 491 296 C 553 270 619 258 688 258 C 736 258 776 261 806 268 C 836 275 861 285 881 297 C 901 309 916 324 925 341 C 933 357 938 382 938 414 C 938 436 934 456 926 474 C 918 492 902 508 879 523 C 856 537 824 551 782 565 C 740 578 686 592 618 608 C 552 623 491 641 436 661 C 381 681 334 707 295 739 C 255 771 225 810 203 858 C 181 906 170 965 170 1036 C 170 1100 183 1159 210 1211 C 236 1263 273 1307 319 1343 C 365 1379 420 1407 482 1427 C 544 1446 611 1456 682 1456 C 736 1456 788 1451 837 1441 C 886 1431 934 1416 981 1394 C 1028 1372 1068 1348 1101 1324 C 1133 1299 1168 1268 1204 1231 L 997 1030 C 969 1058 945 1079 925 1095 C 904 1110 880 1124 854 1137 C 827 1150 799 1160 770 1167 C 740 1174 708 1178 672 1178 C 633 1178 601 1174 575 1166 C 549 1158 528 1149 512 1137 C 496 1125 484 1111 477 1096 C 470 1080 467 1065 467 1049 C 467 1026 471 1007 480 991 C 488 975 504 960 526 948 C 548 936 577 924 614 913 C 651 902 698 890 756 877 C 837 857 905 837 959 816 C 1013 795 1060 768 1102 736 C 1143 703 1175 662 1199 612 C 1223 562 1235 502 1235 434 Z M 633 76 L 747 76 L 712 -86 C 720 -82 731 -78 744 -76 C 756 -73 772 -72 792 -72 C 814 -72 834 -74 854 -80 C 873 -86 890 -95 905 -107 C 919 -119 931 -134 939 -152 C 947 -170 952 -192 952 -217 C 952 -247 946 -274 934 -296 C 922 -318 906 -337 885 -352 C 863 -366 838 -377 808 -384 C 778 -391 744 -395 708 -395 C 652 -395 602 -387 557 -373 C 512 -359 473 -342 440 -322 L 483 -244 C 549 -276 609 -293 665 -293 C 701 -293 728 -287 747 -275 C 766 -263 776 -246 776 -223 C 776 -202 769 -188 756 -181 C 743 -173 728 -170 712 -170 C 688 -169 668 -174 651 -184 L 577 -156 L 633 76 Z" unicode="Ş" />
<glyph horiz-adv-x="1100" d="M 954 993 L 864 770 C 810 798 756 820 701 834 C 646 848 596 856 551 856 C 501 856 464 851 441 841 C 417 831 406 813 406 786 C 406 774 408 764 414 756 C 419 747 430 738 446 730 C 462 721 484 711 513 701 C 542 690 581 677 629 662 C 677 646 722 628 766 610 C 809 592 847 570 880 544 C 912 518 938 486 958 449 C 977 412 987 367 987 313 C 987 251 975 198 952 156 C 929 113 898 78 858 52 C 818 26 772 7 719 -5 C 666 -17 609 -23 549 -23 C 467 -23 386 -11 307 10 C 227 32 158 63 98 102 L 193 317 C 250 285 309 260 370 244 C 431 227 496 219 565 219 C 618 219 655 225 677 238 C 698 251 709 272 709 301 C 709 313 706 323 701 333 C 695 343 686 352 674 360 C 662 368 646 377 626 385 C 606 393 581 401 551 410 C 486 429 428 448 376 468 C 324 487 279 510 242 537 C 205 564 177 597 157 635 C 137 673 127 721 127 778 C 127 834 137 882 158 922 C 179 962 209 996 247 1022 C 285 1048 330 1067 383 1079 C 435 1091 493 1098 557 1098 C 625 1098 693 1088 763 1069 C 833 1050 896 1025 954 993 Z M 492 76 L 606 76 L 571 -86 C 579 -82 590 -78 603 -76 C 615 -73 631 -72 651 -72 C 673 -72 693 -74 713 -80 C 732 -86 749 -95 764 -107 C 778 -119 790 -134 798 -152 C 806 -170 811 -192 811 -217 C 811 -247 805 -274 793 -296 C 781 -318 765 -337 744 -352 C 722 -366 697 -377 667 -384 C 637 -391 603 -395 567 -395 C 511 -395 461 -387 416 -373 C 371 -359 332 -342 299 -322 L 342 -244 C 408 -276 468 -293 524 -293 C 560 -293 587 -287 606 -275 C 625 -263 635 -246 635 -223 C 635 -202 628 -188 615 -181 C 602 -173 587 -170 571 -170 C 547 -169 527 -174 510 -184 L 436 -156 L 492 76 Z" unicode="ş" />
<glyph horiz-adv-x="1354" d="M 1235 434 C 1235 366 1224 304 1202 248 C 1180 192 1146 143 1100 103 C 1054 63 995 32 925 10 C 854 -12 770 -23 672 -23 C 612 -23 554 -16 499 -4 C 443 7 392 25 344 47 C 296 69 252 97 213 129 C 174 161 141 198 115 238 L 322 422 C 372 363 428 321 491 296 C 553 270 619 258 688 258 C 736 258 776 261 806 268 C 836 275 861 285 881 297 C 901 309 916 324 925 341 C 933 357 938 382 938 414 C 938 436 934 456 926 474 C 918 492 902 508 879 523 C 856 537 824 551 782 565 C 740 578 686 592 618 608 C 552 623 491 641 436 661 C 381 681 334 707 295 739 C 255 771 225 810 203 858 C 181 906 170 965 170 1036 C 170 1100 183 1159 210 1211 C 236 1263 273 1307 319 1343 C 365 1379 420 1407 482 1427 C 544 1446 611 1456 682 1456 C 736 1456 788 1451 837 1441 C 886 1431 934 1416 981 1394 C 1028 1372 1068 1348 1101 1324 C 1133 1299 1168 1268 1204 1231 L 997 1030 C 969 1058 945 1079 925 1095 C 904 1110 880 1124 854 1137 C 827 1150 799 1160 770 1167 C 740 1174 708 1178 672 1178 C 633 1178 601 1174 575 1166 C 549 1158 528 1149 512 1137 C 496 1125 484 1111 477 1096 C 470 1080 467 1065 467 1049 C 467 1026 471 1007 480 991 C 488 975 504 960 526 948 C 548 936 577 924 614 913 C 651 902 698 890 756 877 C 837 857 905 837 959 816 C 1013 795 1060 768 1102 736 C 1143 703 1175 662 1199 612 C 1223 562 1235 502 1235 434 Z M 821 1536 L 535 1536 L 285 1863 L 475 1863 L 680 1710 L 885 1863 L 1071 1863 L 821 1536 Z" unicode="Š" />
<glyph horiz-adv-x="1100" d="M 954 993 L 864 770 C 810 798 756 820 701 834 C 646 848 596 856 551 856 C 501 856 464 851 441 841 C 417 831 406 813 406 786 C 406 774 408 764 414 756 C 419 747 430 738 446 730 C 462 721 484 711 513 701 C 542 690 581 677 629 662 C 677 646 722 628 766 610 C 809 592 847 570 880 544 C 912 518 938 486 958 449 C 977 412 987 367 987 313 C 987 251 975 198 952 156 C 929 113 898 78 858 52 C 818 26 772 7 719 -5 C 666 -17 609 -23 549 -23 C 467 -23 386 -11 307 10 C 227 32 158 63 98 102 L 193 317 C 250 285 309 260 370 244 C 431 227 496 219 565 219 C 618 219 655 225 677 238 C 698 251 709 272 709 301 C 709 313 706 323 701 333 C 695 343 686 352 674 360 C 662 368 646 377 626 385 C 606 393 581 401 551 410 C 486 429 428 448 376 468 C 324 487 279 510 242 537 C 205 564 177 597 157 635 C 137 673 127 721 127 778 C 127 834 137 882 158 922 C 179 962 209 996 247 1022 C 285 1048 330 1067 383 1079 C 435 1091 493 1098 557 1098 C 625 1098 693 1088 763 1069 C 833 1050 896 1025 954 993 Z M 678 1219 L 392 1219 L 142 1546 L 332 1546 L 537 1393 L 742 1546 L 928 1546 L 678 1219 Z" unicode="š" />
<glyph horiz-adv-x="1294" d="M 791 1151 L 791 0 L 504 0 L 504 1151 L 92 1151 L 92 1434 L 1202 1434 L 1202 1151 L 791 1151 Z M 607 76 L 721 76 L 686 -86 C 694 -82 705 -78 718 -76 C 730 -73 746 -72 766 -72 C 788 -72 808 -74 828 -80 C 847 -86 864 -95 879 -107 C 893 -119 905 -134 913 -152 C 921 -170 926 -192 926 -217 C 926 -247 920 -274 908 -296 C 896 -318 880 -337 859 -352 C 837 -366 812 -377 782 -384 C 752 -391 718 -395 682 -395 C 626 -395 576 -387 531 -373 C 486 -359 447 -342 414 -322 L 457 -244 C 523 -276 583 -293 639 -293 C 675 -293 702 -287 721 -275 C 740 -263 750 -246 750 -223 C 750 -202 743 -188 730 -181 C 717 -173 702 -170 686 -170 C 662 -169 642 -174 625 -184 L 551 -156 L 607 76 Z" unicode="Ţ" />
<glyph horiz-adv-x="905" d="M 737 43 C 713 24 682 8 643 -4 C 603 -16 562 -23 518 -23 C 474 -23 435 -15 400 1 C 364 17 334 39 309 68 C 284 97 265 131 251 171 C 237 210 231 253 231 301 L 231 809 L 51 809 L 51 1075 L 231 1075 L 231 1352 L 514 1493 L 514 1075 L 772 1075 L 772 809 L 514 809 L 514 377 C 514 351 516 329 521 313 C 525 296 532 283 541 273 C 549 263 560 257 573 253 C 586 249 601 248 618 248 C 643 248 668 254 692 267 C 716 279 745 300 778 330 L 737 43 Z M 417 76 L 531 76 L 496 -86 C 504 -82 515 -78 528 -76 C 540 -73 556 -72 576 -72 C 598 -72 618 -74 638 -80 C 657 -86 674 -95 689 -107 C 703 -119 715 -134 723 -152 C 731 -170 736 -192 736 -217 C 736 -247 730 -274 718 -296 C 706 -318 690 -337 669 -352 C 647 -366 622 -377 592 -384 C 562 -391 528 -395 492 -395 C 436 -395 386 -387 341 -373 C 296 -359 257 -342 224 -322 L 267 -244 C 333 -276 393 -293 449 -293 C 485 -293 512 -287 531 -275 C 550 -263 560 -246 560 -223 C 560 -202 553 -188 540 -181 C 527 -173 512 -170 496 -170 C 472 -169 452 -174 435 -184 L 361 -156 L 417 76 Z" unicode="ţ" />
<glyph horiz-adv-x="1294" d="M 791 1151 L 791 0 L 504 0 L 504 1151 L 92 1151 L 92 1434 L 1202 1434 L 1202 1151 L 791 1151 Z M 790 1526 L 504 1526 L 254 1853 L 444 1853 L 649 1700 L 854 1853 L 1040 1853 L 790 1526 Z" unicode="Ť" />
<glyph horiz-adv-x="905" d="M 772 1176 L 612 1176 L 637 1640 L 905 1640 L 772 1176 Z M 737 43 C 713 24 682 8 643 -4 C 603 -16 562 -23 518 -23 C 474 -23 435 -15 400 1 C 364 17 334 39 309 68 C 284 97 265 131 251 171 C 237 210 231 253 231 301 L 231 809 L 51 809 L 51 1075 L 231 1075 L 231 1352 L 514 1493 L 514 1075 L 772 1075 L 772 809 L 514 809 L 514 377 C 514 351 516 329 521 313 C 525 296 532 283 541 273 C 549 263 560 257 573 253 C 586 249 601 248 618 248 C 643 248 668 254 692 267 C 716 279 745 300 778 330 L 737 43 Z" unicode="ť" />
<glyph horiz-adv-x="1294" d="" unicode="Ŧ" />
<glyph horiz-adv-x="905" d="" unicode="ŧ" />
<glyph horiz-adv-x="1509" d="" unicode="Ũ" />
<glyph horiz-adv-x="1196" d="" unicode="ũ" />
<glyph horiz-adv-x="1509" d="M 1335 633 C 1335 529 1321 436 1295 355 C 1269 273 1231 205 1181 149 C 1131 93 1070 50 998 21 C 926 -8 844 -23 754 -23 C 667 -23 588 -8 517 20 C 446 48 385 90 334 146 C 283 201 244 269 216 350 C 188 431 174 524 174 629 L 174 1434 L 461 1434 L 461 633 C 461 517 487 425 540 358 C 592 291 664 258 754 258 C 844 258 916 291 969 358 C 1022 424 1049 515 1049 629 L 1049 1434 L 1335 1434 L 1335 633 Z M 457 1556 L 457 1771 L 1051 1771 L 1051 1556 L 457 1556 Z" unicode="Ū" />
<glyph horiz-adv-x="1196" d="M 776 0 L 776 72 C 751 46 717 23 674 5 C 630 -13 580 -23 524 -23 C 394 -23 296 18 228 102 C 160 185 127 307 127 469 L 127 1075 L 410 1075 L 410 494 C 410 407 423 344 451 304 C 478 264 525 244 592 244 C 659 244 706 264 734 305 C 762 346 776 407 776 487 L 776 1075 L 1059 1075 L 1059 0 L 776 0 Z M 301 1249 L 301 1464 L 895 1464 L 895 1249 L 301 1249 Z" unicode="ū" />
<glyph horiz-adv-x="1509" d="" unicode="Ŭ" />
<glyph horiz-adv-x="1196" d="" unicode="ŭ" />
<glyph horiz-adv-x="1509" d="M 1335 633 C 1335 529 1321 436 1295 355 C 1269 273 1231 205 1181 149 C 1131 93 1070 50 998 21 C 926 -8 844 -23 754 -23 C 667 -23 588 -8 517 20 C 446 48 385 90 334 146 C 283 201 244 269 216 350 C 188 431 174 524 174 629 L 174 1434 L 461 1434 L 461 633 C 461 517 487 425 540 358 C 592 291 664 258 754 258 C 844 258 916 291 969 358 C 1022 424 1049 515 1049 629 L 1049 1434 L 1335 1434 L 1335 633 Z M 1030 1689 C 1030 1649 1023 1613 1009 1580 C 995 1546 975 1518 951 1494 C 926 1470 897 1451 863 1437 C 829 1423 793 1417 754 1417 C 714 1417 678 1423 644 1437 C 610 1451 581 1470 557 1494 C 532 1518 513 1546 499 1580 C 485 1613 478 1649 478 1689 C 478 1728 485 1764 499 1798 C 513 1832 532 1861 557 1886 C 581 1910 610 1930 644 1944 C 678 1958 714 1965 754 1965 C 793 1965 829 1958 863 1944 C 897 1930 926 1910 951 1886 C 975 1861 995 1832 1009 1798 C 1023 1764 1030 1728 1030 1689 Z M 875 1689 C 875 1706 871 1722 865 1737 C 859 1752 850 1765 840 1776 C 829 1787 816 1796 801 1802 C 786 1808 770 1812 754 1812 C 736 1812 720 1808 706 1802 C 691 1796 678 1787 668 1776 C 657 1765 648 1752 642 1737 C 636 1722 633 1706 633 1689 C 633 1671 636 1655 642 1640 C 648 1625 657 1612 668 1601 C 678 1590 691 1581 706 1575 C 720 1569 736 1566 754 1566 C 770 1566 786 1569 801 1575 C 816 1581 829 1590 840 1601 C 850 1612 859 1625 865 1640 C 871 1655 875 1671 875 1689 Z" unicode="Ů" />
<glyph horiz-adv-x="1196" d="M 776 0 L 776 72 C 751 46 717 23 674 5 C 630 -13 580 -23 524 -23 C 394 -23 296 18 228 102 C 160 185 127 307 127 469 L 127 1075 L 410 1075 L 410 494 C 410 407 423 344 451 304 C 478 264 525 244 592 244 C 659 244 706 264 734 305 C 762 346 776 407 776 487 L 776 1075 L 1059 1075 L 1059 0 L 776 0 Z M 874 1491 C 874 1451 867 1415 853 1382 C 839 1348 819 1320 795 1296 C 770 1272 741 1253 707 1239 C 673 1225 637 1219 598 1219 C 558 1219 522 1225 488 1239 C 454 1253 425 1272 401 1296 C 376 1320 357 1348 343 1382 C 329 1415 322 1451 322 1491 C 322 1530 329 1566 343 1600 C 357 1634 376 1663 401 1688 C 425 1712 454 1732 488 1746 C 522 1760 558 1767 598 1767 C 637 1767 673 1760 707 1746 C 741 1732 770 1712 795 1688 C 819 1663 839 1634 853 1600 C 867 1566 874 1530 874 1491 Z M 719 1491 C 719 1508 715 1524 709 1539 C 703 1554 694 1567 684 1578 C 673 1589 660 1598 645 1604 C 630 1610 614 1614 598 1614 C 580 1614 564 1610 550 1604 C 535 1598 522 1589 512 1578 C 501 1567 492 1554 486 1539 C 480 1524 477 1508 477 1491 C 477 1473 480 1457 486 1442 C 492 1427 501 1414 512 1403 C 522 1392 535 1383 550 1377 C 564 1371 580 1368 598 1368 C 614 1368 630 1371 645 1377 C 660 1383 673 1392 684 1403 C 694 1414 703 1427 709 1442 C 715 1457 719 1473 719 1491 Z" unicode="ů" />
<glyph horiz-adv-x="1509" d="M 1335 633 C 1335 529 1321 436 1295 355 C 1269 273 1231 205 1181 149 C 1131 93 1070 50 998 21 C 926 -8 844 -23 754 -23 C 667 -23 588 -8 517 20 C 446 48 385 90 334 146 C 283 201 244 269 216 350 C 188 431 174 524 174 629 L 174 1434 L 461 1434 L 461 633 C 461 517 487 425 540 358 C 592 291 664 258 754 258 C 844 258 916 291 969 358 C 1022 424 1049 515 1049 629 L 1049 1434 L 1335 1434 L 1335 633 Z M 1061 1526 L 821 1526 L 999 1853 L 1358 1853 L 1061 1526 Z M 610 1526 L 371 1526 L 549 1853 L 907 1853 L 610 1526 Z" unicode="Ű" />
<glyph horiz-adv-x="1196" d="M 776 0 L 776 72 C 751 46 717 23 674 5 C 630 -13 580 -23 524 -23 C 394 -23 296 18 228 102 C 160 185 127 307 127 469 L 127 1075 L 410 1075 L 410 494 C 410 407 423 344 451 304 C 478 264 525 244 592 244 C 659 244 706 264 734 305 C 762 346 776 407 776 487 L 776 1075 L 1059 1075 L 1059 0 L 776 0 Z M 862 1219 L 622 1219 L 800 1546 L 1159 1546 L 862 1219 Z M 411 1219 L 172 1219 L 350 1546 L 708 1546 L 411 1219 Z" unicode="ű" />
<glyph horiz-adv-x="1509" d="M 1049 629 L 1049 1434 L 1335 1434 L 1335 633 C 1335 547 1326 469 1308 399 C 1290 329 1263 267 1229 213 C 1195 159 1153 115 1103 79 C 1053 43 997 16 934 0 C 868 -22 823 -45 798 -70 C 772 -95 760 -122 760 -150 C 760 -176 768 -195 785 -208 C 801 -220 824 -227 854 -227 C 868 -227 882 -224 897 -220 C 911 -215 924 -209 936 -203 L 997 -326 C 955 -354 914 -375 875 -390 C 835 -404 792 -412 745 -412 C 711 -412 680 -407 653 -397 C 626 -387 603 -373 584 -356 C 565 -339 551 -320 541 -298 C 531 -276 526 -254 526 -231 C 526 -180 541 -136 571 -100 C 601 -63 636 -36 674 -18 C 598 -9 530 11 469 43 C 407 75 355 119 311 174 C 267 228 234 294 210 370 C 186 446 174 533 174 629 L 174 1434 L 461 1434 L 461 633 C 461 575 467 523 481 477 C 494 431 513 391 539 359 C 564 326 595 301 631 284 C 667 266 708 258 754 258 C 799 258 840 266 876 283 C 912 300 943 325 969 357 C 995 389 1014 428 1028 474 C 1042 520 1049 571 1049 629 Z" unicode="Ų" />
<glyph horiz-adv-x="1196" d="M 776 0 L 776 72 C 751 46 717 23 674 5 C 630 -13 580 -23 524 -23 C 394 -23 296 18 228 102 C 160 185 127 307 127 469 L 127 1075 L 410 1075 L 410 494 C 410 407 423 344 451 304 C 478 264 525 244 592 244 C 659 244 706 264 734 305 C 762 346 776 407 776 487 L 776 1075 L 1059 1075 L 1059 0 L 776 0 Z M 1059 0 C 1017 -2 982 -9 952 -19 C 922 -29 897 -41 878 -55 C 858 -69 844 -85 835 -101 C 825 -117 821 -134 821 -150 C 821 -174 829 -193 845 -207 C 861 -220 884 -227 915 -227 C 929 -227 943 -224 958 -220 C 972 -215 985 -209 997 -203 L 1059 -326 C 1017 -353 977 -374 939 -389 C 900 -404 856 -412 807 -412 C 773 -412 742 -407 715 -397 C 688 -387 665 -373 646 -356 C 627 -339 613 -320 603 -298 C 593 -276 588 -254 588 -231 C 588 -201 593 -174 604 -150 C 614 -126 628 -104 646 -85 C 664 -66 684 -49 706 -35 C 728 -21 752 -9 776 0 L 1059 0 Z" unicode="ų" />
<glyph horiz-adv-x="1804" d="" unicode="Ŵ" />
<glyph horiz-adv-x="1520" d="" unicode="ŵ" />
<glyph horiz-adv-x="1462" d="" unicode="Ŷ" />
<glyph horiz-adv-x="1208" d="" unicode="ŷ" />
<glyph horiz-adv-x="1462" d="M 1418 1434 L 875 567 L 875 0 L 588 0 L 588 561 L 45 1434 L 375 1434 L 733 834 L 1092 1434 L 1418 1434 Z M 1114 1663 C 1114 1641 1109 1621 1101 1603 C 1092 1584 1080 1567 1066 1553 C 1052 1538 1035 1526 1016 1518 C 996 1510 976 1506 956 1506 C 934 1506 913 1510 893 1518 C 873 1526 856 1538 842 1553 C 827 1567 815 1584 807 1603 C 798 1621 794 1641 794 1663 C 794 1685 798 1705 807 1725 C 815 1744 827 1761 842 1776 C 856 1790 873 1802 893 1810 C 913 1818 934 1823 956 1823 C 976 1823 996 1818 1016 1810 C 1035 1802 1052 1790 1066 1776 C 1080 1761 1092 1744 1101 1725 C 1109 1705 1114 1685 1114 1663 Z M 672 1663 C 672 1641 667 1621 659 1603 C 650 1584 638 1567 624 1553 C 609 1538 592 1526 573 1518 C 553 1510 533 1506 512 1506 C 490 1506 470 1510 451 1518 C 431 1526 414 1538 400 1553 C 385 1567 373 1584 365 1603 C 356 1621 352 1641 352 1663 C 352 1685 356 1705 365 1725 C 373 1744 385 1761 400 1776 C 414 1790 431 1802 451 1810 C 470 1818 490 1823 512 1823 C 533 1823 553 1818 573 1810 C 592 1802 609 1790 624 1776 C 638 1761 650 1744 659 1725 C 667 1705 672 1685 672 1663 Z" unicode="Ÿ" />
<glyph horiz-adv-x="1409" d="M 1270 0 L 139 0 L 139 254 L 909 1171 L 180 1171 L 180 1434 L 1260 1434 L 1260 1180 L 498 262 L 1270 262 L 1270 0 Z M 715 1526 L 476 1526 L 654 1853 L 1012 1853 L 715 1526 Z" unicode="Ź" />
<glyph horiz-adv-x="1135" d="M 123 0 L 123 205 L 639 819 L 158 819 L 158 1075 L 1012 1075 L 1012 870 L 510 256 L 1012 256 L 1012 0 L 123 0 Z M 577 1219 L 338 1219 L 516 1546 L 874 1546 L 577 1219 Z" unicode="ź" />
<glyph horiz-adv-x="1409" d="M 1270 0 L 139 0 L 139 254 L 909 1171 L 180 1171 L 180 1434 L 1260 1434 L 1260 1180 L 498 262 L 1270 262 L 1270 0 Z M 863 1683 C 863 1661 858 1641 850 1623 C 841 1604 829 1587 815 1573 C 801 1558 784 1546 765 1538 C 745 1530 725 1526 705 1526 C 683 1526 662 1530 642 1538 C 622 1546 605 1558 591 1573 C 576 1587 564 1604 556 1623 C 547 1641 543 1661 543 1683 C 543 1705 547 1725 556 1745 C 564 1764 576 1781 591 1796 C 605 1810 622 1822 642 1830 C 662 1838 683 1843 705 1843 C 725 1843 745 1838 765 1830 C 784 1822 801 1810 815 1796 C 829 1781 841 1764 850 1745 C 858 1725 863 1705 863 1683 Z" unicode="Ż" />
<glyph horiz-adv-x="1135" d="M 123 0 L 123 205 L 639 819 L 158 819 L 158 1075 L 1012 1075 L 1012 870 L 510 256 L 1012 256 L 1012 0 L 123 0 Z M 725 1376 C 725 1354 720 1334 712 1316 C 703 1297 691 1280 677 1266 C 663 1251 646 1239 627 1231 C 607 1223 587 1219 567 1219 C 545 1219 524 1223 504 1231 C 484 1239 467 1251 453 1266 C 438 1280 426 1297 418 1316 C 409 1334 405 1354 405 1376 C 405 1398 409 1418 418 1438 C 426 1457 438 1474 453 1489 C 467 1503 484 1515 504 1523 C 524 1531 545 1536 567 1536 C 587 1536 607 1531 627 1523 C 646 1515 663 1503 677 1489 C 691 1474 703 1457 712 1438 C 720 1418 725 1398 725 1376 Z" unicode="ż" />
<glyph horiz-adv-x="1409" d="M 1270 0 L 139 0 L 139 254 L 909 1171 L 180 1171 L 180 1434 L 1260 1434 L 1260 1180 L 498 262 L 1270 262 L 1270 0 Z M 843 1526 L 557 1526 L 307 1853 L 497 1853 L 702 1700 L 907 1853 L 1093 1853 L 843 1526 Z" unicode="Ž" />
<glyph horiz-adv-x="1135" d="M 123 0 L 123 205 L 639 819 L 158 819 L 158 1075 L 1012 1075 L 1012 870 L 510 256 L 1012 256 L 1012 0 L 123 0 Z M 725 1219 L 439 1219 L 189 1546 L 379 1546 L 584 1393 L 789 1546 L 975 1546 L 725 1219 Z" unicode="ž" />
<glyph horiz-adv-x="758" d="" unicode="ſ" />
<glyph horiz-adv-x="1270" d="M 1133 1219 C 1114 1225 1089 1230 1059 1234 C 1028 1238 992 1241 950 1241 C 900 1241 862 1231 836 1211 C 809 1191 791 1159 782 1116 L 766 1038 L 1061 1038 L 1014 811 L 723 811 L 549 0 L 260 0 L 434 811 L 211 811 L 260 1038 L 483 1038 L 500 1126 C 512 1184 529 1234 552 1276 C 574 1318 603 1352 637 1379 C 671 1405 712 1425 759 1437 C 805 1449 858 1456 918 1456 C 973 1456 1022 1452 1066 1446 C 1110 1440 1146 1431 1176 1421 L 1133 1219 Z" unicode="ƒ" />
<glyph horiz-adv-x="1536" d="" unicode="Ǻ" />
<glyph horiz-adv-x="1139" d="" unicode="ǻ" />
<glyph horiz-adv-x="2126" d="" unicode="Ǽ" />
<glyph horiz-adv-x="1726" d="" unicode="ǽ" />
<glyph horiz-adv-x="1473" d="" unicode="Ǿ" />
<glyph horiz-adv-x="1137" d="" unicode="ǿ" />
<glyph horiz-adv-x="1354" d="" unicode="Ș" />
<glyph horiz-adv-x="1100" d="" unicode="ș" />
<glyph horiz-adv-x="1294" d="" unicode="Ț" />
<glyph horiz-adv-x="905" d="" unicode="ț" />
<glyph horiz-adv-x="1024" d="M 715 1219 L 510 1372 L 305 1219 L 119 1219 L 369 1546 L 655 1546 L 905 1219 L 715 1219 Z" unicode="ˆ" />
<glyph horiz-adv-x="1024" d="M 655 1219 L 369 1219 L 119 1546 L 309 1546 L 514 1393 L 719 1546 L 905 1546 L 655 1219 Z" unicode="ˇ" />
<glyph horiz-adv-x="1024" d="M 215 1249 L 215 1464 L 809 1464 L 809 1249 L 215 1249 Z" unicode="ˉ" />
<glyph horiz-adv-x="1024" d="M 510 1219 C 454 1219 404 1226 360 1241 C 316 1255 279 1277 247 1305 C 215 1333 189 1367 169 1407 C 149 1447 136 1494 129 1546 L 301 1546 C 314 1500 338 1467 372 1445 C 406 1423 453 1413 514 1413 C 576 1413 623 1423 657 1444 C 691 1464 715 1498 729 1546 L 895 1546 C 887 1494 873 1447 852 1407 C 831 1367 804 1333 771 1305 C 738 1277 700 1255 656 1241 C 612 1226 563 1219 510 1219 Z" unicode="˘" />
<glyph horiz-adv-x="1024" d="M 670 1376 C 670 1354 665 1334 657 1316 C 648 1297 636 1280 622 1266 C 608 1251 591 1239 572 1231 C 552 1223 532 1219 512 1219 C 490 1219 469 1223 449 1231 C 429 1239 412 1251 398 1266 C 383 1280 371 1297 363 1316 C 354 1334 350 1354 350 1376 C 350 1398 354 1418 363 1438 C 371 1457 383 1474 398 1489 C 412 1503 429 1515 449 1523 C 469 1531 490 1536 512 1536 C 532 1536 552 1531 572 1523 C 591 1515 608 1503 622 1489 C 636 1474 648 1457 657 1438 C 665 1418 670 1398 670 1376 Z" unicode="˙" />
<glyph horiz-adv-x="1024" d="M 788 1491 C 788 1451 781 1415 767 1382 C 753 1348 733 1320 709 1296 C 684 1272 655 1253 621 1239 C 587 1225 551 1219 512 1219 C 472 1219 436 1225 402 1239 C 368 1253 339 1272 315 1296 C 290 1320 271 1348 257 1382 C 243 1415 236 1451 236 1491 C 236 1530 243 1566 257 1600 C 271 1634 290 1663 315 1688 C 339 1712 368 1732 402 1746 C 436 1760 472 1767 512 1767 C 551 1767 587 1760 621 1746 C 655 1732 684 1712 709 1688 C 733 1663 753 1634 767 1600 C 781 1566 788 1530 788 1491 Z M 633 1491 C 633 1508 629 1524 623 1539 C 617 1554 608 1567 598 1578 C 587 1589 574 1598 559 1604 C 544 1610 528 1614 512 1614 C 494 1614 478 1610 464 1604 C 449 1598 436 1589 426 1578 C 415 1567 406 1554 400 1539 C 394 1524 391 1508 391 1491 C 391 1473 394 1457 400 1442 C 406 1427 415 1414 426 1403 C 436 1392 449 1383 464 1377 C 478 1371 494 1368 512 1368 C 528 1368 544 1371 559 1377 C 574 1383 587 1392 598 1403 C 608 1414 617 1427 623 1442 C 629 1457 633 1473 633 1491 Z" unicode="˚" />
</font>
</defs>
</svg>
