<?xml version="1.0" encoding="utf-8" ?><svg version="1.1" xmlns = 'http://www.w3.org/2000/svg'><defs><font id='web' horiz-adv-x="1000">
<font-face font-family="web" descent="-410" cap-height="1434" units-per-em="2048" bbox="-415,-491,2832,2201" x-height="1075" ascent="1638" />
<missing-glyph horiz-adv-x="1024" d="" /><glyph horiz-adv-x="594" d="" unicode=" " />
<glyph horiz-adv-x="696" d="M 545 844 L 430 451 L 238 451 L 258 844 L 362 1434 L 649 1434 L 545 844 Z M 453 152 C 453 128 448 105 439 84 C 429 63 417 45 401 29 C 385 13 366 0 345 -9 C 324 -18 302 -23 279 -23 C 255 -23 232 -18 211 -9 C 190 0 172 13 156 29 C 140 45 127 63 118 84 C 108 105 104 128 104 152 C 104 175 108 197 118 218 C 127 239 140 258 156 274 C 172 290 190 302 211 312 C 232 321 255 326 279 326 C 302 326 324 321 345 312 C 366 302 385 290 401 274 C 417 258 429 239 439 218 C 448 197 453 175 453 152 Z" unicode="!" />
<glyph horiz-adv-x="1081" d="M 954 764 L 759 764 L 806 1434 L 1144 1434 L 954 764 Z M 444 764 L 249 764 L 296 1434 L 634 1434 L 444 764 Z" unicode="&#x22;" />
<glyph horiz-adv-x="1270" d="M 241 311 L 73 311 L 112 532 L 278 532 L 344 901 L 176 901 L 217 1122 L 382 1122 L 436 1434 L 669 1434 L 616 1122 L 839 1122 L 892 1434 L 1126 1434 L 1073 1122 L 1239 1122 L 1200 901 L 1032 901 L 968 532 L 1134 532 L 1097 311 L 929 311 L 874 0 L 641 0 L 696 311 L 473 311 L 417 0 L 184 0 L 241 311 Z M 741 528 L 806 907 L 571 907 L 503 528 L 741 528 Z" unicode="#" />
<glyph horiz-adv-x="1270" d="M 573 229 C 607 229 637 232 665 239 C 692 245 715 256 735 270 C 754 284 769 301 780 323 C 790 344 796 369 796 399 C 796 419 793 437 787 452 C 781 466 772 480 760 492 C 747 504 730 515 710 527 C 689 538 663 551 633 566 C 563 598 504 631 454 663 C 404 695 362 728 330 764 C 297 799 273 837 258 878 C 242 918 235 964 235 1014 C 235 1074 245 1128 265 1176 C 285 1224 314 1265 350 1301 C 386 1336 429 1365 479 1388 C 529 1410 583 1426 643 1434 L 675 1622 L 952 1622 L 917 1425 C 985 1411 1042 1391 1089 1363 C 1135 1335 1176 1304 1212 1270 L 1017 1075 C 1001 1091 984 1106 965 1122 C 945 1138 924 1152 900 1164 C 876 1176 851 1186 824 1194 C 797 1202 769 1206 739 1206 C 694 1206 658 1201 631 1192 C 603 1183 582 1171 567 1157 C 552 1142 542 1126 537 1108 C 532 1090 530 1073 530 1055 C 530 1025 535 1001 545 981 C 555 961 569 944 588 929 C 607 914 631 900 659 887 C 687 874 719 860 755 845 C 803 824 848 801 890 776 C 931 750 967 721 997 689 C 1027 656 1051 619 1069 579 C 1086 538 1095 492 1095 442 C 1095 374 1084 315 1063 264 C 1041 212 1012 168 974 132 C 936 96 890 67 838 45 C 785 23 727 8 665 0 L 632 -188 L 356 -188 L 391 4 C 317 17 252 39 197 71 C 142 102 93 140 49 184 L 247 387 C 293 338 342 300 395 272 C 447 244 507 229 573 229 Z" unicode="$" />
<glyph horiz-adv-x="1270" d="M 311 606 C 268 606 233 616 205 638 C 177 659 156 689 142 728 C 128 767 120 814 119 868 C 118 922 123 981 135 1047 C 148 1118 164 1178 184 1228 C 203 1277 225 1319 251 1353 C 277 1387 306 1412 338 1430 C 370 1447 406 1456 444 1456 C 486 1456 522 1445 550 1423 C 578 1401 600 1371 615 1332 C 629 1293 637 1247 639 1193 C 640 1139 635 1080 624 1016 C 612 950 597 892 578 842 C 559 791 536 748 510 713 C 483 678 453 651 420 633 C 386 615 350 606 311 606 Z M 997 1434 L 1144 1434 L 313 0 L 167 0 L 997 1434 Z M 862 -23 C 818 -23 783 -12 755 9 C 727 31 707 61 693 100 C 679 139 671 186 670 240 C 669 294 674 353 686 418 C 698 488 714 548 734 598 C 753 648 776 690 803 726 C 829 761 859 787 891 803 C 923 819 957 827 993 827 C 1035 827 1071 816 1100 795 C 1128 773 1150 743 1165 704 C 1180 665 1188 619 1190 565 C 1191 511 1186 451 1175 387 C 1163 321 1147 263 1128 213 C 1108 162 1085 119 1059 84 C 1032 49 1002 22 969 4 C 936 -13 900 -23 862 -23 Z M 331 760 C 343 760 354 763 364 769 C 374 775 383 788 393 807 C 402 826 411 853 421 888 C 430 923 440 970 450 1028 C 460 1085 466 1131 469 1167 C 472 1203 472 1231 469 1251 C 466 1271 461 1284 453 1292 C 445 1299 436 1303 426 1303 C 414 1303 404 1299 394 1293 C 384 1287 375 1274 366 1255 C 356 1236 347 1209 338 1174 C 328 1138 319 1092 309 1034 C 299 976 292 930 289 894 C 286 858 286 831 289 811 C 291 791 296 777 304 770 C 312 763 321 760 331 760 Z M 882 131 C 894 131 904 134 914 140 C 924 146 933 159 942 178 C 951 197 960 224 970 259 C 979 294 989 341 999 399 C 1009 456 1015 503 1018 539 C 1021 575 1021 603 1019 623 C 1016 643 1011 656 1003 663 C 995 670 986 674 976 674 C 965 674 955 670 945 664 C 935 658 926 645 917 626 C 907 607 898 580 889 546 C 879 511 870 465 860 408 C 850 350 843 303 840 267 C 837 231 837 202 840 182 C 842 162 847 148 855 141 C 863 134 872 131 882 131 Z" unicode="%" />
<glyph horiz-adv-x="1425" d="M 1305 618 C 1273 551 1239 490 1203 434 C 1167 378 1130 328 1092 283 L 1278 0 L 963 0 L 891 102 C 859 81 827 63 796 47 C 764 31 732 18 699 8 C 665 -1 631 -9 595 -15 C 559 -20 521 -23 481 -23 C 413 -23 353 -14 299 2 C 245 18 200 42 162 74 C 124 106 95 145 75 191 C 55 237 45 290 45 350 C 45 405 53 455 71 499 C 89 543 114 582 146 618 C 178 654 216 686 261 715 C 306 744 356 771 410 797 L 401 811 C 385 839 371 865 359 890 C 347 914 337 938 329 961 C 321 984 315 1007 311 1030 C 307 1052 305 1076 305 1100 C 305 1157 315 1208 336 1252 C 357 1296 386 1334 424 1364 C 461 1394 505 1416 557 1432 C 609 1448 665 1456 727 1456 C 907 1456 1063 1394 1194 1272 L 1022 1077 C 1000 1097 977 1114 952 1130 C 927 1146 902 1159 877 1169 C 851 1179 826 1187 801 1193 C 775 1199 751 1202 729 1202 C 681 1202 645 1193 622 1175 C 599 1157 588 1132 588 1102 C 588 1081 593 1058 603 1032 C 613 1006 627 979 645 952 L 954 485 C 977 517 1000 551 1023 588 C 1045 625 1067 665 1087 709 L 1305 618 Z M 760 295 L 543 608 C 513 596 485 582 460 566 C 434 550 413 533 395 514 C 377 495 363 474 353 451 C 343 428 338 403 338 377 C 338 327 354 291 386 267 C 418 243 463 231 522 231 C 570 231 612 235 648 245 C 684 255 722 271 760 295 Z" unicode="&#x26;" />
<glyph horiz-adv-x="582" d="M 452 764 L 247 764 L 294 1434 L 643 1434 L 452 764 Z" unicode="'" />
<glyph horiz-adv-x="1270" d="M 649 -227 C 606 -184 563 -136 520 -84 C 477 -32 438 24 404 86 C 370 147 342 213 320 284 C 298 354 288 429 288 508 C 288 584 296 657 314 725 C 332 793 356 858 387 918 C 418 978 455 1035 497 1088 C 539 1141 584 1191 633 1238 C 681 1285 732 1329 784 1370 C 836 1410 889 1449 942 1485 L 1089 1333 C 1023 1279 961 1222 903 1164 C 845 1106 794 1043 751 975 C 707 907 673 832 648 752 C 622 671 610 581 610 483 C 610 419 615 361 626 307 C 637 253 652 203 672 156 C 691 109 713 64 739 22 C 765 -19 793 -61 823 -102 L 649 -227 Z" unicode="(" />
<glyph horiz-adv-x="1270" d="M 180 -76 C 245 -22 307 34 365 92 C 423 150 473 213 517 281 C 561 349 595 424 621 505 C 646 585 659 675 659 774 C 659 836 653 894 642 948 C 631 1002 616 1052 597 1099 C 577 1146 555 1191 529 1233 C 503 1275 476 1317 446 1358 L 620 1485 C 662 1442 705 1394 748 1342 C 790 1290 829 1233 864 1171 C 898 1109 926 1042 948 972 C 970 901 981 826 981 748 C 981 671 972 599 954 531 C 936 463 912 398 881 338 C 850 278 814 221 772 168 C 730 115 684 65 636 19 C 587 -27 536 -71 484 -112 C 431 -152 379 -191 327 -227 L 180 -76 Z" unicode=")" />
<glyph horiz-adv-x="1024" d="M 805 764 L 588 909 L 606 649 L 418 649 L 436 913 L 217 768 L 127 928 L 377 1040 L 127 1157 L 217 1321 L 436 1171 L 418 1434 L 606 1434 L 588 1174 L 805 1321 L 899 1159 L 643 1042 L 899 926 L 805 764 Z" unicode="*" />
<glyph horiz-adv-x="1270" d="M 505 565 L 133 565 L 133 844 L 505 844 L 505 1231 L 800 1231 L 800 844 L 1173 844 L 1173 565 L 800 565 L 800 178 L 505 178 L 505 565 Z" unicode="+" />
<glyph horiz-adv-x="635" d="M 202 -258 L 10 -258 L 147 346 L 481 346 L 202 -258 Z" unicode="," />
<glyph horiz-adv-x="834" d="M 723 602 L 135 602 L 184 885 L 772 885 L 723 602 Z" unicode="-" />
<glyph horiz-adv-x="635" d="M 454 170 C 454 144 448 119 438 96 C 428 72 414 52 397 34 C 379 16 359 2 336 -7 C 312 -17 288 -23 262 -23 C 236 -23 211 -17 187 -7 C 163 2 143 16 126 34 C 108 52 94 72 84 96 C 74 119 69 144 69 170 C 69 196 74 220 84 244 C 94 267 108 287 126 305 C 143 322 163 336 187 346 C 211 356 236 362 262 362 C 288 362 312 356 336 346 C 359 336 379 322 397 305 C 414 287 428 267 438 244 C 448 220 454 196 454 170 Z" unicode="." />
<glyph horiz-adv-x="963" d="M 160 -184 L -119 -184 L 868 1618 L 1147 1618 L 160 -184 Z" unicode="/" />
<glyph horiz-adv-x="1270" d="M 1240 916 C 1240 771 1223 641 1189 525 C 1155 409 1107 311 1047 230 C 986 148 914 86 830 42 C 746 -1 655 -23 557 -23 C 481 -23 414 -10 356 14 C 298 38 249 74 209 122 C 169 170 138 228 118 297 C 97 365 87 444 87 532 C 87 672 104 800 139 914 C 173 1028 221 1125 282 1205 C 342 1285 414 1347 496 1391 C 578 1434 666 1456 762 1456 C 840 1456 908 1443 968 1419 C 1028 1394 1078 1358 1118 1312 C 1158 1266 1189 1209 1209 1142 C 1229 1075 1240 1000 1240 916 Z M 945 875 C 945 920 941 962 935 1002 C 928 1042 916 1076 900 1106 C 884 1135 862 1158 835 1176 C 807 1193 773 1201 733 1201 C 677 1201 627 1183 584 1147 C 540 1111 504 1063 474 1005 C 444 946 422 878 406 802 C 390 726 382 647 382 565 C 382 516 385 471 393 431 C 400 390 412 355 429 326 C 445 296 467 273 494 257 C 521 241 554 233 594 233 C 650 233 699 251 743 287 C 787 323 823 371 853 431 C 883 491 905 559 921 636 C 937 713 945 793 945 875 Z" unicode="0" />
<glyph horiz-adv-x="1270" d="M 195 227 L 480 227 L 623 1051 L 330 1051 L 365 1249 C 419 1251 466 1255 506 1263 C 546 1271 580 1282 610 1297 C 640 1311 665 1330 685 1352 C 705 1374 722 1402 736 1434 L 975 1434 L 765 227 L 1064 227 L 1023 0 L 154 0 L 195 227 Z" unicode="1" />
<glyph horiz-adv-x="1270" d="M 12 0 C 32 110 61 206 99 290 C 137 373 183 447 236 511 C 289 575 349 632 415 681 C 481 729 553 774 629 814 C 685 844 733 870 771 893 C 809 915 839 937 862 958 C 884 978 900 999 910 1020 C 919 1040 924 1064 924 1090 C 924 1128 907 1158 873 1180 C 839 1201 787 1212 719 1212 C 658 1212 599 1199 541 1175 C 483 1151 429 1119 377 1081 L 240 1280 C 308 1338 384 1381 470 1411 C 556 1441 657 1456 775 1456 C 847 1456 910 1448 964 1432 C 1018 1416 1064 1394 1101 1366 C 1138 1337 1166 1302 1185 1262 C 1203 1221 1213 1176 1213 1126 C 1213 1074 1204 1026 1187 982 C 1169 938 1143 896 1107 856 C 1071 816 1027 777 973 739 C 919 701 855 664 782 626 C 710 588 650 554 602 522 C 554 490 515 460 484 430 C 453 400 429 370 412 340 C 394 310 380 279 369 246 L 1081 246 L 1037 0 L 12 0 Z" unicode="2" />
<glyph horiz-adv-x="1270" d="M 1183 1112 C 1183 1061 1175 1016 1161 978 C 1147 940 1128 906 1104 878 C 1080 850 1054 826 1024 807 C 994 787 963 771 932 758 C 986 740 1030 707 1066 657 C 1101 607 1119 548 1119 479 C 1119 401 1104 331 1076 269 C 1048 207 1008 154 956 111 C 904 67 842 34 770 11 C 697 -11 616 -23 528 -23 C 468 -23 412 -16 361 -3 C 309 9 263 27 221 49 C 179 71 143 96 112 125 C 80 154 54 185 34 217 L 243 379 C 277 326 318 287 368 261 C 418 235 480 223 554 223 C 596 223 634 228 669 240 C 703 251 733 267 757 289 C 781 311 800 337 814 368 C 827 398 834 433 834 473 C 834 523 818 562 786 589 C 754 615 703 629 635 629 L 470 629 L 511 864 L 667 864 C 705 864 738 869 766 879 C 794 889 818 903 837 921 C 856 939 870 960 880 985 C 890 1009 895 1036 895 1066 C 895 1114 878 1151 846 1176 C 813 1201 766 1214 705 1214 C 646 1214 591 1204 540 1185 C 489 1166 440 1140 392 1106 L 259 1290 C 285 1314 316 1336 351 1356 C 386 1376 424 1394 465 1409 C 506 1423 549 1435 595 1443 C 641 1451 688 1456 737 1456 C 805 1456 866 1448 921 1433 C 976 1417 1023 1395 1062 1365 C 1100 1335 1130 1299 1151 1257 C 1172 1214 1183 1166 1183 1112 Z" unicode="3" />
<glyph horiz-adv-x="1270" d="M 741 293 L 35 293 L 73 508 L 912 1434 L 1192 1434 L 1033 530 L 1197 530 L 1155 293 L 991 293 L 939 0 L 687 0 L 741 293 Z M 781 530 L 879 1086 L 384 530 L 781 530 Z" unicode="4" />
<glyph horiz-adv-x="1270" d="M 1197 1190 L 544 1190 L 470 885 C 488 897 509 908 532 917 C 555 926 579 934 604 940 C 628 946 653 950 677 953 C 701 956 725 958 747 958 C 875 958 973 923 1043 855 C 1112 786 1147 686 1147 555 C 1147 465 1131 385 1100 314 C 1068 242 1025 182 971 132 C 917 82 853 43 779 17 C 705 -9 625 -23 540 -23 C 484 -23 431 -18 381 -8 C 331 2 284 15 242 33 C 200 51 161 72 126 97 C 91 121 60 148 34 178 L 216 369 C 256 321 303 284 356 258 C 408 232 472 219 546 219 C 599 219 645 227 685 244 C 725 260 758 283 785 311 C 811 339 831 372 844 410 C 857 447 864 486 864 528 C 864 596 847 646 814 678 C 780 709 730 725 663 725 C 613 725 565 716 519 698 C 473 680 433 652 401 614 L 182 696 L 354 1434 L 1240 1434 L 1197 1190 Z" unicode="5" />
<glyph horiz-adv-x="1270" d="M 1179 522 C 1179 444 1163 371 1133 305 C 1103 238 1061 180 1009 132 C 956 83 894 45 823 18 C 752 -9 676 -23 596 -23 C 514 -23 443 -12 381 8 C 319 29 268 59 226 98 C 184 137 153 185 132 241 C 110 297 100 360 100 430 C 100 524 113 614 139 700 C 165 786 202 865 248 939 C 294 1013 350 1080 414 1141 C 478 1201 549 1254 625 1298 C 701 1342 781 1378 866 1406 C 951 1433 1038 1450 1126 1458 L 1118 1214 C 1046 1202 977 1185 909 1165 C 841 1145 777 1118 718 1086 C 658 1053 604 1013 556 966 C 507 919 466 863 433 797 C 449 813 470 827 494 841 C 518 854 544 865 572 875 C 600 884 629 891 660 897 C 691 902 722 905 754 905 C 827 905 890 896 944 878 C 998 860 1042 834 1077 800 C 1111 766 1137 726 1154 679 C 1170 632 1179 580 1179 522 Z M 898 484 C 898 546 878 595 840 631 C 802 666 742 684 662 684 C 621 684 583 677 547 663 C 511 649 480 629 454 605 C 428 580 407 551 392 518 C 377 484 370 448 370 410 C 370 347 390 299 431 265 C 471 231 530 214 607 214 C 649 214 688 220 724 234 C 760 247 790 266 816 290 C 842 314 862 342 876 375 C 890 408 898 444 898 484 Z" unicode="6" />
<glyph horiz-adv-x="1270" d="M 1230 1206 C 1132 1116 1047 1026 976 938 C 905 849 844 757 793 661 C 742 565 699 463 665 355 C 631 247 602 128 579 0 L 288 0 C 310 120 340 235 377 343 C 413 451 457 555 508 653 C 558 751 616 844 682 934 C 747 1024 821 1109 903 1190 L 243 1190 L 284 1434 L 1271 1434 L 1230 1206 Z" unicode="7" />
<glyph horiz-adv-x="1270" d="M 1226 1100 C 1226 1055 1219 1015 1206 979 C 1193 943 1176 912 1154 885 C 1132 857 1106 834 1076 814 C 1046 794 1015 778 983 766 C 1005 756 1027 742 1049 725 C 1071 707 1090 686 1107 661 C 1124 636 1138 607 1148 574 C 1158 541 1163 504 1163 463 C 1163 382 1148 311 1119 251 C 1089 190 1049 139 998 99 C 947 58 887 27 818 7 C 749 -12 675 -23 596 -23 C 512 -23 438 -13 375 6 C 312 26 259 53 217 89 C 174 124 142 166 121 215 C 99 263 89 317 89 375 C 89 434 97 486 115 530 C 133 574 156 613 185 645 C 213 677 245 705 281 727 C 317 749 353 767 389 782 C 339 810 302 846 280 891 C 257 935 246 982 246 1032 C 246 1096 259 1155 285 1207 C 311 1259 348 1304 394 1341 C 440 1378 495 1406 558 1426 C 621 1446 689 1456 762 1456 C 840 1456 909 1447 967 1429 C 1025 1411 1074 1386 1112 1354 C 1150 1322 1179 1284 1198 1241 C 1216 1197 1226 1150 1226 1100 Z M 952 1077 C 952 1099 947 1119 939 1139 C 931 1158 918 1175 902 1189 C 885 1203 864 1214 839 1222 C 813 1230 784 1235 750 1235 C 711 1235 677 1230 649 1220 C 620 1210 596 1196 577 1178 C 557 1160 543 1139 533 1115 C 523 1090 519 1063 519 1034 C 519 1012 523 991 531 971 C 539 951 551 934 568 920 C 584 905 605 893 630 885 C 654 876 683 872 717 872 C 753 872 786 877 815 887 C 844 897 869 911 889 929 C 909 947 925 968 936 994 C 946 1019 952 1047 952 1077 Z M 884 459 C 884 485 879 511 870 535 C 860 559 846 580 827 598 C 807 616 783 630 753 641 C 723 651 688 657 647 657 C 603 657 564 651 529 639 C 494 627 464 611 440 589 C 415 567 396 541 383 510 C 369 479 363 444 363 406 C 363 374 368 345 379 321 C 390 297 407 275 430 257 C 453 239 479 226 507 218 C 535 210 567 207 604 207 C 651 207 692 212 726 224 C 760 236 790 253 814 277 C 838 301 856 328 867 359 C 878 390 884 423 884 459 Z" unicode="8" />
<glyph horiz-adv-x="1270" d="M 148 913 C 148 991 163 1063 193 1130 C 223 1196 265 1254 318 1303 C 370 1351 432 1389 503 1417 C 574 1444 650 1458 731 1458 C 812 1458 883 1447 945 1426 C 1007 1405 1058 1375 1100 1336 C 1142 1297 1173 1250 1195 1194 C 1216 1138 1227 1075 1227 1005 C 1227 910 1213 820 1187 734 C 1161 648 1124 569 1078 495 C 1032 421 976 354 912 294 C 848 233 778 180 702 136 C 626 92 545 56 460 29 C 375 1 289 -15 201 -23 L 209 221 C 280 233 350 249 418 269 C 486 289 549 316 609 349 C 668 381 722 421 771 468 C 819 515 860 572 894 638 C 877 622 857 607 833 594 C 809 580 783 569 755 560 C 727 550 697 543 666 538 C 635 532 604 530 573 530 C 499 530 436 539 382 557 C 328 575 284 600 250 634 C 215 668 189 708 173 755 C 156 802 148 855 148 913 Z M 429 951 C 429 888 448 839 486 804 C 524 768 584 751 665 751 C 705 751 743 758 779 772 C 815 786 846 805 872 830 C 898 854 919 883 934 917 C 949 950 957 986 957 1025 C 957 1087 936 1136 896 1170 C 855 1204 796 1221 720 1221 C 677 1221 638 1214 602 1201 C 566 1187 536 1169 510 1145 C 484 1121 464 1092 450 1059 C 436 1026 429 990 429 951 Z" unicode="9" />
<glyph horiz-adv-x="635" d="M 583 905 C 583 879 577 854 567 831 C 557 807 543 787 526 770 C 508 752 488 738 465 728 C 441 718 417 713 391 713 C 365 713 340 718 316 728 C 292 738 272 752 255 770 C 237 787 223 807 213 831 C 203 854 198 879 198 905 C 198 931 203 955 213 979 C 223 1003 237 1023 255 1041 C 272 1058 292 1072 316 1082 C 340 1092 365 1098 391 1098 C 417 1098 441 1092 465 1082 C 488 1072 508 1058 526 1041 C 543 1023 557 1003 567 979 C 577 955 583 931 583 905 Z M 454 170 C 454 144 448 119 438 96 C 428 72 414 52 397 34 C 379 16 359 2 336 -7 C 312 -17 288 -23 262 -23 C 236 -23 211 -17 187 -7 C 163 2 143 16 126 34 C 108 52 94 72 84 96 C 74 119 69 144 69 170 C 69 196 74 220 84 244 C 94 267 108 287 126 305 C 143 322 163 336 187 346 C 211 356 236 362 262 362 C 288 362 312 356 336 346 C 359 336 379 322 397 305 C 414 287 428 267 438 244 C 448 220 454 196 454 170 Z" unicode=":" />
<glyph horiz-adv-x="635" d="M 581 905 C 581 879 575 854 565 831 C 555 807 541 787 524 770 C 506 752 486 738 463 728 C 439 718 415 713 389 713 C 363 713 338 718 314 728 C 290 738 270 752 253 770 C 235 787 221 807 211 831 C 201 854 196 879 196 905 C 196 931 201 955 211 979 C 221 1003 235 1023 253 1041 C 270 1058 290 1072 314 1082 C 338 1092 363 1098 389 1098 C 415 1098 439 1092 463 1082 C 486 1072 506 1058 524 1041 C 541 1023 555 1003 565 979 C 575 955 581 931 581 905 Z M 188 -258 L -5 -258 L 133 346 L 466 346 L 188 -258 Z" unicode=";" />
<glyph horiz-adv-x="1270" d="M 163 596 L 163 827 L 1144 1411 L 1144 1096 L 458 715 L 1144 334 L 1144 12 L 163 596 Z" unicode="&#x3C;" />
<glyph horiz-adv-x="1270" d="M 163 821 L 163 1094 L 1146 1094 L 1146 821 L 163 821 Z M 163 315 L 163 588 L 1146 588 L 1146 315 L 163 315 Z" unicode="=" />
<glyph horiz-adv-x="1270" d="M 165 12 L 165 328 L 851 709 L 165 1090 L 165 1411 L 1146 827 L 1146 596 L 165 12 Z" unicode="&#x3E;" />
<glyph horiz-adv-x="1188" d="M 1206 1090 C 1206 1034 1200 985 1188 943 C 1176 900 1156 861 1130 827 C 1104 792 1070 761 1028 733 C 986 705 936 679 877 655 C 845 641 817 628 794 615 C 770 601 750 587 734 571 C 717 555 704 538 694 518 C 684 498 678 476 674 451 L 393 451 C 399 511 409 561 425 602 C 441 643 461 678 487 707 C 513 736 544 761 581 782 C 617 802 660 822 709 842 C 743 855 772 868 798 881 C 823 894 844 908 861 923 C 877 937 890 953 898 971 C 906 989 911 1009 911 1032 C 911 1074 893 1108 857 1135 C 821 1162 771 1176 707 1176 C 677 1176 645 1173 612 1167 C 578 1161 545 1152 511 1140 C 477 1128 443 1112 409 1093 C 375 1074 343 1052 311 1026 L 166 1251 C 249 1317 339 1368 435 1403 C 531 1438 633 1456 739 1456 C 819 1456 888 1446 947 1426 C 1005 1406 1054 1379 1092 1345 C 1130 1311 1159 1273 1178 1229 C 1196 1185 1206 1138 1206 1090 Z M 655 152 C 655 128 650 105 641 84 C 631 63 619 45 603 29 C 587 13 568 0 547 -9 C 526 -18 504 -23 481 -23 C 457 -23 435 -18 414 -9 C 393 0 375 13 359 29 C 343 45 330 63 321 84 C 311 105 307 128 307 152 C 307 175 311 197 321 218 C 330 239 343 258 359 274 C 375 290 393 302 414 312 C 435 321 457 326 481 326 C 504 326 526 321 547 312 C 568 302 587 290 603 274 C 619 258 631 239 641 218 C 650 197 655 175 655 152 Z" unicode="?" />
<glyph horiz-adv-x="1712" d="M 1595 737 C 1595 661 1587 596 1572 542 C 1556 488 1535 445 1508 411 C 1480 377 1448 353 1410 338 C 1372 322 1330 315 1286 315 C 1254 315 1227 317 1203 323 C 1179 328 1157 335 1138 345 C 1119 355 1102 367 1088 381 C 1073 395 1059 410 1047 428 C 1013 390 975 361 934 342 C 892 322 842 313 784 313 C 747 313 711 318 676 330 C 640 341 609 358 581 382 C 553 405 531 434 514 470 C 497 506 489 548 489 596 C 489 639 497 677 514 710 C 530 742 553 770 582 792 C 611 814 645 830 684 841 C 723 852 765 858 811 858 C 847 858 878 854 904 847 C 929 839 951 830 971 819 L 971 870 C 971 901 961 927 941 949 C 921 970 891 981 850 981 C 800 981 758 976 723 966 C 688 956 657 943 631 928 L 555 1063 C 595 1087 638 1107 683 1121 C 728 1135 784 1143 850 1143 C 897 1143 940 1136 980 1124 C 1019 1112 1053 1094 1081 1071 C 1109 1047 1131 1018 1147 984 C 1163 950 1171 910 1171 866 L 1171 573 C 1171 553 1173 535 1178 519 C 1182 502 1190 487 1200 475 C 1210 463 1223 453 1239 446 C 1255 439 1274 436 1298 436 C 1361 436 1407 462 1435 515 C 1463 568 1477 643 1477 739 C 1477 820 1461 897 1430 970 C 1398 1042 1355 1106 1300 1161 C 1244 1215 1179 1259 1103 1291 C 1027 1323 944 1339 856 1339 C 766 1339 684 1323 608 1292 C 532 1260 466 1217 411 1162 C 356 1107 313 1042 282 966 C 251 890 236 807 236 719 C 236 629 251 546 282 470 C 313 394 356 328 411 273 C 466 217 532 174 608 143 C 684 111 766 96 856 96 C 902 96 946 100 989 109 C 1031 117 1076 133 1122 156 L 1171 47 C 1141 33 1114 22 1089 13 C 1063 4 1038 -2 1014 -8 C 989 -13 964 -17 938 -19 C 912 -21 885 -23 856 -23 C 784 -23 716 -14 652 2 C 588 18 528 42 474 73 C 419 104 370 142 326 186 C 282 230 244 280 213 335 C 182 389 158 449 142 513 C 125 577 117 645 117 717 C 117 788 125 856 142 920 C 158 984 182 1044 213 1099 C 244 1153 282 1203 326 1247 C 370 1291 419 1328 474 1359 C 528 1390 588 1414 652 1431 C 716 1447 784 1456 856 1456 C 928 1456 997 1447 1062 1430 C 1126 1412 1186 1388 1241 1356 C 1295 1324 1345 1286 1389 1242 C 1433 1198 1470 1149 1500 1096 C 1530 1042 1554 985 1570 925 C 1586 864 1595 801 1595 737 Z M 971 668 C 949 680 926 690 903 696 C 879 702 851 705 817 705 C 775 705 743 695 721 677 C 699 658 688 631 688 596 C 688 562 699 534 721 514 C 743 493 775 483 817 483 C 853 483 884 491 912 507 C 939 523 959 541 971 563 L 971 668 Z" unicode="@" />
<glyph horiz-adv-x="1528" d="M 1049 0 L 993 319 L 475 319 L 307 0 L -10 0 L 786 1434 L 1065 1434 L 1354 0 L 1049 0 Z M 863 1058 L 618 592 L 944 592 L 863 1058 Z" unicode="A" />
<glyph horiz-adv-x="1446" d="M 1389 1100 C 1389 1054 1383 1014 1371 978 C 1359 942 1343 911 1323 883 C 1303 855 1281 830 1256 810 C 1231 789 1206 772 1180 758 C 1226 728 1262 691 1290 645 C 1317 599 1331 545 1331 483 C 1331 405 1317 336 1289 276 C 1261 216 1222 165 1172 124 C 1122 83 1062 52 992 31 C 922 10 846 0 762 0 L 90 0 L 344 1434 L 944 1434 C 1016 1434 1079 1425 1135 1409 C 1191 1393 1237 1370 1275 1341 C 1312 1311 1340 1276 1360 1235 C 1379 1194 1389 1149 1389 1100 Z M 1090 1055 C 1090 1091 1075 1119 1047 1139 C 1019 1159 973 1169 911 1169 L 578 1169 L 528 897 L 909 897 C 965 897 1009 910 1041 936 C 1073 962 1090 1002 1090 1055 Z M 1034 479 C 1034 535 1016 576 981 603 C 946 629 891 643 817 643 L 485 643 L 420 272 L 803 272 C 837 272 868 276 896 285 C 924 294 949 307 969 325 C 989 343 1005 364 1017 390 C 1028 416 1034 445 1034 479 Z" unicode="B" />
<glyph horiz-adv-x="1364" d="M 1085 985 C 1070 1013 1054 1038 1037 1061 C 1020 1084 1001 1104 980 1121 C 958 1137 934 1150 906 1160 C 878 1169 845 1174 809 1174 C 751 1174 698 1158 650 1127 C 602 1095 562 1053 528 1001 C 494 949 467 889 448 821 C 429 753 420 682 420 608 C 420 550 427 499 441 456 C 455 412 474 376 499 348 C 524 319 554 297 589 283 C 623 269 661 262 702 262 C 758 262 809 277 854 308 C 899 338 943 383 987 442 L 1217 276 C 1179 224 1139 180 1099 143 C 1059 105 1016 74 972 50 C 928 25 881 7 831 -5 C 781 -17 728 -23 672 -23 C 603 -23 536 -12 470 9 C 404 31 345 65 293 112 C 241 159 200 220 168 295 C 136 369 121 460 121 567 C 121 673 132 770 156 858 C 180 946 207 1018 239 1074 C 271 1130 304 1179 340 1221 C 376 1263 420 1302 472 1339 C 524 1375 581 1404 645 1425 C 709 1445 774 1456 840 1456 C 910 1456 973 1448 1027 1434 C 1081 1420 1129 1399 1171 1371 C 1213 1343 1249 1308 1280 1268 C 1311 1227 1339 1180 1364 1128 L 1085 985 Z" unicode="C" />
<glyph horiz-adv-x="1440" d="M 1389 868 C 1389 766 1379 677 1361 601 C 1342 524 1315 453 1281 389 C 1246 325 1204 269 1156 223 C 1108 176 1058 138 1008 110 C 958 81 893 55 814 33 C 734 11 643 0 541 0 L 90 0 L 344 1434 L 672 1434 C 800 1434 910 1420 1001 1394 C 1091 1367 1165 1329 1223 1280 C 1280 1230 1322 1171 1349 1101 C 1375 1031 1389 954 1389 868 Z M 1087 815 C 1087 868 1079 916 1064 958 C 1048 1000 1024 1035 991 1065 C 957 1094 914 1116 860 1132 C 806 1147 742 1155 666 1155 L 582 1155 L 426 279 L 614 279 C 686 279 751 291 809 315 C 867 339 917 374 958 420 C 999 466 1031 522 1053 588 C 1075 654 1087 730 1087 815 Z" unicode="D" />
<glyph horiz-adv-x="1323" d="M 90 0 L 342 1434 L 1329 1434 L 1280 1153 L 580 1153 L 537 905 L 1104 905 L 1055 627 L 487 627 L 426 281 L 1157 281 L 1108 0 L 90 0 Z" unicode="E" />
<glyph horiz-adv-x="1272" d="M 1311 1153 L 580 1153 L 532 883 L 956 883 L 907 604 L 483 604 L 377 0 L 90 0 L 342 1434 L 1360 1434 L 1311 1153 Z" unicode="F" />
<glyph horiz-adv-x="1421" d="M 1087 965 C 1075 997 1061 1025 1046 1051 C 1030 1076 1012 1097 992 1115 C 972 1133 948 1146 922 1156 C 895 1166 865 1171 831 1171 C 769 1171 714 1155 664 1125 C 614 1094 571 1053 535 1001 C 499 949 472 890 453 823 C 433 756 424 686 424 614 C 424 554 431 501 447 456 C 462 411 483 374 511 344 C 538 314 570 292 607 278 C 643 263 683 256 727 256 C 795 256 851 274 895 310 C 939 346 969 398 987 467 L 989 475 L 786 475 L 834 743 L 1341 743 L 1319 610 C 1299 498 1272 403 1237 323 C 1201 243 1157 178 1105 127 C 1053 75 992 37 924 13 C 855 -10 778 -23 694 -23 C 614 -23 539 -10 470 16 C 401 42 341 80 290 130 C 238 180 198 243 169 317 C 139 391 125 477 125 573 C 125 657 133 738 150 815 C 166 891 190 962 221 1028 C 251 1094 288 1153 332 1206 C 375 1258 424 1303 478 1340 C 532 1377 590 1406 653 1426 C 715 1446 781 1456 850 1456 C 984 1456 1096 1426 1185 1366 C 1273 1306 1338 1211 1378 1083 L 1087 965 Z" unicode="G" />
<glyph horiz-adv-x="1522" d="M 1243 0 L 956 0 L 1061 602 L 481 602 L 377 0 L 90 0 L 342 1434 L 629 1434 L 532 885 L 1112 885 L 1208 1434 L 1495 1434 L 1243 0 Z" unicode="H" />
<glyph horiz-adv-x="696" d="M 395 0 L 109 0 L 362 1434 L 649 1434 L 395 0 Z" unicode="I" />
<glyph horiz-adv-x="1323" d="M 1143 516 C 1122 402 1089 305 1043 226 C 997 146 934 86 856 44 C 772 0 670 -23 551 -23 C 479 -23 414 -12 358 9 C 301 30 252 60 211 100 C 169 139 135 186 109 242 C 82 297 63 358 51 426 L 328 492 C 337 454 348 421 361 393 C 374 365 390 341 410 321 C 430 301 453 287 481 277 C 509 267 542 262 580 262 C 621 262 657 268 689 281 C 720 294 747 314 770 341 C 793 368 813 402 829 444 C 845 485 858 534 868 590 L 1018 1434 L 1305 1434 L 1143 516 Z" unicode="J" />
<glyph horiz-adv-x="1466" d="M 979 932 L 1331 0 L 1028 0 L 760 711 L 444 393 L 377 0 L 90 0 L 342 1434 L 629 1434 L 517 801 L 1130 1434 L 1477 1434 L 979 932 Z" unicode="K" />
<glyph horiz-adv-x="1262" d="M 1087 0 L 90 0 L 342 1434 L 629 1434 L 426 283 L 1137 283 L 1087 0 Z" unicode="L" />
<glyph horiz-adv-x="1702" d="M 1423 0 L 1137 0 L 1278 807 L 752 -33 L 512 807 L 371 0 L 90 0 L 342 1434 L 618 1434 L 846 565 L 1382 1434 L 1675 1434 L 1423 0 Z" unicode="M" />
<glyph horiz-adv-x="1522" d="M 1243 0 L 987 0 L 541 958 L 373 0 L 90 0 L 342 1434 L 616 1434 L 1050 513 L 1212 1434 L 1495 1434 L 1243 0 Z" unicode="N" />
<glyph horiz-adv-x="1464" d="M 1409 866 C 1409 785 1401 707 1385 632 C 1369 557 1347 487 1317 421 C 1287 355 1251 294 1209 240 C 1166 186 1118 139 1065 100 C 1011 61 953 31 890 9 C 826 -12 759 -23 688 -23 C 600 -23 521 -9 451 17 C 381 44 321 83 272 134 C 223 184 186 246 160 319 C 134 392 121 475 121 567 C 121 647 128 725 144 801 C 160 876 182 946 212 1012 C 242 1078 278 1138 321 1193 C 363 1247 411 1294 465 1333 C 518 1372 576 1402 640 1424 C 703 1445 770 1456 842 1456 C 930 1456 1009 1442 1079 1415 C 1149 1388 1208 1349 1257 1299 C 1306 1248 1344 1186 1370 1113 C 1396 1040 1409 958 1409 866 Z M 1110 825 C 1110 884 1102 935 1087 979 C 1072 1023 1052 1059 1026 1087 C 1000 1115 969 1136 934 1150 C 899 1164 861 1171 821 1171 C 765 1171 713 1157 665 1130 C 616 1103 573 1065 537 1016 C 501 966 472 907 451 838 C 430 769 420 692 420 608 C 420 548 427 497 442 454 C 457 410 478 374 504 346 C 530 317 560 296 595 282 C 630 268 668 262 709 262 C 764 262 816 275 865 302 C 913 329 956 367 992 417 C 1028 466 1057 525 1078 594 C 1099 663 1110 740 1110 825 Z" unicode="O" />
<glyph horiz-adv-x="1384" d="M 1384 1044 C 1384 960 1371 884 1345 818 C 1319 752 1282 696 1233 650 C 1183 604 1122 568 1049 544 C 976 520 893 508 799 508 L 467 508 L 377 0 L 90 0 L 344 1434 L 895 1434 C 974 1434 1044 1425 1105 1407 C 1165 1389 1216 1364 1258 1330 C 1299 1296 1330 1255 1352 1207 C 1373 1159 1384 1104 1384 1044 Z M 1083 999 C 1083 1021 1079 1042 1072 1061 C 1065 1080 1054 1097 1038 1111 C 1022 1125 1001 1135 975 1143 C 949 1151 917 1155 879 1155 L 582 1155 L 516 786 L 850 786 C 886 786 918 791 947 801 C 976 811 1001 825 1021 843 C 1041 861 1056 884 1067 910 C 1077 936 1083 966 1083 999 Z" unicode="P" />
<glyph horiz-adv-x="1454" d="M 1171 -12 L 928 -139 L 858 6 C 804 -10 748 -18 688 -18 C 600 -18 521 -4 451 21 C 381 47 321 86 272 136 C 223 186 186 248 160 320 C 134 392 121 475 121 567 C 121 647 128 725 144 801 C 160 876 182 946 212 1012 C 242 1078 278 1138 321 1193 C 363 1247 411 1294 465 1333 C 518 1372 576 1402 640 1424 C 703 1445 770 1456 842 1456 C 930 1456 1009 1442 1079 1415 C 1149 1388 1208 1349 1257 1299 C 1306 1248 1344 1186 1370 1113 C 1396 1040 1409 958 1409 866 C 1409 790 1401 717 1387 647 C 1372 577 1351 510 1325 448 C 1298 386 1265 328 1227 276 C 1189 223 1146 177 1100 137 L 1171 -12 Z M 664 408 L 907 535 L 979 383 C 1019 431 1050 491 1074 565 C 1098 639 1110 725 1110 825 C 1110 884 1102 935 1087 979 C 1072 1023 1052 1059 1026 1087 C 1000 1115 969 1136 934 1150 C 899 1164 861 1171 821 1171 C 765 1171 713 1157 665 1130 C 616 1103 573 1065 537 1016 C 501 966 472 907 451 838 C 430 769 420 692 420 608 C 420 548 427 496 442 452 C 457 408 478 371 504 342 C 530 312 560 290 595 276 C 630 261 668 254 709 254 C 714 254 719 254 723 254 C 727 254 731 254 737 256 L 664 408 Z" unicode="Q" />
<glyph horiz-adv-x="1454" d="M 1425 1042 C 1425 973 1415 912 1396 858 C 1377 804 1351 758 1319 718 C 1286 678 1248 644 1205 618 C 1161 591 1115 571 1067 557 L 1243 0 L 936 0 L 770 516 L 467 516 L 377 0 L 90 0 L 342 1434 L 942 1434 C 1022 1434 1093 1425 1153 1407 C 1213 1389 1264 1363 1304 1329 C 1344 1295 1375 1253 1395 1205 C 1415 1157 1425 1102 1425 1042 Z M 1124 1004 C 1124 1053 1106 1090 1072 1116 C 1037 1142 984 1155 913 1155 L 580 1155 L 516 786 L 893 786 C 962 786 1018 804 1060 842 C 1102 880 1124 934 1124 1004 Z" unicode="R" />
<glyph horiz-adv-x="1346" d="M 1079 1014 C 1060 1037 1039 1059 1017 1080 C 994 1101 969 1120 942 1136 C 915 1152 886 1164 854 1174 C 822 1183 788 1188 750 1188 C 712 1188 680 1184 654 1177 C 627 1169 605 1159 589 1146 C 572 1133 560 1118 552 1101 C 544 1084 541 1066 541 1047 C 541 1026 545 1008 553 993 C 561 978 576 964 596 951 C 616 937 642 924 676 911 C 710 897 752 882 803 866 C 852 850 901 831 950 809 C 998 787 1042 760 1080 728 C 1118 696 1150 658 1174 614 C 1198 570 1210 519 1210 459 C 1210 377 1195 306 1167 246 C 1138 186 1098 136 1047 96 C 996 56 936 26 866 6 C 796 -13 721 -23 639 -23 C 566 -23 499 -14 437 1 C 375 17 320 39 271 67 C 221 94 178 125 142 161 C 105 197 75 234 53 274 L 287 440 C 313 404 341 375 372 351 C 402 327 434 307 468 293 C 502 278 537 267 573 261 C 609 255 645 252 682 252 C 712 252 741 255 769 261 C 797 267 821 277 842 291 C 862 305 879 322 891 344 C 903 366 909 392 909 424 C 909 442 904 460 894 476 C 884 492 868 508 846 523 C 824 538 794 553 757 569 C 720 584 675 600 621 618 C 565 634 515 654 469 677 C 423 700 383 727 350 758 C 316 789 290 825 272 865 C 253 905 244 952 244 1004 C 244 1084 258 1152 288 1209 C 317 1266 356 1313 406 1349 C 456 1385 513 1412 578 1430 C 642 1447 710 1456 782 1456 C 845 1456 903 1449 956 1435 C 1009 1421 1057 1403 1101 1379 C 1145 1355 1184 1328 1219 1296 C 1253 1264 1284 1229 1311 1192 L 1079 1014 Z" unicode="S" />
<glyph horiz-adv-x="1286" d="M 1305 1151 L 897 1151 L 694 0 L 408 0 L 610 1151 L 203 1151 L 252 1434 L 1354 1434 L 1305 1151 Z" unicode="T" />
<glyph horiz-adv-x="1501" d="M 1337 594 C 1319 492 1293 403 1261 327 C 1228 250 1186 186 1135 134 C 1083 82 1022 42 950 16 C 878 -9 794 -23 698 -23 C 622 -23 552 -13 489 6 C 425 26 371 56 325 96 C 279 136 244 188 218 250 C 192 312 180 385 180 471 C 180 494 181 523 183 557 C 185 591 190 626 197 662 L 332 1434 L 618 1434 L 487 692 C 483 667 479 638 476 606 C 472 574 471 540 471 506 C 471 422 493 360 537 319 C 581 278 646 258 733 258 C 774 258 812 264 847 277 C 881 289 912 309 939 337 C 966 364 989 399 1008 442 C 1027 485 1042 537 1053 598 L 1198 1434 L 1485 1434 L 1337 594 Z" unicode="U" />
<glyph horiz-adv-x="1454" d="M 764 0 L 487 0 L 240 1434 L 541 1434 L 692 392 L 1212 1434 L 1524 1434 L 764 0 Z" unicode="V" />
<glyph horiz-adv-x="1792" d="M 1305 0 L 1022 0 L 967 941 L 578 0 L 307 0 L 262 1434 L 557 1434 L 557 532 L 928 1434 L 1178 1434 L 1237 532 L 1554 1434 L 1853 1434 L 1305 0 Z" unicode="W" />
<glyph horiz-adv-x="1438" d="M 317 0 L -4 0 L 588 741 L 264 1434 L 573 1434 L 779 991 L 1130 1434 L 1452 1434 L 893 733 L 1235 0 L 926 0 L 701 486 L 317 0 Z" unicode="X" />
<glyph horiz-adv-x="1454" d="M 877 567 L 776 0 L 489 0 L 588 561 L 203 1434 L 514 1434 L 765 828 L 1235 1434 L 1567 1434 L 877 567 Z" unicode="Y" />
<glyph horiz-adv-x="1401" d="M 1366 1180 L 461 262 L 1214 262 L 1167 0 L 45 0 L 90 254 L 1001 1171 L 293 1171 L 340 1434 L 1411 1434 L 1366 1180 Z" unicode="Z" />
<glyph horiz-adv-x="842" d="M 831 1208 L 590 1208 L 377 0 L 618 0 L 580 -225 L 61 -225 L 352 1434 L 870 1434 L 831 1208 Z" unicode="[" />
<glyph horiz-adv-x="963" d="M 549 -184 L 201 1618 L 479 1618 L 827 -184 L 549 -184 Z" unicode="\" />
<glyph horiz-adv-x="842" d="M 512 -225 L -6 -225 L 33 0 L 274 0 L 487 1208 L 246 1208 L 285 1434 L 803 1434 L 512 -225 Z" unicode="]" />
<glyph horiz-adv-x="1184" d="M 797 782 L 590 1163 L 383 782 L 96 782 L 479 1434 L 705 1434 L 1087 782 L 797 782 Z" unicode="^" />
<glyph horiz-adv-x="1024" d="M 862 -383 L -162 -383 L -121 -147 L 903 -147 L 862 -383 Z" unicode="_" />
<glyph horiz-adv-x="1024" d="M 623 1219 L 383 1546 L 741 1546 L 862 1219 L 623 1219 Z" unicode="`" />
<glyph horiz-adv-x="1130" d="M 1038 778 C 1038 764 1037 749 1036 735 C 1035 720 1033 704 1030 688 L 909 0 L 627 0 L 641 72 C 613 46 580 23 542 5 C 504 -13 460 -23 410 -23 C 362 -23 316 -16 272 -3 C 228 9 190 29 157 56 C 123 83 97 118 77 160 C 57 202 47 253 47 311 C 47 371 57 426 78 476 C 99 526 129 568 168 604 C 206 640 253 667 308 687 C 362 707 424 717 492 717 C 540 717 589 712 638 703 C 686 694 722 684 745 674 L 752 717 C 753 725 754 732 754 737 C 754 741 754 746 754 752 C 754 789 739 817 711 836 C 682 854 634 864 567 864 C 521 864 477 858 435 848 C 393 837 356 824 324 809 L 250 1010 C 298 1036 353 1058 416 1074 C 478 1090 541 1098 604 1098 C 667 1098 725 1092 779 1080 C 832 1068 878 1049 916 1023 C 954 997 984 963 1006 923 C 1027 883 1038 834 1038 778 Z M 707 451 C 684 463 656 473 623 482 C 589 491 550 496 504 496 C 476 496 451 492 430 484 C 409 476 392 465 378 451 C 364 437 353 420 346 402 C 339 383 336 363 336 342 C 336 302 348 271 374 249 C 400 227 439 217 492 217 C 514 217 534 220 554 226 C 573 232 591 239 607 249 C 623 258 638 268 651 280 C 663 292 674 303 682 315 L 707 451 Z" unicode="a" />
<glyph horiz-adv-x="1143" d="M 1069 686 C 1069 601 1060 520 1042 442 C 1024 364 994 289 953 216 C 911 142 857 84 791 41 C 724 -1 650 -23 569 -23 C 541 -23 517 -21 496 -17 C 474 -13 454 -7 436 0 C 417 8 399 17 383 28 C 366 39 349 52 332 66 L 319 0 L 41 0 L 279 1352 L 586 1493 L 502 1008 C 532 1034 564 1056 598 1073 C 632 1089 671 1098 715 1098 C 771 1098 822 1088 866 1069 C 910 1050 947 1023 977 988 C 1007 952 1029 909 1045 858 C 1061 807 1069 750 1069 686 Z M 778 639 C 778 703 765 751 739 783 C 713 815 677 831 629 831 C 610 831 593 828 577 823 C 561 818 545 811 531 803 C 517 795 503 785 491 775 C 478 764 466 753 455 741 L 383 336 C 396 320 409 307 422 295 C 435 283 449 274 463 266 C 477 258 492 253 508 249 C 524 245 543 244 563 244 C 596 244 626 254 653 275 C 679 296 702 325 720 361 C 738 397 753 438 763 486 C 773 534 778 585 778 639 Z" unicode="b" />
<glyph horiz-adv-x="1092" d="M 854 653 C 815 714 778 758 743 785 C 708 811 667 825 621 825 C 581 825 546 815 514 795 C 482 775 454 750 432 718 C 409 686 391 649 379 607 C 366 565 360 523 360 479 C 360 405 378 348 414 309 C 450 269 498 250 557 250 C 596 250 636 260 677 280 C 717 300 761 331 807 373 L 967 186 C 905 122 837 72 764 34 C 690 -4 610 -23 522 -23 C 458 -23 399 -12 344 10 C 289 32 241 63 201 105 C 161 146 129 196 106 256 C 83 315 72 382 72 457 C 72 541 85 622 113 700 C 140 777 179 845 230 904 C 280 963 341 1010 413 1045 C 484 1080 563 1098 651 1098 C 707 1098 756 1091 800 1078 C 844 1064 883 1046 918 1022 C 952 998 983 970 1009 938 C 1035 905 1058 869 1079 831 L 854 653 Z" unicode="c" />
<glyph horiz-adv-x="1143" d="M 68 389 C 68 474 77 557 97 639 C 116 721 146 796 187 865 C 228 934 281 990 346 1033 C 410 1076 484 1098 567 1098 C 594 1098 618 1096 640 1092 C 661 1088 681 1082 699 1074 C 717 1066 735 1057 752 1047 C 768 1036 785 1024 803 1010 L 862 1352 L 1169 1493 L 905 0 L 623 0 L 635 68 C 605 40 572 18 538 2 C 504 -14 465 -23 422 -23 C 365 -23 315 -13 271 5 C 227 24 190 51 160 87 C 130 122 107 165 91 216 C 75 267 68 325 68 389 Z M 358 436 C 358 372 371 324 397 292 C 423 260 460 244 508 244 C 526 244 544 246 560 251 C 576 256 591 263 605 271 C 619 279 633 289 646 300 C 658 310 670 322 682 334 L 754 739 C 740 754 727 767 714 779 C 701 791 687 800 673 808 C 659 816 643 821 627 825 C 611 829 593 831 573 831 C 539 831 509 820 483 799 C 456 778 433 750 415 714 C 397 678 383 636 373 588 C 363 540 358 490 358 436 Z" unicode="d" />
<glyph horiz-adv-x="1094" d="M 1018 662 C 1018 626 1015 591 1009 555 C 1003 519 995 483 985 446 L 350 446 C 346 409 349 378 361 352 C 372 326 388 306 408 290 C 428 274 450 262 476 255 C 501 247 526 244 551 244 C 587 244 622 249 658 261 C 694 272 730 290 766 315 L 903 119 C 838 68 774 32 712 10 C 650 -12 586 -23 520 -23 C 450 -23 388 -12 332 9 C 276 30 229 61 190 101 C 151 141 121 190 100 248 C 78 306 68 371 68 444 C 68 536 82 621 111 701 C 140 781 180 850 230 909 C 280 967 340 1013 408 1047 C 476 1081 549 1098 627 1098 C 694 1098 752 1086 802 1063 C 851 1040 892 1009 924 969 C 956 929 979 883 995 831 C 1010 778 1018 722 1018 662 Z M 752 659 C 754 685 753 709 748 733 C 743 756 734 776 720 794 C 706 812 689 826 667 836 C 645 846 618 852 586 852 C 560 852 536 847 516 837 C 495 827 476 813 460 796 C 444 778 429 758 417 735 C 405 711 395 686 387 659 L 752 659 Z" unicode="e" />
<glyph horiz-adv-x="750" d="M 805 1223 C 794 1229 778 1235 757 1241 C 736 1247 714 1251 692 1251 C 661 1251 639 1244 627 1231 C 615 1218 606 1196 600 1165 L 584 1075 L 758 1075 L 711 809 L 537 809 L 395 0 L 113 0 L 254 809 L 125 809 L 172 1075 L 301 1075 L 324 1204 C 332 1256 345 1299 362 1335 C 378 1371 399 1400 425 1423 C 451 1445 482 1462 518 1472 C 554 1482 597 1487 647 1487 C 665 1487 684 1485 704 1483 C 723 1481 741 1477 759 1473 C 777 1469 793 1464 808 1459 C 823 1453 836 1448 846 1442 L 805 1223 Z" unicode="f" />
<glyph horiz-adv-x="1143" d="M 422 -23 C 365 -23 315 -13 271 5 C 227 24 190 51 160 87 C 130 122 107 165 91 216 C 75 267 68 325 68 389 C 68 497 81 596 109 686 C 136 775 172 850 216 910 C 260 970 311 1016 371 1049 C 430 1081 495 1098 567 1098 C 594 1098 618 1096 640 1092 C 661 1088 681 1082 699 1074 C 717 1066 735 1057 752 1047 C 768 1036 785 1024 803 1010 L 813 1075 L 1096 1075 L 940 182 C 913 35 884 -69 853 -132 C 821 -194 783 -244 739 -280 C 694 -316 638 -345 570 -365 C 502 -385 419 -396 322 -399 L 274 -172 C 334 -169 386 -163 429 -153 C 471 -143 507 -129 535 -111 C 563 -93 585 -70 601 -42 C 617 -14 628 18 635 57 L 637 70 C 610 42 578 20 541 3 C 503 -14 464 -23 422 -23 Z M 358 436 C 358 372 371 324 397 292 C 423 260 460 244 508 244 C 526 244 544 246 560 251 C 576 256 591 263 605 271 C 619 279 633 289 646 300 C 658 310 670 322 682 334 L 754 739 C 740 754 727 767 714 779 C 701 791 687 800 673 808 C 659 816 643 821 627 825 C 611 829 593 831 573 831 C 539 831 509 820 483 799 C 456 778 433 750 415 714 C 397 678 383 636 373 588 C 363 540 358 490 358 436 Z" unicode="g" />
<glyph horiz-adv-x="1188" d="M 1087 764 C 1087 741 1085 716 1083 688 C 1080 660 1077 632 1073 606 L 967 0 L 684 0 L 786 582 C 789 600 791 616 793 632 C 794 648 795 662 795 676 C 795 726 783 764 759 791 C 735 817 697 831 645 831 C 617 831 591 826 568 818 C 544 809 524 795 506 776 C 488 756 472 731 459 701 C 446 670 436 632 428 588 L 326 0 L 43 0 L 281 1352 L 588 1493 L 502 1004 C 529 1029 562 1051 602 1070 C 642 1088 689 1098 745 1098 C 806 1098 858 1090 901 1074 C 943 1058 978 1037 1005 1009 C 1032 981 1052 946 1066 906 C 1080 865 1087 818 1087 764 Z" unicode="h" />
<glyph horiz-adv-x="578" d="M 586 1325 C 586 1303 581 1282 573 1262 C 564 1242 552 1225 538 1211 C 523 1196 506 1184 486 1176 C 466 1167 446 1163 424 1163 C 402 1163 381 1167 361 1176 C 341 1184 324 1196 310 1211 C 295 1225 283 1242 275 1262 C 266 1282 262 1303 262 1325 C 262 1347 266 1367 275 1387 C 283 1407 295 1424 310 1439 C 324 1453 341 1465 361 1474 C 381 1482 402 1487 424 1487 C 446 1487 466 1482 486 1474 C 506 1465 523 1453 538 1439 C 552 1424 564 1407 573 1387 C 581 1367 586 1347 586 1325 Z M 336 0 L 53 0 L 242 1075 L 524 1075 L 336 0 Z" unicode="i" />
<glyph horiz-adv-x="578" d="M 588 1325 C 588 1303 583 1282 575 1262 C 566 1242 554 1225 540 1211 C 525 1196 508 1184 488 1176 C 468 1167 448 1163 426 1163 C 404 1163 383 1167 363 1176 C 343 1184 326 1196 312 1211 C 297 1225 285 1242 277 1262 C 268 1282 264 1303 264 1325 C 264 1347 268 1367 277 1387 C 285 1407 297 1424 312 1439 C 326 1453 343 1465 363 1474 C 383 1482 404 1487 426 1487 C 448 1487 468 1482 488 1474 C 508 1465 525 1453 540 1439 C 554 1424 566 1407 575 1387 C 583 1367 588 1347 588 1325 Z M 344 61 C 330 -14 314 -78 294 -132 C 274 -186 245 -231 208 -267 C 170 -303 122 -331 63 -351 C 3 -371 -72 -386 -164 -395 L -223 -174 C -169 -166 -126 -157 -92 -147 C -58 -137 -31 -123 -11 -105 C 8 -87 24 -64 35 -36 C 46 -8 55 26 63 68 L 242 1075 L 524 1075 L 344 61 Z" unicode="j" />
<glyph horiz-adv-x="1120" d="M 795 741 L 969 0 L 674 0 L 561 506 L 383 326 L 326 0 L 43 0 L 281 1352 L 590 1493 L 446 698 L 793 1075 L 1126 1075 L 795 741 Z" unicode="k" />
<glyph horiz-adv-x="578" d="M 336 0 L 53 0 L 291 1352 L 598 1493 L 336 0 Z" unicode="l" />
<glyph horiz-adv-x="1796" d="M 1696 758 C 1696 734 1694 710 1692 685 C 1690 660 1686 634 1681 606 L 1575 0 L 1294 0 L 1397 582 C 1400 601 1402 619 1404 636 C 1406 653 1407 669 1407 684 C 1407 739 1393 777 1366 799 C 1338 820 1301 831 1255 831 C 1203 831 1161 811 1127 773 C 1093 735 1069 673 1055 588 L 952 0 L 668 0 L 770 582 C 773 601 775 619 777 635 C 779 651 780 667 780 682 C 780 710 776 733 769 753 C 762 772 752 787 739 799 C 725 810 709 818 691 823 C 672 828 651 831 629 831 C 577 831 534 811 500 773 C 466 735 442 673 428 588 L 326 0 L 43 0 L 231 1075 L 514 1075 L 502 1004 C 514 1016 529 1027 545 1038 C 561 1049 578 1059 597 1068 C 616 1077 637 1084 660 1090 C 682 1095 707 1098 733 1098 C 801 1098 859 1086 905 1064 C 951 1041 990 1007 1022 961 C 1037 973 1055 988 1077 1004 C 1099 1020 1124 1035 1153 1049 C 1181 1063 1213 1074 1249 1084 C 1284 1093 1323 1098 1366 1098 C 1476 1098 1558 1068 1613 1010 C 1668 952 1696 868 1696 758 Z" unicode="m" />
<glyph horiz-adv-x="1188" d="M 1087 764 C 1087 741 1085 716 1083 688 C 1080 660 1077 632 1073 606 L 967 0 L 684 0 L 786 582 C 789 600 791 616 793 632 C 794 648 795 662 795 676 C 795 726 783 764 759 791 C 735 817 697 831 645 831 C 617 831 591 826 568 818 C 544 809 524 795 506 776 C 488 756 472 731 459 701 C 446 670 436 632 428 588 L 326 0 L 43 0 L 231 1075 L 514 1075 L 502 1004 C 529 1029 562 1051 602 1070 C 642 1088 689 1098 745 1098 C 861 1098 947 1069 1003 1011 C 1059 953 1087 871 1087 764 Z" unicode="n" />
<glyph horiz-adv-x="1128" d="M 72 440 C 72 528 85 611 113 691 C 141 771 179 841 229 901 C 278 961 337 1009 406 1045 C 475 1080 551 1098 635 1098 C 697 1098 755 1087 807 1065 C 859 1043 903 1013 940 973 C 977 933 1006 884 1026 827 C 1046 770 1057 706 1057 635 C 1057 563 1047 492 1028 422 C 1008 352 975 282 928 212 C 881 142 819 85 743 42 C 666 -1 583 -23 494 -23 C 430 -23 373 -12 321 9 C 269 31 225 62 188 102 C 151 142 122 190 102 247 C 82 304 72 368 72 440 Z M 362 459 C 362 425 366 396 374 370 C 382 344 394 322 408 304 C 422 286 439 273 459 264 C 479 254 500 250 524 250 C 556 250 586 258 615 274 C 644 290 670 314 692 346 C 714 377 732 415 746 461 C 759 506 766 558 766 616 C 766 649 761 679 753 705 C 745 731 733 752 719 770 C 705 788 688 801 668 811 C 648 820 626 825 604 825 C 572 825 541 816 512 800 C 483 784 457 760 435 729 C 413 697 395 659 382 614 C 368 568 362 517 362 459 Z" unicode="o" />
<glyph horiz-adv-x="1143" d="M 1069 686 C 1069 610 1060 532 1044 452 C 1027 372 998 296 957 222 C 916 148 862 88 795 44 C 727 0 652 -23 569 -23 C 541 -23 517 -21 496 -17 C 474 -13 454 -7 436 0 C 418 8 400 17 384 28 C 368 39 351 52 334 66 L 279 -254 L -29 -395 L 231 1075 L 514 1075 L 502 1008 C 532 1034 564 1056 598 1073 C 632 1089 671 1098 715 1098 C 771 1098 822 1088 866 1069 C 910 1050 947 1023 977 988 C 1007 952 1029 909 1045 858 C 1061 807 1069 750 1069 686 Z M 778 639 C 778 703 765 751 739 783 C 713 815 677 831 629 831 C 610 831 593 828 577 823 C 561 818 545 811 531 803 C 517 795 503 785 491 775 C 478 764 466 753 455 741 L 383 336 C 396 320 409 307 422 295 C 435 283 449 274 463 266 C 477 258 492 253 508 249 C 524 245 543 244 563 244 C 596 244 626 254 653 275 C 679 296 702 325 720 361 C 738 397 753 438 763 486 C 773 534 778 585 778 639 Z" unicode="p" />
<glyph horiz-adv-x="1143" d="M 68 389 C 68 495 83 597 113 695 C 143 793 186 874 240 936 C 294 998 348 1041 404 1064 C 459 1086 513 1098 567 1098 C 594 1098 618 1096 640 1092 C 661 1088 681 1082 699 1074 C 717 1066 735 1057 752 1047 C 768 1036 785 1024 803 1010 L 813 1075 L 1096 1075 L 862 -254 L 553 -395 L 635 68 C 605 40 572 18 538 2 C 504 -14 465 -23 422 -23 C 365 -23 315 -13 271 5 C 227 24 190 51 160 87 C 130 122 107 165 91 216 C 75 267 68 325 68 389 Z M 358 436 C 358 372 371 324 397 292 C 423 260 460 244 508 244 C 526 244 544 246 560 251 C 576 256 591 263 605 271 C 619 279 633 289 646 300 C 658 310 670 322 682 334 L 754 739 C 740 754 727 767 714 779 C 701 791 687 800 673 808 C 659 816 643 821 627 825 C 611 829 593 831 573 831 C 539 831 509 820 483 799 C 456 778 433 750 415 714 C 397 678 383 636 373 588 C 363 540 358 490 358 436 Z" unicode="q" />
<glyph horiz-adv-x="868" d="M 793 741 C 774 761 749 778 719 793 C 689 807 658 815 627 815 C 603 815 580 812 560 806 C 539 800 520 788 503 770 C 486 752 471 726 457 692 C 443 658 432 613 422 557 L 324 0 L 41 0 L 231 1075 L 514 1075 L 502 1004 C 526 1032 556 1054 591 1072 C 625 1089 665 1098 709 1098 C 757 1098 799 1089 835 1071 C 871 1053 898 1032 918 1008 L 793 741 Z" unicode="r" />
<glyph horiz-adv-x="1092" d="M 897 745 C 875 759 851 772 825 786 C 799 799 771 811 742 821 C 712 831 682 840 651 846 C 619 852 589 856 559 856 C 519 856 490 849 472 836 C 454 823 446 807 446 788 C 446 779 447 771 451 763 C 455 755 463 747 477 737 C 490 727 510 716 537 703 C 563 689 599 673 645 655 C 689 636 730 616 767 596 C 804 576 836 553 862 528 C 888 502 908 474 922 442 C 936 410 944 374 944 334 C 944 271 932 217 910 172 C 888 127 857 90 819 61 C 780 32 734 11 682 -2 C 630 -16 574 -23 514 -23 C 411 -23 316 -6 228 26 C 140 58 71 96 20 139 L 154 344 C 201 310 258 281 325 256 C 391 231 465 219 545 219 C 581 219 609 226 629 242 C 649 257 659 277 659 303 C 659 313 657 322 653 331 C 649 340 641 349 631 357 C 621 365 607 374 590 383 C 572 392 550 402 524 412 C 463 436 410 459 365 482 C 319 504 282 529 252 555 C 222 581 199 609 184 641 C 169 672 162 708 162 750 C 162 862 198 948 270 1008 C 342 1068 446 1098 580 1098 C 628 1098 674 1094 717 1086 C 760 1078 800 1069 837 1057 C 874 1045 908 1031 940 1016 C 972 1000 1000 985 1026 969 L 897 745 Z" unicode="s" />
<glyph horiz-adv-x="897" d="M 813 809 L 563 809 L 487 377 C 485 367 484 359 484 352 C 483 344 483 337 483 330 C 483 298 491 276 509 265 C 526 253 550 248 582 248 C 610 248 636 253 660 265 C 684 276 709 292 735 313 L 643 33 C 619 16 587 2 547 -7 C 507 -17 471 -23 440 -23 C 364 -23 302 -1 255 42 C 207 86 184 147 184 227 C 184 249 186 273 190 301 L 281 809 L 100 809 L 147 1075 L 328 1075 L 377 1352 L 684 1493 L 610 1075 L 860 1075 L 813 809 Z" unicode="t" />
<glyph horiz-adv-x="1188" d="M 100 311 C 100 333 101 359 104 387 C 106 415 110 442 115 469 L 221 1075 L 504 1075 L 401 494 C 397 475 395 458 394 442 C 393 426 393 412 393 399 C 393 348 405 309 429 283 C 453 257 491 244 543 244 C 571 244 596 248 620 257 C 643 265 664 279 682 299 C 700 318 715 343 728 374 C 741 404 752 442 760 487 L 862 1075 L 1145 1075 L 956 0 L 674 0 L 686 72 C 652 40 614 16 574 0 C 534 -15 490 -23 442 -23 C 326 -23 240 5 184 63 C 128 120 100 203 100 311 Z" unicode="u" />
<glyph horiz-adv-x="1155" d="M 629 0 L 340 0 L 147 1075 L 451 1075 L 547 361 L 895 1075 L 1202 1075 L 629 0 Z" unicode="v" />
<glyph horiz-adv-x="1511" d="M 1073 0 L 821 0 L 777 656 L 502 0 L 266 0 L 145 1075 L 426 1075 L 462 462 L 731 1075 L 965 1075 L 1018 462 L 1270 1075 L 1554 1075 L 1073 0 Z" unicode="w" />
<glyph horiz-adv-x="1176" d="M 997 0 L 698 0 L 535 340 L 262 0 L -43 0 L 426 575 L 178 1075 L 477 1075 L 607 802 L 823 1075 L 1128 1075 L 715 569 L 997 0 Z" unicode="x" />
<glyph horiz-adv-x="1200" d="M 440 -379 L 158 -379 L 367 0 L 147 1075 L 455 1075 L 566 345 L 938 1075 L 1245 1075 L 440 -379 Z" unicode="y" />
<glyph horiz-adv-x="1126" d="M 1063 870 L 470 256 L 954 256 L 909 0 L 29 0 L 63 205 L 682 819 L 207 819 L 252 1075 L 1098 1075 L 1063 870 Z" unicode="z" />
<glyph horiz-adv-x="934" d="M 952 1257 C 900 1255 856 1249 822 1239 C 787 1228 759 1212 737 1190 C 715 1168 698 1141 686 1109 C 674 1076 664 1037 657 991 L 647 928 C 637 871 625 823 610 785 C 595 746 577 714 557 689 C 536 664 512 645 485 633 C 458 620 428 612 395 608 C 427 600 454 590 476 577 C 498 564 514 546 526 522 C 537 498 543 467 544 429 C 545 391 541 345 532 289 L 522 227 C 514 184 512 148 515 118 C 517 88 526 62 542 42 C 557 22 579 5 609 -7 C 638 -20 676 -31 723 -39 L 690 -225 C 610 -219 538 -207 476 -188 C 413 -169 361 -142 321 -107 C 280 -72 252 -29 236 22 C 220 74 218 135 231 207 L 258 352 C 267 402 264 438 250 460 C 235 482 205 494 160 494 L 115 494 L 156 723 L 201 723 C 227 723 248 725 265 730 C 282 735 296 743 307 755 C 317 766 326 781 332 799 C 338 817 343 838 348 864 L 375 1012 C 389 1090 410 1157 440 1214 C 470 1271 509 1318 559 1354 C 608 1390 668 1416 738 1431 C 808 1446 891 1450 985 1444 L 952 1257 Z" unicode="{" />
<glyph horiz-adv-x="584" d="M 258 -379 L 2 -379 L 358 1638 L 614 1638 L 258 -379 Z" unicode="|" />
<glyph horiz-adv-x="934" d="M 801 496 L 756 496 C 730 496 708 493 691 488 C 674 483 660 475 650 464 C 639 452 630 438 624 420 C 618 402 612 380 608 354 L 582 207 C 568 129 546 61 516 4 C 486 -52 446 -99 397 -135 C 347 -171 287 -197 217 -212 C 147 -227 65 -231 -29 -225 L 4 -39 C 56 -37 99 -31 133 -21 C 167 -10 196 5 218 27 C 240 48 257 75 269 108 C 281 141 291 181 299 227 L 309 291 C 318 347 330 395 345 434 C 360 473 378 505 399 530 C 419 554 443 573 470 585 C 497 597 527 606 561 610 C 529 618 502 628 480 641 C 458 653 441 672 429 696 C 417 720 411 750 410 788 C 409 825 414 872 424 930 L 434 991 C 441 1033 443 1070 441 1100 C 438 1130 429 1156 414 1176 C 399 1196 377 1213 347 1226 C 317 1238 279 1249 233 1257 L 266 1444 C 346 1438 418 1425 481 1406 C 543 1387 595 1360 635 1326 C 675 1291 704 1248 720 1196 C 736 1144 737 1082 725 1012 L 698 866 C 688 816 691 780 706 758 C 721 736 751 725 797 725 L 842 725 L 801 496 Z" unicode="}" />
<glyph horiz-adv-x="1151" d="M 1122 868 C 1095 820 1068 778 1041 740 C 1013 702 985 669 956 643 C 927 616 897 595 865 581 C 833 566 800 559 766 559 C 744 559 723 561 705 565 C 687 569 670 575 654 582 C 638 589 624 597 610 606 C 596 614 583 623 571 633 C 551 649 529 666 503 684 C 477 702 452 711 426 711 C 412 711 399 709 388 705 C 377 701 366 694 354 684 C 342 673 328 658 313 639 C 298 620 280 595 258 565 L 106 651 C 132 698 159 741 187 779 C 215 817 243 849 272 876 C 301 903 331 924 363 939 C 395 953 428 961 463 961 C 501 961 534 954 563 942 C 591 930 617 915 641 899 C 659 886 684 868 716 844 C 748 820 777 809 803 809 C 817 809 829 810 840 814 C 851 818 863 825 875 835 C 887 845 900 860 915 879 C 930 898 949 923 971 954 L 1122 868 Z" unicode="~" />
<glyph horiz-adv-x="594" d="" unicode=" " />
<glyph horiz-adv-x="696" d="M 651 1282 C 651 1258 646 1236 637 1215 C 627 1194 615 1176 599 1160 C 583 1144 564 1131 543 1122 C 522 1112 500 1108 477 1108 C 453 1108 431 1112 410 1122 C 389 1131 371 1144 355 1160 C 339 1176 326 1194 317 1215 C 307 1236 303 1258 303 1282 C 303 1305 307 1327 317 1348 C 326 1369 339 1388 355 1404 C 371 1420 389 1432 410 1442 C 431 1451 453 1456 477 1456 C 500 1456 522 1451 543 1442 C 564 1432 583 1420 599 1404 C 615 1388 627 1369 637 1348 C 646 1327 651 1305 651 1282 Z M 502 590 L 397 0 L 111 0 L 215 590 L 330 983 L 522 983 L 502 590 Z" unicode="¡" />
<glyph horiz-adv-x="1270" d="M 469 639 C 469 560 486 501 521 461 C 555 421 606 402 672 402 C 715 402 756 414 795 438 C 833 462 869 493 901 530 L 1073 365 C 1024 315 973 274 920 242 C 867 210 809 188 745 176 L 710 -23 L 423 -23 L 462 193 C 368 223 297 275 247 350 C 197 425 172 517 172 627 C 172 709 183 786 206 858 C 229 930 262 994 304 1051 C 346 1107 396 1155 455 1194 C 513 1233 579 1260 651 1276 L 686 1462 L 970 1462 L 935 1270 C 992 1254 1040 1231 1078 1201 C 1116 1170 1150 1134 1179 1094 L 960 934 C 934 976 906 1005 876 1023 C 846 1041 808 1050 764 1050 C 709 1050 663 1037 625 1011 C 587 985 557 953 534 913 C 511 873 494 828 484 780 C 474 732 469 685 469 639 Z" unicode="¢" />
<glyph horiz-adv-x="1270" d="M 628 551 C 616 496 595 443 565 391 C 535 339 496 290 446 244 L 1058 244 L 1015 0 L 81 0 L 116 205 C 143 225 169 248 195 272 C 221 296 244 323 266 352 C 287 381 306 412 323 445 C 339 478 352 513 362 551 L 182 551 L 221 776 L 364 776 C 359 799 353 822 347 844 C 340 866 333 888 327 911 C 321 933 315 957 311 982 C 307 1006 305 1033 305 1061 C 305 1123 316 1178 339 1227 C 361 1276 394 1317 437 1351 C 480 1385 532 1411 594 1429 C 656 1447 726 1456 804 1456 C 907 1456 993 1441 1062 1411 C 1130 1381 1188 1340 1234 1288 L 1062 1102 C 1022 1142 981 1172 938 1192 C 895 1211 843 1221 782 1221 C 712 1221 663 1204 633 1170 C 603 1136 589 1090 589 1034 C 589 1013 591 993 595 973 C 599 953 603 933 609 913 C 614 892 619 870 625 848 C 630 826 634 802 638 776 L 913 776 L 874 551 L 628 551 Z" unicode="£" />
<glyph horiz-adv-x="1298" d="M 424 774 C 420 754 417 735 415 715 C 413 695 411 676 410 657 L 858 657 L 823 469 L 414 469 C 426 397 453 342 495 304 C 537 266 595 248 668 248 C 697 248 725 252 752 262 C 779 271 805 284 830 300 C 855 316 879 336 902 359 C 925 381 947 406 969 434 L 1194 270 C 1160 226 1123 187 1083 151 C 1043 115 1001 84 955 58 C 909 32 861 12 809 -1 C 757 -15 703 -23 645 -23 C 561 -23 487 -9 422 17 C 356 43 301 82 256 132 C 211 182 177 243 153 315 C 129 387 117 468 117 559 C 117 636 124 712 138 787 C 152 861 173 932 201 998 C 229 1064 263 1126 303 1182 C 343 1238 390 1286 442 1327 C 494 1367 551 1399 614 1422 C 676 1444 744 1456 817 1456 C 890 1456 954 1446 1010 1428 C 1065 1410 1113 1383 1153 1349 C 1193 1314 1226 1272 1252 1223 C 1278 1174 1299 1119 1315 1059 L 1038 954 C 1030 988 1019 1019 1006 1047 C 992 1075 976 1100 956 1121 C 936 1141 912 1157 884 1169 C 856 1180 824 1186 788 1186 C 753 1186 721 1180 691 1170 C 661 1159 633 1144 607 1124 C 581 1104 558 1081 538 1054 C 517 1026 499 996 483 963 L 911 963 L 877 774 L 424 774 Z" unicode="¤" />
<glyph horiz-adv-x="1270" d="M 421 227 L 159 227 L 198 453 L 462 453 L 481 559 L 243 1434 L 550 1434 L 672 814 L 1003 1434 L 1320 1434 L 776 563 L 755 453 L 1019 453 L 978 227 L 714 227 L 675 0 L 382 0 L 421 227 Z" unicode="¥" />
<glyph horiz-adv-x="643" d="M 370 1638 L 630 1638 L 476 764 L 216 764 L 370 1638 Z M 169 496 L 429 496 L 275 -379 L 15 -379 L 169 496 Z" unicode="¦" />
<glyph horiz-adv-x="1434" d="M 438 973 C 421 1007 413 1045 413 1087 C 413 1139 422 1188 440 1233 C 458 1278 485 1317 521 1350 C 557 1383 603 1409 657 1428 C 711 1446 775 1456 849 1456 C 952 1456 1041 1441 1116 1412 C 1190 1383 1256 1340 1312 1284 L 1136 1100 C 1115 1117 1093 1133 1071 1148 C 1048 1162 1023 1175 997 1186 C 971 1197 943 1206 913 1212 C 883 1218 850 1221 815 1221 C 791 1221 770 1218 754 1214 C 738 1209 724 1202 714 1194 C 703 1186 695 1176 691 1165 C 686 1154 684 1142 684 1130 C 684 1117 687 1105 693 1094 C 699 1083 713 1071 734 1057 C 755 1043 786 1026 826 1007 C 866 987 921 963 989 934 C 1051 906 1105 879 1149 853 C 1193 826 1229 798 1257 768 C 1285 738 1305 705 1318 671 C 1330 636 1337 597 1337 555 C 1337 505 1330 460 1316 421 C 1302 381 1282 346 1256 315 C 1230 284 1199 256 1163 232 C 1127 208 1086 186 1042 166 C 1050 148 1056 130 1060 111 C 1064 92 1067 72 1067 51 C 1067 -1 1058 -50 1040 -95 C 1022 -140 994 -179 958 -212 C 922 -244 876 -270 822 -289 C 767 -307 703 -317 630 -317 C 526 -317 437 -302 363 -273 C 289 -244 223 -201 167 -145 L 344 39 C 364 21 386 5 409 -9 C 431 -24 456 -37 482 -48 C 508 -58 537 -67 567 -73 C 597 -79 629 -82 665 -82 C 711 -82 745 -73 765 -55 C 785 -37 796 -16 796 8 C 796 20 792 32 786 44 C 780 55 766 68 745 82 C 724 96 693 112 653 132 C 613 151 559 175 491 205 C 427 231 374 258 330 285 C 286 312 250 340 222 370 C 194 400 174 432 162 467 C 149 501 143 540 143 584 C 143 634 150 678 164 718 C 178 757 197 792 223 823 C 249 854 280 882 316 906 C 352 930 393 953 438 973 Z M 882 322 C 940 341 984 365 1014 394 C 1044 423 1060 460 1060 506 C 1060 525 1056 543 1048 559 C 1040 575 1024 592 1000 610 C 976 628 943 648 899 670 C 855 692 798 720 727 752 C 701 763 678 774 658 784 C 637 794 617 805 598 817 C 540 797 495 773 465 744 C 434 715 419 678 419 633 C 419 613 423 596 431 580 C 439 564 454 547 478 529 C 502 511 535 490 579 468 C 623 446 681 419 753 387 C 777 375 800 364 821 354 C 842 344 862 333 882 322 Z" unicode="§" />
<glyph horiz-adv-x="1024" d="M 1038 1376 C 1038 1354 1033 1334 1025 1316 C 1017 1297 1005 1280 991 1266 C 976 1251 959 1239 940 1231 C 921 1223 901 1219 881 1219 C 859 1219 838 1223 818 1231 C 798 1239 781 1251 767 1266 C 752 1280 740 1297 732 1316 C 723 1334 719 1354 719 1376 C 719 1398 723 1418 732 1438 C 740 1457 752 1474 767 1489 C 781 1503 798 1515 818 1523 C 838 1531 859 1536 881 1536 C 901 1536 921 1531 940 1523 C 959 1515 976 1503 991 1489 C 1005 1474 1017 1457 1025 1438 C 1033 1418 1038 1398 1038 1376 Z M 596 1376 C 596 1354 591 1334 583 1316 C 574 1297 562 1280 548 1266 C 533 1251 516 1239 497 1231 C 477 1223 457 1219 436 1219 C 414 1219 394 1223 375 1231 C 355 1239 338 1251 324 1266 C 309 1280 297 1297 289 1316 C 280 1334 276 1354 276 1376 C 276 1398 280 1418 289 1438 C 297 1457 309 1474 324 1489 C 338 1503 355 1515 375 1523 C 394 1531 414 1536 436 1536 C 457 1536 477 1531 497 1523 C 516 1515 533 1503 548 1489 C 562 1474 574 1457 583 1438 C 591 1418 596 1398 596 1376 Z" unicode="¨" />
<glyph horiz-adv-x="1712" d="M 1615 717 C 1615 611 1596 514 1558 424 C 1520 334 1469 255 1403 189 C 1337 123 1259 71 1169 33 C 1079 -4 981 -23 876 -23 C 770 -23 673 -4 583 33 C 493 71 415 123 349 189 C 283 255 231 334 193 424 C 155 514 137 611 137 717 C 137 822 155 920 193 1010 C 231 1100 283 1178 349 1244 C 415 1310 493 1362 584 1400 C 675 1437 772 1456 876 1456 C 981 1456 1079 1437 1170 1399 C 1260 1361 1338 1309 1404 1243 C 1469 1177 1520 1100 1558 1010 C 1596 920 1615 822 1615 717 Z M 1484 717 C 1484 803 1468 884 1437 958 C 1406 1032 1363 1096 1309 1150 C 1255 1204 1191 1247 1117 1278 C 1043 1309 962 1325 876 1325 C 789 1325 709 1309 635 1278 C 561 1247 496 1204 442 1150 C 388 1096 345 1032 314 958 C 283 884 268 803 268 717 C 268 630 283 550 314 476 C 345 402 388 337 442 283 C 496 229 561 186 635 155 C 709 124 789 109 876 109 C 962 109 1043 124 1117 155 C 1191 186 1255 229 1309 283 C 1363 337 1406 402 1437 476 C 1468 550 1484 630 1484 717 Z M 1021 870 C 1005 899 986 921 965 937 C 944 953 918 961 886 961 C 864 961 842 956 822 947 C 801 938 783 923 769 903 C 754 882 743 857 736 827 C 728 797 725 762 725 721 C 725 679 728 643 736 614 C 744 585 755 560 771 540 C 787 519 804 504 824 496 C 844 487 865 483 888 483 C 918 483 944 492 967 510 C 990 528 1012 554 1034 588 L 1177 489 C 1145 429 1105 384 1059 352 C 1012 320 954 305 884 305 C 831 305 783 314 740 334 C 696 354 659 382 629 418 C 598 454 574 497 557 549 C 540 600 532 657 532 721 C 532 781 540 837 558 889 C 575 940 599 984 631 1021 C 663 1058 700 1087 744 1108 C 788 1128 836 1139 888 1139 C 957 1139 1016 1124 1066 1094 C 1115 1064 1154 1019 1183 961 L 1021 870 Z" unicode="©" />
<glyph horiz-adv-x="969" d="M 956 1214 C 956 1194 954 1173 950 1151 L 846 565 L 623 565 L 635 629 C 610 607 580 589 546 573 C 512 557 475 549 436 549 C 392 549 352 555 317 568 C 282 581 252 599 228 623 C 203 647 184 675 171 707 C 158 739 152 775 152 815 C 152 863 160 907 177 947 C 193 987 217 1022 249 1052 C 281 1082 319 1105 365 1122 C 410 1138 462 1147 520 1147 C 556 1147 591 1143 627 1137 C 663 1130 693 1122 719 1112 L 727 1155 C 727 1158 728 1162 728 1168 C 728 1173 729 1178 729 1182 C 729 1210 715 1231 689 1247 C 662 1262 621 1270 565 1270 C 530 1270 497 1265 465 1257 C 433 1248 403 1238 375 1227 L 317 1391 C 361 1410 407 1426 454 1438 C 501 1450 549 1456 598 1456 C 713 1456 801 1435 863 1394 C 925 1352 956 1292 956 1214 Z M 688 934 C 669 943 646 951 620 958 C 593 965 560 969 520 969 C 474 969 439 957 416 934 C 392 911 381 882 381 846 C 381 814 391 787 411 767 C 431 747 462 737 504 737 C 522 737 540 739 557 744 C 573 749 588 756 602 764 C 616 772 628 781 639 791 C 650 801 660 811 668 821 L 688 934 Z" unicode="ª" />
<glyph horiz-adv-x="1286" d="M 881 539 L 1110 0 L 817 0 L 578 537 L 1006 1075 L 1298 1075 L 881 539 Z M 365 539 L 594 0 L 301 0 L 61 537 L 489 1075 L 782 1075 L 365 539 Z" unicode="«" />
<glyph horiz-adv-x="1255" d="M 1143 182 L 862 182 L 862 571 L 113 571 L 113 838 L 1143 838 L 1143 182 Z" unicode="¬" />
<glyph horiz-adv-x="834" d="M 723 602 L 135 602 L 184 885 L 772 885 L 723 602 Z" unicode="­" />
<glyph horiz-adv-x="1712" d="M 1616 717 C 1616 611 1597 514 1559 424 C 1521 334 1470 255 1404 189 C 1338 123 1260 71 1170 33 C 1080 -4 982 -23 877 -23 C 771 -23 674 -4 584 33 C 494 71 416 123 350 189 C 284 255 232 334 194 424 C 156 514 138 611 138 717 C 138 822 156 920 194 1010 C 232 1100 284 1178 350 1244 C 416 1310 494 1362 585 1400 C 676 1437 773 1456 877 1456 C 982 1456 1080 1437 1171 1399 C 1261 1361 1339 1309 1405 1243 C 1470 1177 1521 1100 1559 1010 C 1597 920 1616 822 1616 717 Z M 1485 717 C 1485 803 1469 884 1438 958 C 1407 1032 1364 1096 1310 1150 C 1256 1204 1192 1247 1118 1278 C 1044 1309 963 1325 877 1325 C 790 1325 710 1309 636 1278 C 562 1247 497 1204 443 1150 C 389 1096 346 1032 315 958 C 284 884 269 803 269 717 C 269 630 284 550 315 476 C 346 402 389 337 443 283 C 497 229 562 186 636 155 C 710 124 790 109 877 109 C 963 109 1044 124 1118 155 C 1192 186 1256 229 1310 283 C 1364 337 1407 402 1438 476 C 1469 550 1485 630 1485 717 Z M 1229 881 C 1229 824 1216 776 1191 736 C 1166 696 1126 666 1070 645 L 1225 328 L 1033 328 L 887 623 L 748 623 L 748 328 L 578 328 L 578 1135 L 953 1135 C 991 1135 1027 1129 1061 1119 C 1095 1109 1124 1093 1149 1072 C 1173 1051 1193 1025 1207 993 C 1221 961 1229 923 1229 881 Z M 1055 877 C 1055 913 1045 939 1025 955 C 1005 971 977 979 941 979 L 748 979 L 748 772 L 941 772 C 977 772 1005 781 1025 799 C 1045 817 1055 843 1055 877 Z" unicode="®" />
<glyph horiz-adv-x="1024" d="M 936 1249 L 342 1249 L 379 1464 L 973 1464 L 936 1249 Z" unicode="¯" />
<glyph horiz-adv-x="995" d="M 923 1053 C 923 995 912 941 892 891 C 871 841 842 798 806 762 C 770 725 727 696 678 676 C 628 655 575 645 518 645 C 460 645 407 655 358 676 C 308 696 265 725 229 762 C 193 798 164 841 143 891 C 122 941 112 995 112 1053 C 112 1109 122 1161 143 1210 C 164 1259 193 1302 229 1338 C 265 1374 308 1403 358 1424 C 407 1445 460 1456 518 1456 C 575 1456 628 1445 678 1424 C 727 1403 770 1374 806 1338 C 842 1302 871 1259 892 1210 C 912 1161 923 1109 923 1053 Z M 708 1053 C 708 1079 703 1103 693 1126 C 683 1149 670 1169 653 1187 C 636 1204 616 1218 593 1228 C 569 1238 544 1243 518 1243 C 491 1243 466 1238 443 1228 C 419 1218 399 1204 382 1187 C 365 1169 352 1149 342 1126 C 332 1103 327 1079 327 1053 C 327 1025 332 999 342 975 C 352 951 365 931 382 914 C 399 896 419 883 443 873 C 466 863 491 858 518 858 C 544 858 569 863 593 873 C 616 883 636 896 653 914 C 670 931 683 951 693 975 C 703 999 708 1025 708 1053 Z" unicode="°" />
<glyph horiz-adv-x="1255" d="M 768 797 L 768 428 L 487 428 L 487 797 L 113 797 L 113 1063 L 487 1063 L 487 1432 L 768 1432 L 768 1063 L 1143 1063 L 1143 797 L 768 797 Z M 113 61 L 113 311 L 1143 311 L 1143 61 L 113 61 Z" unicode="±" />
<glyph horiz-adv-x="850" d="M -21 530 C -5 616 18 689 50 749 C 81 809 118 860 161 902 C 204 944 252 978 305 1005 C 357 1031 413 1054 473 1074 C 509 1085 536 1099 556 1116 C 576 1132 586 1155 586 1183 C 586 1206 575 1224 554 1237 C 532 1249 498 1256 452 1256 C 408 1256 365 1247 325 1229 C 284 1211 246 1189 211 1162 L 108 1321 C 162 1367 219 1400 280 1422 C 340 1443 403 1454 468 1454 C 518 1454 564 1448 604 1437 C 644 1425 679 1409 707 1388 C 735 1367 756 1341 771 1311 C 785 1280 793 1246 793 1208 C 793 1167 787 1131 776 1101 C 765 1070 748 1042 724 1018 C 700 993 669 970 632 950 C 594 930 549 910 497 890 C 465 878 437 866 413 854 C 389 842 368 830 351 818 C 334 806 319 793 305 779 C 291 764 279 746 268 725 L 712 725 L 678 530 L -21 530 Z" unicode="²" />
<glyph horiz-adv-x="801" d="M 721 1220 C 721 1190 716 1163 707 1140 C 698 1116 687 1096 673 1079 C 659 1061 644 1047 627 1035 C 610 1023 594 1013 578 1006 C 612 992 638 971 657 943 C 675 915 685 878 685 834 C 685 784 676 739 659 701 C 642 662 618 629 586 602 C 554 575 515 555 470 541 C 424 527 374 520 318 520 C 230 520 154 539 90 578 C 26 617 -26 669 -69 733 L 98 833 C 134 785 170 752 205 734 C 239 716 281 707 331 707 C 351 707 369 709 387 715 C 405 721 420 729 434 739 C 447 749 458 762 466 777 C 474 791 478 808 478 826 C 478 851 470 872 455 888 C 439 904 413 913 376 913 L 276 913 L 306 1094 L 405 1094 C 424 1094 440 1096 454 1102 C 468 1107 479 1114 487 1123 C 495 1131 502 1141 506 1152 C 510 1163 512 1174 512 1186 C 512 1208 503 1227 485 1244 C 467 1260 437 1269 395 1269 C 367 1269 338 1263 308 1251 C 278 1239 250 1222 222 1200 L 95 1333 C 121 1357 149 1377 178 1393 C 206 1409 235 1421 263 1431 C 291 1440 318 1446 344 1450 C 370 1454 394 1456 417 1456 C 465 1456 507 1450 545 1439 C 583 1428 615 1412 641 1392 C 667 1371 686 1346 700 1317 C 714 1288 721 1256 721 1220 Z" unicode="³" />
<glyph horiz-adv-x="1024" d="M 643 1219 L 403 1219 L 639 1546 L 997 1546 L 643 1219 Z" unicode="´" />
<glyph horiz-adv-x="1198" d="M 967 0 L 684 0 L 696 72 C 674 52 657 38 643 30 C 629 22 614 14 598 6 C 581 -1 561 -8 539 -14 C 516 -20 487 -23 453 -23 C 432 -23 409 -21 385 -19 C 360 -17 339 -13 322 -7 L 279 -254 L -29 -395 L 231 1075 L 514 1075 L 412 494 C 409 476 407 460 405 444 C 403 428 403 413 403 399 C 403 347 415 309 440 283 C 464 257 502 244 553 244 C 581 244 606 248 630 257 C 653 265 674 279 692 299 C 710 318 725 343 738 374 C 751 404 762 442 770 487 L 872 1075 L 1155 1075 L 967 0 Z" unicode="µ" />
<glyph horiz-adv-x="1475" d="M 1130 -379 L 897 -379 L 1178 1217 L 1047 1217 L 766 -379 L 532 -379 L 692 535 L 627 535 C 557 535 494 544 438 562 C 382 580 334 607 294 642 C 254 676 223 718 201 767 C 179 815 168 870 168 932 C 168 1004 179 1070 203 1131 C 227 1192 261 1245 306 1290 C 351 1335 406 1370 471 1396 C 535 1421 609 1434 692 1434 L 1450 1434 L 1130 -379 Z" unicode="¶" />
<glyph horiz-adv-x="557" d="M 506 752 C 506 726 500 701 490 677 C 480 653 466 633 449 616 C 431 598 411 584 387 574 C 363 564 339 559 313 559 C 287 559 262 564 239 574 C 215 584 195 598 178 616 C 160 633 146 653 136 677 C 126 701 121 726 121 752 C 121 778 126 802 136 826 C 146 849 160 869 178 887 C 195 904 215 918 239 928 C 262 938 287 944 313 944 C 339 944 363 938 387 928 C 411 918 431 904 449 887 C 466 869 480 849 490 826 C 500 802 506 778 506 752 Z" unicode="·" />
<glyph horiz-adv-x="1024" d="M 641 -201 C 641 -231 635 -258 624 -282 C 612 -306 596 -326 575 -343 C 554 -359 529 -372 500 -381 C 470 -390 437 -395 401 -395 C 345 -395 292 -386 242 -369 C 192 -351 147 -328 109 -299 L 166 -225 C 192 -243 223 -259 257 -273 C 291 -286 325 -293 360 -293 C 390 -293 414 -287 434 -275 C 453 -263 463 -245 463 -223 C 463 -203 457 -190 446 -182 C 434 -174 418 -170 397 -170 C 389 -170 380 -171 370 -174 C 360 -176 352 -180 344 -184 L 274 -156 L 371 76 L 485 76 L 422 -86 C 433 -82 445 -79 457 -76 C 469 -73 483 -72 500 -72 C 541 -72 575 -83 601 -107 C 627 -130 641 -161 641 -201 Z" unicode="¸" />
<glyph horiz-adv-x="625" d="M 276 1161 L 126 1161 L 153 1315 C 181 1317 205 1320 227 1324 C 248 1328 267 1335 283 1344 C 299 1353 314 1365 326 1379 C 338 1393 349 1412 359 1434 L 539 1434 L 378 524 L 163 524 L 276 1161 Z" unicode="¹" />
<glyph horiz-adv-x="997" d="M 979 1083 C 979 1015 967 947 945 881 C 922 815 889 756 847 706 C 804 655 756 616 704 589 C 651 562 593 549 530 549 C 482 549 436 556 394 572 C 352 588 315 611 284 642 C 252 673 227 712 209 759 C 191 805 182 860 182 922 C 182 986 193 1052 216 1119 C 238 1186 270 1245 311 1295 C 351 1345 399 1384 453 1413 C 507 1441 567 1456 631 1456 C 679 1456 724 1448 766 1432 C 808 1416 845 1393 877 1362 C 908 1331 933 1292 951 1246 C 969 1199 979 1145 979 1083 Z M 748 1069 C 748 1125 735 1167 711 1194 C 686 1221 653 1235 612 1235 C 578 1235 548 1225 523 1207 C 498 1189 477 1165 461 1136 C 445 1107 433 1075 425 1040 C 417 1004 414 970 414 936 C 414 879 426 837 450 810 C 474 783 507 770 549 770 C 583 770 612 779 637 797 C 662 815 683 839 699 868 C 715 897 728 929 736 965 C 744 1000 748 1035 748 1069 Z" unicode="º" />
<glyph horiz-adv-x="1286" d="M 797 0 L 504 0 L 922 537 L 692 1075 L 985 1075 L 1225 539 L 797 0 Z M 281 0 L -12 0 L 406 537 L 176 1075 L 469 1075 L 709 539 L 281 0 Z" unicode="»" />
<glyph horiz-adv-x="1905" d="M 442 1161 L 292 1161 L 319 1315 C 347 1317 371 1320 393 1324 C 414 1328 433 1335 449 1344 C 465 1353 480 1365 492 1379 C 504 1393 515 1412 525 1434 L 705 1434 L 544 524 L 329 524 L 442 1161 Z M 518 0 L 215 0 L 1429 1434 L 1732 1434 L 518 0 Z M 1442 190 L 969 190 L 996 342 L 1564 911 L 1773 911 L 1677 371 L 1790 371 L 1758 186 L 1645 186 L 1612 2 L 1409 2 L 1442 190 Z M 1474 371 L 1523 649 L 1251 371 L 1474 371 Z" unicode="¼" />
<glyph horiz-adv-x="1905" d="M 393 1161 L 243 1161 L 270 1315 C 298 1317 322 1320 344 1324 C 365 1328 384 1335 400 1344 C 416 1353 431 1365 443 1379 C 455 1393 466 1412 476 1434 L 656 1434 L 495 524 L 280 524 L 393 1161 Z M 437 0 L 134 0 L 1348 1434 L 1651 1434 L 437 0 Z M 1031 0 C 1047 86 1070 159 1102 219 C 1133 279 1170 330 1213 372 C 1256 414 1304 448 1357 475 C 1409 501 1465 524 1525 544 C 1561 555 1588 569 1608 586 C 1628 602 1638 625 1638 653 C 1638 676 1627 694 1606 707 C 1584 719 1550 726 1504 726 C 1460 726 1417 717 1377 699 C 1336 681 1298 659 1263 632 L 1160 791 C 1214 837 1271 870 1332 892 C 1392 913 1455 924 1520 924 C 1570 924 1616 918 1656 907 C 1696 895 1731 879 1759 858 C 1787 837 1808 811 1823 781 C 1837 750 1845 716 1845 678 C 1845 637 1839 601 1828 571 C 1817 540 1800 512 1776 488 C 1752 463 1721 440 1684 420 C 1646 400 1601 380 1549 360 C 1517 348 1489 336 1465 324 C 1441 312 1420 300 1403 288 C 1386 276 1371 263 1357 249 C 1343 234 1331 216 1320 195 L 1764 195 L 1730 0 L 1031 0 Z" unicode="½" />
<glyph horiz-adv-x="1905" d="M 927 1220 C 927 1190 922 1163 913 1140 C 904 1116 893 1096 879 1079 C 865 1061 850 1047 833 1035 C 816 1023 800 1013 784 1006 C 818 992 844 971 863 943 C 881 915 891 878 891 834 C 891 784 882 739 865 701 C 848 662 824 629 792 602 C 760 575 721 555 676 541 C 630 527 580 520 524 520 C 436 520 360 539 296 578 C 232 617 179 669 137 733 L 304 833 C 340 785 376 752 411 734 C 445 716 487 707 537 707 C 557 707 575 709 593 715 C 611 721 626 729 640 739 C 653 749 664 762 672 777 C 680 791 684 808 684 826 C 684 851 676 872 661 888 C 645 904 619 913 582 913 L 482 913 L 512 1094 L 611 1094 C 630 1094 646 1096 660 1102 C 674 1107 685 1114 693 1123 C 701 1131 708 1141 712 1152 C 716 1163 718 1174 718 1186 C 718 1208 709 1227 691 1244 C 673 1260 643 1269 601 1269 C 573 1269 544 1263 514 1251 C 484 1239 456 1222 428 1200 L 301 1333 C 327 1357 355 1377 384 1393 C 412 1409 441 1421 469 1431 C 497 1440 524 1446 550 1450 C 576 1454 600 1456 623 1456 C 671 1456 713 1450 751 1439 C 789 1428 821 1412 847 1392 C 873 1371 892 1346 906 1317 C 920 1288 927 1256 927 1220 Z M 667 0 L 364 0 L 1578 1434 L 1881 1434 L 667 0 Z M 1533 190 L 1060 190 L 1087 342 L 1655 911 L 1864 911 L 1768 371 L 1881 371 L 1849 186 L 1736 186 L 1703 2 L 1500 2 L 1533 190 Z M 1565 371 L 1614 649 L 1342 371 L 1565 371 Z" unicode="¾" />
<glyph horiz-adv-x="1188" d="M 45 344 C 45 398 51 447 63 490 C 75 533 94 572 120 606 C 146 640 181 671 223 699 C 265 727 315 753 375 778 C 407 791 434 804 458 818 C 481 831 501 846 517 862 C 533 878 547 895 557 915 C 567 935 574 957 578 983 L 858 983 C 852 923 841 872 826 831 C 810 790 790 755 764 726 C 738 696 707 671 671 651 C 634 630 591 610 543 592 C 509 578 479 565 453 552 C 427 539 406 525 390 510 C 373 495 360 479 352 461 C 344 443 340 423 340 401 C 340 359 358 324 394 298 C 430 271 480 258 545 258 C 575 258 606 260 639 266 C 672 272 706 281 740 293 C 774 305 807 321 841 340 C 875 359 908 382 940 408 L 1085 182 C 1001 115 911 64 815 29 C 719 -5 618 -23 512 -23 C 432 -23 362 -13 304 7 C 246 27 197 53 159 87 C 120 121 91 160 73 204 C 54 248 45 295 45 344 Z M 596 1282 C 596 1305 600 1327 610 1348 C 619 1369 632 1388 648 1404 C 664 1420 682 1432 703 1442 C 724 1451 746 1456 770 1456 C 793 1456 815 1451 836 1442 C 857 1432 876 1420 892 1404 C 908 1388 920 1369 930 1348 C 939 1327 944 1305 944 1282 C 944 1258 939 1236 930 1215 C 920 1194 908 1176 892 1160 C 876 1144 857 1131 836 1122 C 815 1112 793 1108 770 1108 C 746 1108 724 1112 703 1122 C 682 1131 664 1144 648 1160 C 632 1176 619 1194 610 1215 C 600 1236 596 1258 596 1282 Z" unicode="¿" />
<glyph horiz-adv-x="1528" d="M 1049 0 L 993 319 L 475 319 L 307 0 L -10 0 L 786 1434 L 1065 1434 L 1354 0 L 1049 0 Z M 863 1058 L 618 592 L 944 592 L 863 1058 Z M 834 1526 L 594 1853 L 952 1853 L 1073 1526 L 834 1526 Z" unicode="À" />
<glyph horiz-adv-x="1528" d="M 1049 0 L 993 319 L 475 319 L 307 0 L -10 0 L 786 1434 L 1065 1434 L 1354 0 L 1049 0 Z M 863 1058 L 618 592 L 944 592 L 863 1058 Z M 1042 1526 L 802 1526 L 1038 1853 L 1396 1853 L 1042 1526 Z" unicode="Á" />
<glyph horiz-adv-x="1528" d="M 1049 0 L 993 319 L 475 319 L 307 0 L -10 0 L 786 1434 L 1065 1434 L 1354 0 L 1049 0 Z M 863 1058 L 618 592 L 944 592 L 863 1058 Z M 1129 1526 L 951 1679 L 719 1526 L 525 1526 L 832 1853 L 1119 1853 L 1311 1526 L 1129 1526 Z" unicode="Â" />
<glyph horiz-adv-x="1528" d="M 1049 0 L 993 319 L 475 319 L 307 0 L -10 0 L 786 1434 L 1065 1434 L 1354 0 L 1049 0 Z M 863 1058 L 618 592 L 944 592 L 863 1058 Z M 1391 1814 C 1383 1768 1370 1727 1353 1691 C 1335 1654 1314 1623 1290 1598 C 1266 1572 1238 1553 1208 1539 C 1177 1525 1144 1519 1110 1519 C 1074 1519 1041 1524 1012 1536 C 983 1547 956 1559 932 1573 C 908 1586 886 1598 865 1608 C 844 1618 823 1624 803 1624 C 785 1624 770 1616 758 1602 C 745 1587 733 1562 721 1526 L 537 1526 C 544 1571 556 1612 573 1648 C 590 1684 611 1715 635 1741 C 659 1766 686 1785 717 1799 C 747 1813 780 1820 815 1820 C 850 1820 882 1814 910 1804 C 938 1794 963 1782 987 1769 C 1012 1755 1035 1743 1057 1732 C 1079 1721 1100 1716 1122 1716 C 1141 1716 1156 1723 1168 1738 C 1180 1753 1192 1778 1206 1814 L 1391 1814 Z" unicode="Ã" />
<glyph horiz-adv-x="1528" d="M 1049 0 L 993 319 L 475 319 L 307 0 L -10 0 L 786 1434 L 1065 1434 L 1354 0 L 1049 0 Z M 863 1058 L 618 592 L 944 592 L 863 1058 Z M 1337 1683 C 1337 1661 1332 1641 1324 1623 C 1316 1604 1304 1587 1290 1573 C 1275 1558 1258 1546 1239 1538 C 1220 1530 1200 1526 1180 1526 C 1158 1526 1137 1530 1117 1538 C 1097 1546 1080 1558 1066 1573 C 1051 1587 1039 1604 1031 1623 C 1022 1641 1018 1661 1018 1683 C 1018 1705 1022 1725 1031 1745 C 1039 1764 1051 1781 1066 1796 C 1080 1810 1097 1822 1117 1830 C 1137 1838 1158 1843 1180 1843 C 1200 1843 1220 1838 1239 1830 C 1258 1822 1275 1810 1290 1796 C 1304 1781 1316 1764 1324 1745 C 1332 1725 1337 1705 1337 1683 Z M 895 1683 C 895 1661 890 1641 882 1623 C 873 1604 861 1587 847 1573 C 832 1558 815 1546 796 1538 C 776 1530 756 1526 735 1526 C 713 1526 693 1530 674 1538 C 654 1546 637 1558 623 1573 C 608 1587 596 1604 588 1623 C 579 1641 575 1661 575 1683 C 575 1705 579 1725 588 1745 C 596 1764 608 1781 623 1796 C 637 1810 654 1822 674 1830 C 693 1838 713 1843 735 1843 C 756 1843 776 1838 796 1830 C 815 1822 832 1810 847 1796 C 861 1781 873 1764 882 1745 C 890 1725 895 1705 895 1683 Z" unicode="Ä" />
<glyph horiz-adv-x="1528" d="M 1049 0 L 993 319 L 475 319 L 307 0 L -10 0 L 733 1335 C 709 1359 691 1388 678 1420 C 665 1452 659 1488 659 1526 C 659 1565 666 1601 680 1635 C 694 1669 713 1698 738 1723 C 762 1747 792 1767 826 1781 C 860 1795 896 1802 936 1802 C 975 1802 1011 1795 1045 1781 C 1079 1767 1108 1747 1133 1723 C 1157 1698 1177 1669 1191 1635 C 1205 1601 1212 1565 1212 1526 C 1212 1476 1201 1431 1179 1392 C 1157 1353 1128 1322 1092 1298 L 1354 0 L 1049 0 Z M 863 1058 L 618 592 L 944 592 L 863 1058 Z M 1057 1526 C 1057 1543 1053 1559 1047 1574 C 1041 1589 1032 1602 1022 1613 C 1011 1624 998 1633 983 1639 C 968 1645 952 1649 936 1649 C 918 1649 902 1645 888 1639 C 873 1633 860 1624 850 1613 C 839 1602 830 1589 824 1574 C 818 1559 815 1543 815 1526 C 815 1508 818 1492 824 1477 C 830 1462 839 1449 850 1438 C 860 1427 873 1418 888 1412 C 902 1406 918 1403 936 1403 C 952 1403 968 1406 983 1412 C 998 1418 1011 1427 1022 1438 C 1032 1449 1041 1462 1047 1477 C 1053 1492 1057 1508 1057 1526 Z" unicode="Å" />
<glyph horiz-adv-x="2118" d="M 1262 274 L 1952 274 L 1903 0 L 938 0 L 983 256 L 485 256 L 281 0 L -66 0 L 1126 1434 L 2124 1434 L 2077 1159 L 1417 1159 L 1372 901 L 1939 901 L 1890 631 L 1323 631 L 1262 274 Z M 688 508 L 1028 508 L 1126 1050 L 688 508 Z" unicode="Æ" />
<glyph horiz-adv-x="1364" d="M 1085 985 C 1070 1013 1054 1038 1037 1061 C 1020 1084 1001 1104 980 1121 C 958 1137 934 1150 906 1160 C 878 1169 845 1174 809 1174 C 751 1174 698 1158 650 1127 C 602 1095 562 1053 528 1001 C 494 949 467 889 448 821 C 429 753 420 682 420 608 C 420 550 427 499 441 456 C 455 412 474 376 499 348 C 524 319 554 297 589 283 C 623 269 661 262 702 262 C 758 262 809 277 854 308 C 899 338 943 383 987 442 L 1217 276 C 1179 224 1139 180 1099 143 C 1059 105 1016 74 972 50 C 928 25 881 7 831 -5 C 781 -17 728 -23 672 -23 C 603 -23 536 -12 470 9 C 404 31 345 65 293 112 C 241 159 200 220 168 295 C 136 369 121 460 121 567 C 121 673 132 770 156 858 C 180 946 207 1018 239 1074 C 271 1130 304 1179 340 1221 C 376 1263 420 1302 472 1339 C 524 1375 581 1404 645 1425 C 709 1445 774 1456 840 1456 C 910 1456 973 1448 1027 1434 C 1081 1420 1129 1399 1171 1371 C 1213 1343 1249 1308 1280 1268 C 1311 1227 1339 1180 1364 1128 L 1085 985 Z M 866 -201 C 866 -231 860 -258 849 -282 C 837 -306 821 -326 800 -343 C 779 -359 754 -372 725 -381 C 695 -390 662 -395 626 -395 C 570 -395 517 -386 467 -369 C 417 -351 372 -328 334 -299 L 391 -225 C 417 -243 448 -259 482 -273 C 516 -286 550 -293 585 -293 C 615 -293 639 -287 659 -275 C 678 -263 688 -245 688 -223 C 688 -203 682 -190 671 -182 C 659 -174 643 -170 622 -170 C 614 -170 605 -171 595 -174 C 585 -176 577 -180 569 -184 L 499 -156 L 596 76 L 710 76 L 647 -86 C 658 -82 670 -79 682 -76 C 694 -73 708 -72 725 -72 C 766 -72 800 -83 826 -107 C 852 -130 866 -161 866 -201 Z" unicode="Ç" />
<glyph horiz-adv-x="1323" d="M 90 0 L 342 1434 L 1329 1434 L 1280 1153 L 580 1153 L 537 905 L 1104 905 L 1055 627 L 487 627 L 426 281 L 1157 281 L 1108 0 L 90 0 Z M 750 1526 L 510 1853 L 868 1853 L 989 1526 L 750 1526 Z" unicode="È" />
<glyph horiz-adv-x="1323" d="M 90 0 L 342 1434 L 1329 1434 L 1280 1153 L 580 1153 L 537 905 L 1104 905 L 1055 627 L 487 627 L 426 281 L 1157 281 L 1108 0 L 90 0 Z M 928 1526 L 688 1526 L 924 1853 L 1282 1853 L 928 1526 Z" unicode="É" />
<glyph horiz-adv-x="1323" d="M 90 0 L 342 1434 L 1329 1434 L 1280 1153 L 580 1153 L 537 905 L 1104 905 L 1055 627 L 487 627 L 426 281 L 1157 281 L 1108 0 L 90 0 Z M 1051 1526 L 873 1679 L 641 1526 L 447 1526 L 754 1853 L 1041 1853 L 1233 1526 L 1051 1526 Z" unicode="Ê" />
<glyph horiz-adv-x="1323" d="M 90 0 L 342 1434 L 1329 1434 L 1280 1153 L 580 1153 L 537 905 L 1104 905 L 1055 627 L 487 627 L 426 281 L 1157 281 L 1108 0 L 90 0 Z M 1245 1683 C 1245 1661 1240 1641 1232 1623 C 1224 1604 1212 1587 1198 1573 C 1183 1558 1166 1546 1147 1538 C 1128 1530 1108 1526 1088 1526 C 1066 1526 1045 1530 1025 1538 C 1005 1546 988 1558 974 1573 C 959 1587 947 1604 939 1623 C 930 1641 926 1661 926 1683 C 926 1705 930 1725 939 1745 C 947 1764 959 1781 974 1796 C 988 1810 1005 1822 1025 1830 C 1045 1838 1066 1843 1088 1843 C 1108 1843 1128 1838 1147 1830 C 1166 1822 1183 1810 1198 1796 C 1212 1781 1224 1764 1232 1745 C 1240 1725 1245 1705 1245 1683 Z M 803 1683 C 803 1661 798 1641 790 1623 C 781 1604 769 1587 755 1573 C 740 1558 723 1546 704 1538 C 684 1530 664 1526 643 1526 C 621 1526 601 1530 582 1538 C 562 1546 545 1558 531 1573 C 516 1587 504 1604 496 1623 C 487 1641 483 1661 483 1683 C 483 1705 487 1725 496 1745 C 504 1764 516 1781 531 1796 C 545 1810 562 1822 582 1830 C 601 1838 621 1843 643 1843 C 664 1843 684 1838 704 1830 C 723 1822 740 1810 755 1796 C 769 1781 781 1764 790 1745 C 798 1725 803 1705 803 1683 Z" unicode="Ë" />
<glyph horiz-adv-x="696" d="M 395 0 L 109 0 L 362 1434 L 649 1434 L 395 0 Z M 401 1526 L 161 1853 L 519 1853 L 640 1526 L 401 1526 Z" unicode="Ì" />
<glyph horiz-adv-x="696" d="M 395 0 L 109 0 L 362 1434 L 649 1434 L 395 0 Z M 636 1526 L 396 1526 L 632 1853 L 990 1853 L 636 1526 Z" unicode="Í" />
<glyph horiz-adv-x="696" d="M 395 0 L 109 0 L 362 1434 L 649 1434 L 395 0 Z M 722 1506 L 544 1659 L 312 1506 L 118 1506 L 425 1833 L 712 1833 L 904 1506 L 722 1506 Z" unicode="Î" />
<glyph horiz-adv-x="696" d="M 395 0 L 109 0 L 362 1434 L 649 1434 L 395 0 Z M 916 1673 C 916 1651 911 1631 903 1613 C 895 1594 883 1577 869 1563 C 854 1548 837 1536 818 1528 C 799 1520 779 1516 759 1516 C 737 1516 716 1520 696 1528 C 676 1536 659 1548 645 1563 C 630 1577 618 1594 610 1613 C 601 1631 597 1651 597 1673 C 597 1695 601 1715 610 1735 C 618 1754 630 1771 645 1786 C 659 1800 676 1812 696 1820 C 716 1828 737 1833 759 1833 C 779 1833 799 1828 818 1820 C 837 1812 854 1800 869 1786 C 883 1771 895 1754 903 1735 C 911 1715 916 1695 916 1673 Z M 474 1673 C 474 1651 469 1631 461 1613 C 452 1594 440 1577 426 1563 C 411 1548 394 1536 375 1528 C 355 1520 335 1516 314 1516 C 292 1516 272 1520 253 1528 C 233 1536 216 1548 202 1563 C 187 1577 175 1594 167 1613 C 158 1631 154 1651 154 1673 C 154 1695 158 1715 167 1735 C 175 1754 187 1771 202 1786 C 216 1800 233 1812 253 1820 C 272 1828 292 1833 314 1833 C 335 1833 355 1828 375 1820 C 394 1812 411 1800 426 1786 C 440 1771 452 1754 461 1735 C 469 1715 474 1695 474 1673 Z" unicode="Ï" />
<glyph horiz-adv-x="1470" d="M 1418 859 C 1417 799 1410 730 1396 652 C 1382 574 1360 503 1330 438 C 1300 372 1264 315 1223 265 C 1182 215 1131 171 1071 131 C 1011 91 941 59 863 35 C 785 11 700 0 610 0 L 119 0 L 231 631 L 98 631 L 139 866 L 272 866 L 373 1434 L 700 1434 C 838 1434 956 1418 1054 1386 C 1152 1354 1227 1310 1281 1253 C 1334 1195 1370 1134 1389 1069 C 1408 1003 1418 933 1418 859 Z M 1117 814 C 1117 855 1112 895 1102 933 C 1092 971 1072 1008 1043 1042 C 1014 1076 971 1103 913 1124 C 855 1144 782 1155 694 1155 L 602 1155 L 551 866 L 735 866 L 694 631 L 508 631 L 446 279 L 633 279 C 692 279 748 287 800 305 C 852 322 898 347 939 381 C 979 415 1011 450 1033 487 C 1055 524 1071 558 1081 589 C 1091 620 1100 656 1107 698 C 1113 740 1117 778 1117 814 Z" unicode="Ð" />
<glyph horiz-adv-x="1522" d="M 1243 0 L 987 0 L 541 958 L 373 0 L 90 0 L 342 1434 L 616 1434 L 1050 513 L 1212 1434 L 1495 1434 L 1243 0 Z M 1391 1814 C 1383 1768 1370 1727 1353 1691 C 1335 1654 1314 1623 1290 1598 C 1266 1572 1238 1553 1208 1539 C 1177 1525 1144 1519 1110 1519 C 1074 1519 1041 1524 1012 1536 C 983 1547 956 1559 932 1573 C 908 1586 886 1598 865 1608 C 844 1618 823 1624 803 1624 C 785 1624 770 1616 758 1602 C 745 1587 733 1562 721 1526 L 537 1526 C 544 1571 556 1612 573 1648 C 590 1684 611 1715 635 1741 C 659 1766 686 1785 717 1799 C 747 1813 780 1820 815 1820 C 850 1820 882 1814 910 1804 C 938 1794 963 1782 987 1769 C 1012 1755 1035 1743 1057 1732 C 1079 1721 1100 1716 1122 1716 C 1141 1716 1156 1723 1168 1738 C 1180 1753 1192 1778 1206 1814 L 1391 1814 Z" unicode="Ñ" />
<glyph horiz-adv-x="1464" d="M 1409 866 C 1409 785 1401 707 1385 632 C 1369 557 1347 487 1317 421 C 1287 355 1251 294 1209 240 C 1166 186 1118 139 1065 100 C 1011 61 953 31 890 9 C 826 -12 759 -23 688 -23 C 600 -23 521 -9 451 17 C 381 44 321 83 272 134 C 223 184 186 246 160 319 C 134 392 121 475 121 567 C 121 647 128 725 144 801 C 160 876 182 946 212 1012 C 242 1078 278 1138 321 1193 C 363 1247 411 1294 465 1333 C 518 1372 576 1402 640 1424 C 703 1445 770 1456 842 1456 C 930 1456 1009 1442 1079 1415 C 1149 1388 1208 1349 1257 1299 C 1306 1248 1344 1186 1370 1113 C 1396 1040 1409 958 1409 866 Z M 1110 825 C 1110 884 1102 935 1087 979 C 1072 1023 1052 1059 1026 1087 C 1000 1115 969 1136 934 1150 C 899 1164 861 1171 821 1171 C 765 1171 713 1157 665 1130 C 616 1103 573 1065 537 1016 C 501 966 472 907 451 838 C 430 769 420 692 420 608 C 420 548 427 497 442 454 C 457 410 478 374 504 346 C 530 317 560 296 595 282 C 630 268 668 262 709 262 C 764 262 816 275 865 302 C 913 329 956 367 992 417 C 1028 466 1057 525 1078 594 C 1099 663 1110 740 1110 825 Z M 803 1526 L 563 1853 L 921 1853 L 1042 1526 L 803 1526 Z" unicode="Ò" />
<glyph horiz-adv-x="1464" d="M 1409 866 C 1409 785 1401 707 1385 632 C 1369 557 1347 487 1317 421 C 1287 355 1251 294 1209 240 C 1166 186 1118 139 1065 100 C 1011 61 953 31 890 9 C 826 -12 759 -23 688 -23 C 600 -23 521 -9 451 17 C 381 44 321 83 272 134 C 223 184 186 246 160 319 C 134 392 121 475 121 567 C 121 647 128 725 144 801 C 160 876 182 946 212 1012 C 242 1078 278 1138 321 1193 C 363 1247 411 1294 465 1333 C 518 1372 576 1402 640 1424 C 703 1445 770 1456 842 1456 C 930 1456 1009 1442 1079 1415 C 1149 1388 1208 1349 1257 1299 C 1306 1248 1344 1186 1370 1113 C 1396 1040 1409 958 1409 866 Z M 1110 825 C 1110 884 1102 935 1087 979 C 1072 1023 1052 1059 1026 1087 C 1000 1115 969 1136 934 1150 C 899 1164 861 1171 821 1171 C 765 1171 713 1157 665 1130 C 616 1103 573 1065 537 1016 C 501 966 472 907 451 838 C 430 769 420 692 420 608 C 420 548 427 497 442 454 C 457 410 478 374 504 346 C 530 317 560 296 595 282 C 630 268 668 262 709 262 C 764 262 816 275 865 302 C 913 329 956 367 992 417 C 1028 466 1057 525 1078 594 C 1099 663 1110 740 1110 825 Z M 967 1526 L 727 1526 L 963 1853 L 1321 1853 L 967 1526 Z" unicode="Ó" />
<glyph horiz-adv-x="1464" d="M 1409 866 C 1409 785 1401 707 1385 632 C 1369 557 1347 487 1317 421 C 1287 355 1251 294 1209 240 C 1166 186 1118 139 1065 100 C 1011 61 953 31 890 9 C 826 -12 759 -23 688 -23 C 600 -23 521 -9 451 17 C 381 44 321 83 272 134 C 223 184 186 246 160 319 C 134 392 121 475 121 567 C 121 647 128 725 144 801 C 160 876 182 946 212 1012 C 242 1078 278 1138 321 1193 C 363 1247 411 1294 465 1333 C 518 1372 576 1402 640 1424 C 703 1445 770 1456 842 1456 C 930 1456 1009 1442 1079 1415 C 1149 1388 1208 1349 1257 1299 C 1306 1248 1344 1186 1370 1113 C 1396 1040 1409 958 1409 866 Z M 1110 825 C 1110 884 1102 935 1087 979 C 1072 1023 1052 1059 1026 1087 C 1000 1115 969 1136 934 1150 C 899 1164 861 1171 821 1171 C 765 1171 713 1157 665 1130 C 616 1103 573 1065 537 1016 C 501 966 472 907 451 838 C 430 769 420 692 420 608 C 420 548 427 497 442 454 C 457 410 478 374 504 346 C 530 317 560 296 595 282 C 630 268 668 262 709 262 C 764 262 816 275 865 302 C 913 329 956 367 992 417 C 1028 466 1057 525 1078 594 C 1099 663 1110 740 1110 825 Z M 1104 1516 L 926 1669 L 694 1516 L 500 1516 L 807 1843 L 1094 1843 L 1286 1516 L 1104 1516 Z" unicode="Ô" />
<glyph horiz-adv-x="1464" d="M 1409 866 C 1409 785 1401 707 1385 632 C 1369 557 1347 487 1317 421 C 1287 355 1251 294 1209 240 C 1166 186 1118 139 1065 100 C 1011 61 953 31 890 9 C 826 -12 759 -23 688 -23 C 600 -23 521 -9 451 17 C 381 44 321 83 272 134 C 223 184 186 246 160 319 C 134 392 121 475 121 567 C 121 647 128 725 144 801 C 160 876 182 946 212 1012 C 242 1078 278 1138 321 1193 C 363 1247 411 1294 465 1333 C 518 1372 576 1402 640 1424 C 703 1445 770 1456 842 1456 C 930 1456 1009 1442 1079 1415 C 1149 1388 1208 1349 1257 1299 C 1306 1248 1344 1186 1370 1113 C 1396 1040 1409 958 1409 866 Z M 1110 825 C 1110 884 1102 935 1087 979 C 1072 1023 1052 1059 1026 1087 C 1000 1115 969 1136 934 1150 C 899 1164 861 1171 821 1171 C 765 1171 713 1157 665 1130 C 616 1103 573 1065 537 1016 C 501 966 472 907 451 838 C 430 769 420 692 420 608 C 420 548 427 497 442 454 C 457 410 478 374 504 346 C 530 317 560 296 595 282 C 630 268 668 262 709 262 C 764 262 816 275 865 302 C 913 329 956 367 992 417 C 1028 466 1057 525 1078 594 C 1099 663 1110 740 1110 825 Z M 1352 1814 C 1344 1768 1331 1727 1314 1691 C 1296 1654 1275 1623 1251 1598 C 1227 1572 1199 1553 1169 1539 C 1138 1525 1105 1519 1071 1519 C 1035 1519 1002 1524 973 1536 C 944 1547 917 1559 893 1573 C 869 1586 847 1598 826 1608 C 805 1618 784 1624 764 1624 C 746 1624 731 1616 719 1602 C 706 1587 694 1562 682 1526 L 498 1526 C 505 1571 517 1612 534 1648 C 551 1684 572 1715 596 1741 C 620 1766 647 1785 678 1799 C 708 1813 741 1820 776 1820 C 811 1820 843 1814 871 1804 C 899 1794 924 1782 948 1769 C 973 1755 996 1743 1018 1732 C 1040 1721 1061 1716 1083 1716 C 1102 1716 1117 1723 1129 1738 C 1141 1753 1153 1778 1167 1814 L 1352 1814 Z" unicode="Õ" />
<glyph horiz-adv-x="1464" d="M 1409 866 C 1409 785 1401 707 1385 632 C 1369 557 1347 487 1317 421 C 1287 355 1251 294 1209 240 C 1166 186 1118 139 1065 100 C 1011 61 953 31 890 9 C 826 -12 759 -23 688 -23 C 600 -23 521 -9 451 17 C 381 44 321 83 272 134 C 223 184 186 246 160 319 C 134 392 121 475 121 567 C 121 647 128 725 144 801 C 160 876 182 946 212 1012 C 242 1078 278 1138 321 1193 C 363 1247 411 1294 465 1333 C 518 1372 576 1402 640 1424 C 703 1445 770 1456 842 1456 C 930 1456 1009 1442 1079 1415 C 1149 1388 1208 1349 1257 1299 C 1306 1248 1344 1186 1370 1113 C 1396 1040 1409 958 1409 866 Z M 1110 825 C 1110 884 1102 935 1087 979 C 1072 1023 1052 1059 1026 1087 C 1000 1115 969 1136 934 1150 C 899 1164 861 1171 821 1171 C 765 1171 713 1157 665 1130 C 616 1103 573 1065 537 1016 C 501 966 472 907 451 838 C 430 769 420 692 420 608 C 420 548 427 497 442 454 C 457 410 478 374 504 346 C 530 317 560 296 595 282 C 630 268 668 262 709 262 C 764 262 816 275 865 302 C 913 329 956 367 992 417 C 1028 466 1057 525 1078 594 C 1099 663 1110 740 1110 825 Z M 1298 1683 C 1298 1661 1293 1641 1285 1623 C 1277 1604 1265 1587 1251 1573 C 1236 1558 1219 1546 1200 1538 C 1181 1530 1161 1526 1141 1526 C 1119 1526 1098 1530 1078 1538 C 1058 1546 1041 1558 1027 1573 C 1012 1587 1000 1604 992 1623 C 983 1641 979 1661 979 1683 C 979 1705 983 1725 992 1745 C 1000 1764 1012 1781 1027 1796 C 1041 1810 1058 1822 1078 1830 C 1098 1838 1119 1843 1141 1843 C 1161 1843 1181 1838 1200 1830 C 1219 1822 1236 1810 1251 1796 C 1265 1781 1277 1764 1285 1745 C 1293 1725 1298 1705 1298 1683 Z M 856 1683 C 856 1661 851 1641 843 1623 C 834 1604 822 1587 808 1573 C 793 1558 776 1546 757 1538 C 737 1530 717 1526 696 1526 C 674 1526 654 1530 635 1538 C 615 1546 598 1558 584 1573 C 569 1587 557 1604 549 1623 C 540 1641 536 1661 536 1683 C 536 1705 540 1725 549 1745 C 557 1764 569 1781 584 1796 C 598 1810 615 1822 635 1830 C 654 1838 674 1843 696 1843 C 717 1843 737 1838 757 1830 C 776 1822 793 1810 808 1796 C 822 1781 834 1764 843 1745 C 851 1725 856 1705 856 1683 Z" unicode="Ö" />
<glyph horiz-adv-x="1270" d="M 997 184 L 655 532 L 313 184 L 135 362 L 483 705 L 135 1047 L 313 1225 L 655 877 L 997 1225 L 1175 1047 L 827 705 L 1175 362 L 997 184 Z" unicode="×" />
<glyph horiz-adv-x="1464" d="M 252 156 C 210 207 177 267 155 336 C 132 404 121 481 121 567 C 121 647 128 725 144 801 C 160 876 182 946 212 1012 C 242 1078 278 1138 321 1193 C 363 1247 411 1294 465 1333 C 518 1372 576 1402 640 1424 C 703 1445 770 1456 842 1456 C 935 1456 1017 1441 1087 1413 L 1169 1536 L 1440 1536 L 1272 1284 C 1316 1234 1349 1173 1373 1103 C 1397 1032 1409 953 1409 866 C 1409 785 1401 707 1385 632 C 1369 557 1347 487 1317 421 C 1287 355 1251 294 1209 240 C 1166 186 1118 139 1065 100 C 1011 61 953 31 890 9 C 826 -12 759 -23 688 -23 C 597 -23 512 -7 434 25 L 350 -102 L 80 -102 L 252 156 Z M 924 1165 C 892 1177 857 1184 821 1184 C 765 1184 713 1169 664 1141 C 615 1113 572 1073 535 1022 C 498 971 469 910 448 840 C 426 770 416 692 416 608 C 416 548 424 492 442 442 L 924 1165 Z M 598 270 C 631 256 668 250 709 250 C 764 250 816 264 865 292 C 914 320 957 360 994 411 C 1031 461 1060 522 1082 592 C 1103 662 1114 740 1114 825 C 1114 894 1103 953 1083 1001 L 598 270 Z" unicode="Ø" />
<glyph horiz-adv-x="1501" d="M 1337 594 C 1319 492 1293 403 1261 327 C 1228 250 1186 186 1135 134 C 1083 82 1022 42 950 16 C 878 -9 794 -23 698 -23 C 622 -23 552 -13 489 6 C 425 26 371 56 325 96 C 279 136 244 188 218 250 C 192 312 180 385 180 471 C 180 494 181 523 183 557 C 185 591 190 626 197 662 L 332 1434 L 618 1434 L 487 692 C 483 667 479 638 476 606 C 472 574 471 540 471 506 C 471 422 493 360 537 319 C 581 278 646 258 733 258 C 774 258 812 264 847 277 C 881 289 912 309 939 337 C 966 364 989 399 1008 442 C 1027 485 1042 537 1053 598 L 1198 1434 L 1485 1434 L 1337 594 Z M 834 1495 L 594 1822 L 952 1822 L 1073 1495 L 834 1495 Z" unicode="Ù" />
<glyph horiz-adv-x="1501" d="M 1337 594 C 1319 492 1293 403 1261 327 C 1228 250 1186 186 1135 134 C 1083 82 1022 42 950 16 C 878 -9 794 -23 698 -23 C 622 -23 552 -13 489 6 C 425 26 371 56 325 96 C 279 136 244 188 218 250 C 192 312 180 385 180 471 C 180 494 181 523 183 557 C 185 591 190 626 197 662 L 332 1434 L 618 1434 L 487 692 C 483 667 479 638 476 606 C 472 574 471 540 471 506 C 471 422 493 360 537 319 C 581 278 646 258 733 258 C 774 258 812 264 847 277 C 881 289 912 309 939 337 C 966 364 989 399 1008 442 C 1027 485 1042 537 1053 598 L 1198 1434 L 1485 1434 L 1337 594 Z M 997 1495 L 757 1495 L 993 1822 L 1351 1822 L 997 1495 Z" unicode="Ú" />
<glyph horiz-adv-x="1501" d="M 1337 594 C 1319 492 1293 403 1261 327 C 1228 250 1186 186 1135 134 C 1083 82 1022 42 950 16 C 878 -9 794 -23 698 -23 C 622 -23 552 -13 489 6 C 425 26 371 56 325 96 C 279 136 244 188 218 250 C 192 312 180 385 180 471 C 180 494 181 523 183 557 C 185 591 190 626 197 662 L 332 1434 L 618 1434 L 487 692 C 483 667 479 638 476 606 C 472 574 471 540 471 506 C 471 422 493 360 537 319 C 581 278 646 258 733 258 C 774 258 812 264 847 277 C 881 289 912 309 939 337 C 966 364 989 399 1008 442 C 1027 485 1042 537 1053 598 L 1198 1434 L 1485 1434 L 1337 594 Z M 1114 1526 L 936 1679 L 704 1526 L 510 1526 L 817 1853 L 1104 1853 L 1296 1526 L 1114 1526 Z" unicode="Û" />
<glyph horiz-adv-x="1501" d="M 1337 594 C 1319 492 1293 403 1261 327 C 1228 250 1186 186 1135 134 C 1083 82 1022 42 950 16 C 878 -9 794 -23 698 -23 C 622 -23 552 -13 489 6 C 425 26 371 56 325 96 C 279 136 244 188 218 250 C 192 312 180 385 180 471 C 180 494 181 523 183 557 C 185 591 190 626 197 662 L 332 1434 L 618 1434 L 487 692 C 483 667 479 638 476 606 C 472 574 471 540 471 506 C 471 422 493 360 537 319 C 581 278 646 258 733 258 C 774 258 812 264 847 277 C 881 289 912 309 939 337 C 966 364 989 399 1008 442 C 1027 485 1042 537 1053 598 L 1198 1434 L 1485 1434 L 1337 594 Z M 1327 1683 C 1327 1661 1322 1641 1314 1623 C 1306 1604 1294 1587 1280 1573 C 1265 1558 1248 1546 1229 1538 C 1210 1530 1190 1526 1170 1526 C 1148 1526 1127 1530 1107 1538 C 1087 1546 1070 1558 1056 1573 C 1041 1587 1029 1604 1021 1623 C 1012 1641 1008 1661 1008 1683 C 1008 1705 1012 1725 1021 1745 C 1029 1764 1041 1781 1056 1796 C 1070 1810 1087 1822 1107 1830 C 1127 1838 1148 1843 1170 1843 C 1190 1843 1210 1838 1229 1830 C 1248 1822 1265 1810 1280 1796 C 1294 1781 1306 1764 1314 1745 C 1322 1725 1327 1705 1327 1683 Z M 885 1683 C 885 1661 880 1641 872 1623 C 863 1604 851 1587 837 1573 C 822 1558 805 1546 786 1538 C 766 1530 746 1526 725 1526 C 703 1526 683 1530 664 1538 C 644 1546 627 1558 613 1573 C 598 1587 586 1604 578 1623 C 569 1641 565 1661 565 1683 C 565 1705 569 1725 578 1745 C 586 1764 598 1781 613 1796 C 627 1810 644 1822 664 1830 C 683 1838 703 1843 725 1843 C 746 1843 766 1838 786 1830 C 805 1822 822 1810 837 1796 C 851 1781 863 1764 872 1745 C 880 1725 885 1705 885 1683 Z" unicode="Ü" />
<glyph horiz-adv-x="1454" d="M 877 567 L 776 0 L 489 0 L 588 561 L 203 1434 L 514 1434 L 765 828 L 1235 1434 L 1567 1434 L 877 567 Z M 973 1506 L 733 1506 L 969 1833 L 1327 1833 L 973 1506 Z" unicode="Ý" />
<glyph horiz-adv-x="1384" d="M 1346 823 C 1346 739 1333 663 1307 597 C 1281 531 1244 475 1194 429 C 1144 383 1083 347 1010 323 C 937 299 854 287 760 287 L 428 287 L 377 0 L 90 0 L 344 1434 L 631 1434 L 592 1212 L 856 1212 C 935 1212 1005 1203 1066 1185 C 1127 1167 1178 1142 1220 1109 C 1261 1075 1292 1034 1314 986 C 1335 938 1346 883 1346 823 Z M 1044 778 C 1044 800 1040 821 1033 840 C 1026 859 1015 876 999 890 C 983 904 962 914 936 922 C 910 930 878 934 840 934 L 543 934 L 477 565 L 811 565 C 883 565 939 584 981 622 C 1023 660 1044 712 1044 778 Z" unicode="Þ" />
<glyph horiz-adv-x="1192" d="M 1106 1149 C 1106 1098 1099 1054 1085 1016 C 1071 978 1053 945 1031 918 C 1008 890 982 868 952 850 C 922 832 890 819 858 809 C 896 795 931 780 961 762 C 991 744 1017 723 1038 697 C 1059 671 1075 639 1087 603 C 1098 567 1104 523 1104 473 C 1104 397 1091 329 1067 271 C 1042 212 1008 163 964 123 C 920 83 867 52 807 32 C 747 12 681 2 610 2 C 562 2 519 4 481 10 L 526 262 C 546 260 566 258 586 258 C 658 258 714 278 754 318 C 794 358 815 417 815 496 C 815 558 797 605 763 636 C 728 666 678 682 612 682 L 600 682 L 643 928 L 653 928 C 674 928 694 931 713 938 C 732 945 749 956 763 970 C 777 984 788 1002 796 1024 C 804 1046 809 1071 809 1100 C 809 1140 796 1170 772 1191 C 747 1212 713 1223 670 1223 C 620 1223 583 1207 559 1177 C 535 1147 518 1105 510 1053 L 281 -254 L -27 -395 L 229 1067 C 256 1214 308 1321 384 1387 C 460 1453 562 1487 688 1487 C 756 1487 817 1478 869 1462 C 921 1446 965 1423 1000 1393 C 1035 1363 1061 1328 1079 1286 C 1097 1244 1106 1199 1106 1149 Z" unicode="ß" />
<glyph horiz-adv-x="1130" d="M 1038 778 C 1038 764 1037 749 1036 735 C 1035 720 1033 704 1030 688 L 909 0 L 627 0 L 641 72 C 613 46 580 23 542 5 C 504 -13 460 -23 410 -23 C 362 -23 316 -16 272 -3 C 228 9 190 29 157 56 C 123 83 97 118 77 160 C 57 202 47 253 47 311 C 47 371 57 426 78 476 C 99 526 129 568 168 604 C 206 640 253 667 308 687 C 362 707 424 717 492 717 C 540 717 589 712 638 703 C 686 694 722 684 745 674 L 752 717 C 753 725 754 732 754 737 C 754 741 754 746 754 752 C 754 789 739 817 711 836 C 682 854 634 864 567 864 C 521 864 477 858 435 848 C 393 837 356 824 324 809 L 250 1010 C 298 1036 353 1058 416 1074 C 478 1090 541 1098 604 1098 C 667 1098 725 1092 779 1080 C 832 1068 878 1049 916 1023 C 954 997 984 963 1006 923 C 1027 883 1038 834 1038 778 Z M 707 451 C 684 463 656 473 623 482 C 589 491 550 496 504 496 C 476 496 451 492 430 484 C 409 476 392 465 378 451 C 364 437 353 420 346 402 C 339 383 336 363 336 342 C 336 302 348 271 374 249 C 400 227 439 217 492 217 C 514 217 534 220 554 226 C 573 232 591 239 607 249 C 623 258 638 268 651 280 C 663 292 674 303 682 315 L 707 451 Z M 601 1219 L 361 1546 L 719 1546 L 840 1219 L 601 1219 Z" unicode="à" />
<glyph horiz-adv-x="1130" d="M 1038 778 C 1038 764 1037 749 1036 735 C 1035 720 1033 704 1030 688 L 909 0 L 627 0 L 641 72 C 613 46 580 23 542 5 C 504 -13 460 -23 410 -23 C 362 -23 316 -16 272 -3 C 228 9 190 29 157 56 C 123 83 97 118 77 160 C 57 202 47 253 47 311 C 47 371 57 426 78 476 C 99 526 129 568 168 604 C 206 640 253 667 308 687 C 362 707 424 717 492 717 C 540 717 589 712 638 703 C 686 694 722 684 745 674 L 752 717 C 753 725 754 732 754 737 C 754 741 754 746 754 752 C 754 789 739 817 711 836 C 682 854 634 864 567 864 C 521 864 477 858 435 848 C 393 837 356 824 324 809 L 250 1010 C 298 1036 353 1058 416 1074 C 478 1090 541 1098 604 1098 C 667 1098 725 1092 779 1080 C 832 1068 878 1049 916 1023 C 954 997 984 963 1006 923 C 1027 883 1038 834 1038 778 Z M 707 451 C 684 463 656 473 623 482 C 589 491 550 496 504 496 C 476 496 451 492 430 484 C 409 476 392 465 378 451 C 364 437 353 420 346 402 C 339 383 336 363 336 342 C 336 302 348 271 374 249 C 400 227 439 217 492 217 C 514 217 534 220 554 226 C 573 232 591 239 607 249 C 623 258 638 268 651 280 C 663 292 674 303 682 315 L 707 451 Z M 764 1219 L 524 1219 L 760 1546 L 1118 1546 L 764 1219 Z" unicode="á" />
<glyph horiz-adv-x="1130" d="M 1038 778 C 1038 764 1037 749 1036 735 C 1035 720 1033 704 1030 688 L 909 0 L 627 0 L 641 72 C 613 46 580 23 542 5 C 504 -13 460 -23 410 -23 C 362 -23 316 -16 272 -3 C 228 9 190 29 157 56 C 123 83 97 118 77 160 C 57 202 47 253 47 311 C 47 371 57 426 78 476 C 99 526 129 568 168 604 C 206 640 253 667 308 687 C 362 707 424 717 492 717 C 540 717 589 712 638 703 C 686 694 722 684 745 674 L 752 717 C 753 725 754 732 754 737 C 754 741 754 746 754 752 C 754 789 739 817 711 836 C 682 854 634 864 567 864 C 521 864 477 858 435 848 C 393 837 356 824 324 809 L 250 1010 C 298 1036 353 1058 416 1074 C 478 1090 541 1098 604 1098 C 667 1098 725 1092 779 1080 C 832 1068 878 1049 916 1023 C 954 997 984 963 1006 923 C 1027 883 1038 834 1038 778 Z M 707 451 C 684 463 656 473 623 482 C 589 491 550 496 504 496 C 476 496 451 492 430 484 C 409 476 392 465 378 451 C 364 437 353 420 346 402 C 339 383 336 363 336 342 C 336 302 348 271 374 249 C 400 227 439 217 492 217 C 514 217 534 220 554 226 C 573 232 591 239 607 249 C 623 258 638 268 651 280 C 663 292 674 303 682 315 L 707 451 Z M 891 1210 L 713 1363 L 481 1210 L 287 1210 L 594 1537 L 881 1537 L 1073 1210 L 891 1210 Z" unicode="â" />
<glyph horiz-adv-x="1130" d="M 1038 778 C 1038 764 1037 749 1036 735 C 1035 720 1033 704 1030 688 L 909 0 L 627 0 L 641 72 C 613 46 580 23 542 5 C 504 -13 460 -23 410 -23 C 362 -23 316 -16 272 -3 C 228 9 190 29 157 56 C 123 83 97 118 77 160 C 57 202 47 253 47 311 C 47 371 57 426 78 476 C 99 526 129 568 168 604 C 206 640 253 667 308 687 C 362 707 424 717 492 717 C 540 717 589 712 638 703 C 686 694 722 684 745 674 L 752 717 C 753 725 754 732 754 737 C 754 741 754 746 754 752 C 754 789 739 817 711 836 C 682 854 634 864 567 864 C 521 864 477 858 435 848 C 393 837 356 824 324 809 L 250 1010 C 298 1036 353 1058 416 1074 C 478 1090 541 1098 604 1098 C 667 1098 725 1092 779 1080 C 832 1068 878 1049 916 1023 C 954 997 984 963 1006 923 C 1027 883 1038 834 1038 778 Z M 707 451 C 684 463 656 473 623 482 C 589 491 550 496 504 496 C 476 496 451 492 430 484 C 409 476 392 465 378 451 C 364 437 353 420 346 402 C 339 383 336 363 336 342 C 336 302 348 271 374 249 C 400 227 439 217 492 217 C 514 217 534 220 554 226 C 573 232 591 239 607 249 C 623 258 638 268 651 280 C 663 292 674 303 682 315 L 707 451 Z M 1139 1507 C 1131 1461 1118 1420 1101 1384 C 1083 1347 1062 1316 1038 1291 C 1014 1265 986 1246 956 1232 C 925 1218 892 1212 858 1212 C 822 1212 789 1217 760 1229 C 731 1240 704 1252 680 1266 C 656 1279 634 1291 613 1301 C 592 1311 571 1317 551 1317 C 533 1317 518 1309 506 1295 C 493 1280 481 1255 469 1219 L 285 1219 C 292 1264 304 1305 321 1341 C 338 1377 359 1408 383 1434 C 407 1459 434 1478 465 1492 C 495 1506 528 1513 563 1513 C 598 1513 630 1507 658 1497 C 686 1487 711 1475 735 1462 C 760 1448 783 1436 805 1425 C 827 1414 848 1409 870 1409 C 889 1409 904 1416 916 1431 C 928 1446 940 1471 954 1507 L 1139 1507 Z" unicode="ã" />
<glyph horiz-adv-x="1130" d="M 1038 778 C 1038 764 1037 749 1036 735 C 1035 720 1033 704 1030 688 L 909 0 L 627 0 L 641 72 C 613 46 580 23 542 5 C 504 -13 460 -23 410 -23 C 362 -23 316 -16 272 -3 C 228 9 190 29 157 56 C 123 83 97 118 77 160 C 57 202 47 253 47 311 C 47 371 57 426 78 476 C 99 526 129 568 168 604 C 206 640 253 667 308 687 C 362 707 424 717 492 717 C 540 717 589 712 638 703 C 686 694 722 684 745 674 L 752 717 C 753 725 754 732 754 737 C 754 741 754 746 754 752 C 754 789 739 817 711 836 C 682 854 634 864 567 864 C 521 864 477 858 435 848 C 393 837 356 824 324 809 L 250 1010 C 298 1036 353 1058 416 1074 C 478 1090 541 1098 604 1098 C 667 1098 725 1092 779 1080 C 832 1068 878 1049 916 1023 C 954 997 984 963 1006 923 C 1027 883 1038 834 1038 778 Z M 707 451 C 684 463 656 473 623 482 C 589 491 550 496 504 496 C 476 496 451 492 430 484 C 409 476 392 465 378 451 C 364 437 353 420 346 402 C 339 383 336 363 336 342 C 336 302 348 271 374 249 C 400 227 439 217 492 217 C 514 217 534 220 554 226 C 573 232 591 239 607 249 C 623 258 638 268 651 280 C 663 292 674 303 682 315 L 707 451 Z M 1085 1367 C 1085 1345 1080 1325 1072 1307 C 1064 1288 1052 1271 1038 1257 C 1023 1242 1006 1230 987 1222 C 968 1214 948 1210 928 1210 C 906 1210 885 1214 865 1222 C 845 1230 828 1242 814 1257 C 799 1271 787 1288 779 1307 C 770 1325 766 1345 766 1367 C 766 1389 770 1409 779 1429 C 787 1448 799 1465 814 1480 C 828 1494 845 1506 865 1514 C 885 1522 906 1527 928 1527 C 948 1527 968 1522 987 1514 C 1006 1506 1023 1494 1038 1480 C 1052 1465 1064 1448 1072 1429 C 1080 1409 1085 1389 1085 1367 Z M 643 1367 C 643 1345 638 1325 630 1307 C 621 1288 609 1271 595 1257 C 580 1242 563 1230 544 1222 C 524 1214 504 1210 483 1210 C 461 1210 441 1214 422 1222 C 402 1230 385 1242 371 1257 C 356 1271 344 1288 336 1307 C 327 1325 323 1345 323 1367 C 323 1389 327 1409 336 1429 C 344 1448 356 1465 371 1480 C 385 1494 402 1506 422 1514 C 441 1522 461 1527 483 1527 C 504 1527 524 1522 544 1514 C 563 1506 580 1494 595 1480 C 609 1465 621 1448 630 1429 C 638 1409 643 1389 643 1367 Z" unicode="ä" />
<glyph horiz-adv-x="1130" d="M 1038 778 C 1038 764 1037 749 1036 735 C 1035 720 1033 704 1030 688 L 909 0 L 627 0 L 641 72 C 613 46 580 23 542 5 C 504 -13 460 -23 410 -23 C 362 -23 316 -16 272 -3 C 228 9 190 29 157 56 C 123 83 97 118 77 160 C 57 202 47 253 47 311 C 47 371 57 426 78 476 C 99 526 129 568 168 604 C 206 640 253 667 308 687 C 362 707 424 717 492 717 C 540 717 589 712 638 703 C 686 694 722 684 745 674 L 752 717 C 753 725 754 732 754 737 C 754 741 754 746 754 752 C 754 789 739 817 711 836 C 682 854 634 864 567 864 C 521 864 477 858 435 848 C 393 837 356 824 324 809 L 250 1010 C 298 1036 353 1058 416 1074 C 478 1090 541 1098 604 1098 C 667 1098 725 1092 779 1080 C 832 1068 878 1049 916 1023 C 954 997 984 963 1006 923 C 1027 883 1038 834 1038 778 Z M 707 451 C 684 463 656 473 623 482 C 589 491 550 496 504 496 C 476 496 451 492 430 484 C 409 476 392 465 378 451 C 364 437 353 420 346 402 C 339 383 336 363 336 342 C 336 302 348 271 374 249 C 400 227 439 217 492 217 C 514 217 534 220 554 226 C 573 232 591 239 607 249 C 623 258 638 268 651 280 C 663 292 674 303 682 315 L 707 451 Z M 1011 1491 C 1011 1451 1004 1415 990 1382 C 976 1348 956 1320 932 1296 C 907 1272 878 1253 844 1239 C 810 1225 774 1219 735 1219 C 695 1219 659 1225 625 1239 C 591 1253 561 1272 537 1296 C 512 1320 493 1348 479 1382 C 465 1415 458 1451 458 1491 C 458 1530 465 1566 479 1600 C 493 1634 512 1663 537 1688 C 561 1712 591 1732 625 1746 C 659 1760 695 1767 735 1767 C 774 1767 810 1760 844 1746 C 878 1732 907 1712 932 1688 C 956 1663 976 1634 990 1600 C 1004 1566 1011 1530 1011 1491 Z M 856 1491 C 856 1508 852 1524 846 1539 C 840 1554 831 1567 820 1578 C 809 1589 796 1598 782 1604 C 767 1610 751 1614 735 1614 C 717 1614 701 1610 687 1604 C 672 1598 659 1589 649 1578 C 638 1567 629 1554 623 1539 C 617 1524 614 1508 614 1491 C 614 1473 617 1457 623 1442 C 629 1427 638 1414 649 1403 C 659 1392 672 1383 687 1377 C 701 1371 717 1368 735 1368 C 751 1368 767 1371 782 1377 C 796 1383 809 1392 820 1403 C 831 1414 840 1427 846 1442 C 852 1457 856 1473 856 1491 Z" unicode="å" />
<glyph horiz-adv-x="1718" d="M 1642 662 C 1642 626 1639 591 1633 556 C 1627 520 1620 484 1610 446 L 971 446 C 967 409 970 378 982 352 C 993 326 1009 306 1029 290 C 1049 274 1073 262 1099 255 C 1125 247 1152 244 1178 244 C 1212 244 1247 249 1283 261 C 1319 272 1355 290 1391 315 L 1528 119 C 1463 68 1399 32 1337 10 C 1275 -12 1213 -23 1151 -23 C 1071 -23 1000 -9 938 17 C 876 44 824 85 782 141 C 728 89 670 48 610 20 C 549 -8 486 -23 422 -23 C 367 -23 317 -16 271 -3 C 225 9 185 29 152 56 C 119 83 93 118 75 160 C 56 202 47 253 47 311 C 47 371 57 426 78 476 C 99 526 129 568 168 604 C 206 640 253 667 308 687 C 362 707 424 717 492 717 C 535 717 581 713 629 705 C 677 697 717 687 750 674 L 758 727 C 759 731 760 734 760 738 C 760 741 760 745 760 750 C 760 782 745 809 717 831 C 689 853 643 864 580 864 C 536 864 494 859 453 851 C 411 843 369 829 326 811 L 252 1012 C 316 1042 377 1064 433 1077 C 489 1090 549 1097 614 1098 C 692 1098 759 1088 814 1068 C 868 1048 914 1017 950 973 C 988 1012 1032 1043 1083 1065 C 1134 1087 1190 1098 1251 1098 C 1319 1098 1377 1086 1426 1063 C 1475 1040 1516 1009 1548 969 C 1580 929 1603 883 1619 831 C 1634 778 1642 722 1642 662 Z M 1376 659 C 1378 685 1377 709 1372 733 C 1367 756 1358 776 1344 794 C 1330 812 1313 826 1291 836 C 1269 846 1242 852 1210 852 C 1184 852 1161 847 1140 837 C 1119 827 1100 813 1084 796 C 1068 778 1054 758 1042 735 C 1030 711 1020 686 1012 659 L 1376 659 Z M 682 315 C 683 321 684 329 686 338 C 688 347 691 363 695 385 L 707 451 C 684 463 656 473 623 482 C 589 491 550 496 504 496 C 476 496 451 492 430 484 C 409 476 392 465 378 451 C 364 437 353 420 346 402 C 339 383 336 363 336 342 C 336 302 348 272 373 250 C 398 228 438 217 492 217 C 530 217 566 226 601 245 C 635 264 662 287 682 315 Z" unicode="æ" />
<glyph horiz-adv-x="1092" d="M 854 653 C 815 714 778 758 743 785 C 708 811 667 825 621 825 C 581 825 546 815 514 795 C 482 775 454 750 432 718 C 409 686 391 649 379 607 C 366 565 360 523 360 479 C 360 405 378 348 414 309 C 450 269 498 250 557 250 C 596 250 636 260 677 280 C 717 300 761 331 807 373 L 967 186 C 905 122 837 72 764 34 C 690 -4 610 -23 522 -23 C 458 -23 399 -12 344 10 C 289 32 241 63 201 105 C 161 146 129 196 106 256 C 83 315 72 382 72 457 C 72 541 85 622 113 700 C 140 777 179 845 230 904 C 280 963 341 1010 413 1045 C 484 1080 563 1098 651 1098 C 707 1098 756 1091 800 1078 C 844 1064 883 1046 918 1022 C 952 998 983 970 1009 938 C 1035 905 1058 869 1079 831 L 854 653 Z M 719 -201 C 719 -231 713 -258 702 -282 C 690 -306 674 -326 653 -343 C 632 -359 607 -372 578 -381 C 548 -390 515 -395 479 -395 C 423 -395 370 -386 320 -369 C 270 -351 225 -328 187 -299 L 244 -225 C 270 -243 301 -259 335 -273 C 369 -286 403 -293 438 -293 C 468 -293 492 -287 512 -275 C 531 -263 541 -245 541 -223 C 541 -203 535 -190 524 -182 C 512 -174 496 -170 475 -170 C 467 -170 458 -171 448 -174 C 438 -176 430 -180 422 -184 L 352 -156 L 449 76 L 563 76 L 500 -86 C 511 -82 523 -79 535 -76 C 547 -73 561 -72 578 -72 C 619 -72 653 -83 679 -107 C 705 -130 719 -161 719 -201 Z" unicode="ç" />
<glyph horiz-adv-x="1094" d="M 1018 662 C 1018 626 1015 591 1009 555 C 1003 519 995 483 985 446 L 350 446 C 346 409 349 378 361 352 C 372 326 388 306 408 290 C 428 274 450 262 476 255 C 501 247 526 244 551 244 C 587 244 622 249 658 261 C 694 272 730 290 766 315 L 903 119 C 838 68 774 32 712 10 C 650 -12 586 -23 520 -23 C 450 -23 388 -12 332 9 C 276 30 229 61 190 101 C 151 141 121 190 100 248 C 78 306 68 371 68 444 C 68 536 82 621 111 701 C 140 781 180 850 230 909 C 280 967 340 1013 408 1047 C 476 1081 549 1098 627 1098 C 694 1098 752 1086 802 1063 C 851 1040 892 1009 924 969 C 956 929 979 883 995 831 C 1010 778 1018 722 1018 662 Z M 752 659 C 754 685 753 709 748 733 C 743 756 734 776 720 794 C 706 812 689 826 667 836 C 645 846 618 852 586 852 C 560 852 536 847 516 837 C 495 827 476 813 460 796 C 444 778 429 758 417 735 C 405 711 395 686 387 659 L 752 659 Z M 591 1219 L 351 1546 L 709 1546 L 830 1219 L 591 1219 Z" unicode="è" />
<glyph horiz-adv-x="1094" d="M 1018 662 C 1018 626 1015 591 1009 555 C 1003 519 995 483 985 446 L 350 446 C 346 409 349 378 361 352 C 372 326 388 306 408 290 C 428 274 450 262 476 255 C 501 247 526 244 551 244 C 587 244 622 249 658 261 C 694 272 730 290 766 315 L 903 119 C 838 68 774 32 712 10 C 650 -12 586 -23 520 -23 C 450 -23 388 -12 332 9 C 276 30 229 61 190 101 C 151 141 121 190 100 248 C 78 306 68 371 68 444 C 68 536 82 621 111 701 C 140 781 180 850 230 909 C 280 967 340 1013 408 1047 C 476 1081 549 1098 627 1098 C 694 1098 752 1086 802 1063 C 851 1040 892 1009 924 969 C 956 929 979 883 995 831 C 1010 778 1018 722 1018 662 Z M 752 659 C 754 685 753 709 748 733 C 743 756 734 776 720 794 C 706 812 689 826 667 836 C 645 846 618 852 586 852 C 560 852 536 847 516 837 C 495 827 476 813 460 796 C 444 778 429 758 417 735 C 405 711 395 686 387 659 L 752 659 Z M 754 1219 L 514 1219 L 750 1546 L 1108 1546 L 754 1219 Z" unicode="é" />
<glyph horiz-adv-x="1094" d="M 1018 662 C 1018 626 1015 591 1009 555 C 1003 519 995 483 985 446 L 350 446 C 346 409 349 378 361 352 C 372 326 388 306 408 290 C 428 274 450 262 476 255 C 501 247 526 244 551 244 C 587 244 622 249 658 261 C 694 272 730 290 766 315 L 903 119 C 838 68 774 32 712 10 C 650 -12 586 -23 520 -23 C 450 -23 388 -12 332 9 C 276 30 229 61 190 101 C 151 141 121 190 100 248 C 78 306 68 371 68 444 C 68 536 82 621 111 701 C 140 781 180 850 230 909 C 280 967 340 1013 408 1047 C 476 1081 549 1098 627 1098 C 694 1098 752 1086 802 1063 C 851 1040 892 1009 924 969 C 956 929 979 883 995 831 C 1010 778 1018 722 1018 662 Z M 752 659 C 754 685 753 709 748 733 C 743 756 734 776 720 794 C 706 812 689 826 667 836 C 645 846 618 852 586 852 C 560 852 536 847 516 837 C 495 827 476 813 460 796 C 444 778 429 758 417 735 C 405 711 395 686 387 659 L 752 659 Z M 881 1200 L 703 1353 L 471 1200 L 277 1200 L 584 1527 L 871 1527 L 1063 1200 L 881 1200 Z" unicode="ê" />
<glyph horiz-adv-x="1094" d="M 1018 662 C 1018 626 1015 591 1009 555 C 1003 519 995 483 985 446 L 350 446 C 346 409 349 378 361 352 C 372 326 388 306 408 290 C 428 274 450 262 476 255 C 501 247 526 244 551 244 C 587 244 622 249 658 261 C 694 272 730 290 766 315 L 903 119 C 838 68 774 32 712 10 C 650 -12 586 -23 520 -23 C 450 -23 388 -12 332 9 C 276 30 229 61 190 101 C 151 141 121 190 100 248 C 78 306 68 371 68 444 C 68 536 82 621 111 701 C 140 781 180 850 230 909 C 280 967 340 1013 408 1047 C 476 1081 549 1098 627 1098 C 694 1098 752 1086 802 1063 C 851 1040 892 1009 924 969 C 956 929 979 883 995 831 C 1010 778 1018 722 1018 662 Z M 752 659 C 754 685 753 709 748 733 C 743 756 734 776 720 794 C 706 812 689 826 667 836 C 645 846 618 852 586 852 C 560 852 536 847 516 837 C 495 827 476 813 460 796 C 444 778 429 758 417 735 C 405 711 395 686 387 659 L 752 659 Z M 1075 1367 C 1075 1345 1070 1325 1062 1307 C 1054 1288 1042 1271 1028 1257 C 1013 1242 996 1230 977 1222 C 958 1214 938 1210 918 1210 C 896 1210 875 1214 855 1222 C 835 1230 818 1242 804 1257 C 789 1271 777 1288 769 1307 C 760 1325 756 1345 756 1367 C 756 1389 760 1409 769 1429 C 777 1448 789 1465 804 1480 C 818 1494 835 1506 855 1514 C 875 1522 896 1527 918 1527 C 938 1527 958 1522 977 1514 C 996 1506 1013 1494 1028 1480 C 1042 1465 1054 1448 1062 1429 C 1070 1409 1075 1389 1075 1367 Z M 633 1367 C 633 1345 628 1325 620 1307 C 611 1288 599 1271 585 1257 C 570 1242 553 1230 534 1222 C 514 1214 494 1210 473 1210 C 451 1210 431 1214 412 1222 C 392 1230 375 1242 361 1257 C 346 1271 334 1288 326 1307 C 317 1325 313 1345 313 1367 C 313 1389 317 1409 326 1429 C 334 1448 346 1465 361 1480 C 375 1494 392 1506 412 1514 C 431 1522 451 1527 473 1527 C 494 1527 514 1522 534 1514 C 553 1506 570 1494 585 1480 C 599 1465 611 1448 620 1429 C 628 1409 633 1389 633 1367 Z" unicode="ë" />
<glyph horiz-adv-x="578" d="M 336 0 L 53 0 L 242 1075 L 524 1075 L 336 0 Z M 305 1219 L 65 1546 L 423 1546 L 544 1219 L 305 1219 Z" unicode="ì" />
<glyph horiz-adv-x="578" d="M 336 0 L 53 0 L 242 1075 L 524 1075 L 336 0 Z M 515 1219 L 275 1219 L 511 1546 L 869 1546 L 515 1219 Z" unicode="í" />
<glyph horiz-adv-x="578" d="M 336 0 L 53 0 L 242 1075 L 524 1075 L 336 0 Z M 601 1189 L 423 1342 L 191 1189 L -3 1189 L 304 1516 L 591 1516 L 783 1189 L 601 1189 Z" unicode="î" />
<glyph horiz-adv-x="578" d="M 336 0 L 53 0 L 242 1075 L 524 1075 L 336 0 Z M 795 1357 C 795 1335 790 1315 782 1297 C 774 1278 762 1261 748 1247 C 733 1232 716 1220 697 1212 C 678 1204 658 1200 638 1200 C 616 1200 595 1204 575 1212 C 555 1220 538 1232 524 1247 C 509 1261 497 1278 489 1297 C 480 1315 476 1335 476 1357 C 476 1379 480 1399 489 1419 C 497 1438 509 1455 524 1470 C 538 1484 555 1496 575 1504 C 595 1512 616 1517 638 1517 C 658 1517 678 1512 697 1504 C 716 1496 733 1484 748 1470 C 762 1455 774 1438 782 1419 C 790 1399 795 1379 795 1357 Z M 353 1357 C 353 1335 348 1315 340 1297 C 331 1278 319 1261 305 1247 C 290 1232 273 1220 254 1212 C 234 1204 214 1200 193 1200 C 171 1200 151 1204 132 1212 C 112 1220 95 1232 81 1247 C 66 1261 54 1278 46 1297 C 37 1315 33 1335 33 1357 C 33 1379 37 1399 46 1419 C 54 1438 66 1455 81 1470 C 95 1484 112 1496 132 1504 C 151 1512 171 1517 193 1517 C 214 1517 234 1512 254 1504 C 273 1496 290 1484 305 1470 C 319 1455 331 1438 340 1419 C 348 1399 353 1379 353 1357 Z" unicode="ï" />
<glyph horiz-adv-x="1128" d="M 1075 774 C 1075 677 1067 590 1051 513 C 1035 436 1014 368 987 309 C 960 250 928 200 891 158 C 854 116 814 81 772 54 C 730 27 685 7 639 -4 C 593 -16 547 -23 502 -23 C 432 -23 370 -12 316 9 C 262 31 216 61 178 99 C 140 137 112 183 92 235 C 72 287 63 344 63 406 C 63 493 78 572 109 642 C 139 712 179 772 228 822 C 276 871 331 909 391 935 C 451 961 511 975 571 975 C 620 975 669 968 717 955 C 765 942 805 923 838 897 C 836 933 827 970 812 1009 C 796 1048 773 1085 741 1120 L 635 1030 L 524 1147 L 610 1219 C 562 1243 507 1260 444 1270 L 479 1464 C 599 1452 702 1420 788 1368 L 895 1456 L 1006 1339 L 915 1264 C 967 1205 1006 1134 1034 1052 C 1061 970 1075 877 1075 774 Z M 766 537 C 766 563 762 588 755 612 C 747 635 736 655 721 672 C 706 689 687 702 665 712 C 642 722 615 727 584 727 C 546 727 513 719 483 703 C 453 687 428 665 407 637 C 386 609 370 576 359 538 C 347 500 342 458 342 414 C 342 354 357 308 389 276 C 420 243 466 227 526 227 C 563 227 596 235 626 253 C 656 270 681 293 702 322 C 722 350 738 383 749 421 C 760 458 766 497 766 537 Z" unicode="ð" />
<glyph horiz-adv-x="1188" d="M 1087 764 C 1087 741 1085 716 1083 688 C 1080 660 1077 632 1073 606 L 967 0 L 684 0 L 786 582 C 789 600 791 616 793 632 C 794 648 795 662 795 676 C 795 726 783 764 759 791 C 735 817 697 831 645 831 C 617 831 591 826 568 818 C 544 809 524 795 506 776 C 488 756 472 731 459 701 C 446 670 436 632 428 588 L 326 0 L 43 0 L 231 1075 L 514 1075 L 502 1004 C 529 1029 562 1051 602 1070 C 642 1088 689 1098 745 1098 C 861 1098 947 1069 1003 1011 C 1059 953 1087 871 1087 764 Z M 1153 1507 C 1145 1461 1132 1420 1115 1384 C 1097 1347 1076 1316 1052 1291 C 1028 1265 1000 1246 970 1232 C 939 1218 906 1212 872 1212 C 836 1212 803 1217 774 1229 C 745 1240 718 1252 694 1266 C 670 1279 648 1291 627 1301 C 606 1311 585 1317 565 1317 C 547 1317 532 1309 520 1295 C 507 1280 495 1255 483 1219 L 299 1219 C 306 1264 318 1305 335 1341 C 352 1377 373 1408 397 1434 C 421 1459 448 1478 479 1492 C 509 1506 542 1513 577 1513 C 612 1513 644 1507 672 1497 C 700 1487 725 1475 749 1462 C 774 1448 797 1436 819 1425 C 841 1414 862 1409 884 1409 C 903 1409 918 1416 930 1431 C 942 1446 954 1471 968 1507 L 1153 1507 Z" unicode="ñ" />
<glyph horiz-adv-x="1128" d="M 72 440 C 72 528 85 611 113 691 C 141 771 179 841 229 901 C 278 961 337 1009 406 1045 C 475 1080 551 1098 635 1098 C 697 1098 755 1087 807 1065 C 859 1043 903 1013 940 973 C 977 933 1006 884 1026 827 C 1046 770 1057 706 1057 635 C 1057 563 1047 492 1028 422 C 1008 352 975 282 928 212 C 881 142 819 85 743 42 C 666 -1 583 -23 494 -23 C 430 -23 373 -12 321 9 C 269 31 225 62 188 102 C 151 142 122 190 102 247 C 82 304 72 368 72 440 Z M 362 459 C 362 425 366 396 374 370 C 382 344 394 322 408 304 C 422 286 439 273 459 264 C 479 254 500 250 524 250 C 556 250 586 258 615 274 C 644 290 670 314 692 346 C 714 377 732 415 746 461 C 759 506 766 558 766 616 C 766 649 761 679 753 705 C 745 731 733 752 719 770 C 705 788 688 801 668 811 C 648 820 626 825 604 825 C 572 825 541 816 512 800 C 483 784 457 760 435 729 C 413 697 395 659 382 614 C 368 568 362 517 362 459 Z M 579 1219 L 339 1546 L 697 1546 L 818 1219 L 579 1219 Z" unicode="ò" />
<glyph horiz-adv-x="1128" d="M 72 440 C 72 528 85 611 113 691 C 141 771 179 841 229 901 C 278 961 337 1009 406 1045 C 475 1080 551 1098 635 1098 C 697 1098 755 1087 807 1065 C 859 1043 903 1013 940 973 C 977 933 1006 884 1026 827 C 1046 770 1057 706 1057 635 C 1057 563 1047 492 1028 422 C 1008 352 975 282 928 212 C 881 142 819 85 743 42 C 666 -1 583 -23 494 -23 C 430 -23 373 -12 321 9 C 269 31 225 62 188 102 C 151 142 122 190 102 247 C 82 304 72 368 72 440 Z M 362 459 C 362 425 366 396 374 370 C 382 344 394 322 408 304 C 422 286 439 273 459 264 C 479 254 500 250 524 250 C 556 250 586 258 615 274 C 644 290 670 314 692 346 C 714 377 732 415 746 461 C 759 506 766 558 766 616 C 766 649 761 679 753 705 C 745 731 733 752 719 770 C 705 788 688 801 668 811 C 648 820 626 825 604 825 C 572 825 541 816 512 800 C 483 784 457 760 435 729 C 413 697 395 659 382 614 C 368 568 362 517 362 459 Z M 762 1219 L 522 1219 L 758 1546 L 1116 1546 L 762 1219 Z" unicode="ó" />
<glyph horiz-adv-x="1128" d="M 72 440 C 72 528 85 611 113 691 C 141 771 179 841 229 901 C 278 961 337 1009 406 1045 C 475 1080 551 1098 635 1098 C 697 1098 755 1087 807 1065 C 859 1043 903 1013 940 973 C 977 933 1006 884 1026 827 C 1046 770 1057 706 1057 635 C 1057 563 1047 492 1028 422 C 1008 352 975 282 928 212 C 881 142 819 85 743 42 C 666 -1 583 -23 494 -23 C 430 -23 373 -12 321 9 C 269 31 225 62 188 102 C 151 142 122 190 102 247 C 82 304 72 368 72 440 Z M 362 459 C 362 425 366 396 374 370 C 382 344 394 322 408 304 C 422 286 439 273 459 264 C 479 254 500 250 524 250 C 556 250 586 258 615 274 C 644 290 670 314 692 346 C 714 377 732 415 746 461 C 759 506 766 558 766 616 C 766 649 761 679 753 705 C 745 731 733 752 719 770 C 705 788 688 801 668 811 C 648 820 626 825 604 825 C 572 825 541 816 512 800 C 483 784 457 760 435 729 C 413 697 395 659 382 614 C 368 568 362 517 362 459 Z M 889 1200 L 711 1353 L 479 1200 L 285 1200 L 592 1527 L 879 1527 L 1071 1200 L 889 1200 Z" unicode="ô" />
<glyph horiz-adv-x="1128" d="M 72 440 C 72 528 85 611 113 691 C 141 771 179 841 229 901 C 278 961 337 1009 406 1045 C 475 1080 551 1098 635 1098 C 697 1098 755 1087 807 1065 C 859 1043 903 1013 940 973 C 977 933 1006 884 1026 827 C 1046 770 1057 706 1057 635 C 1057 563 1047 492 1028 422 C 1008 352 975 282 928 212 C 881 142 819 85 743 42 C 666 -1 583 -23 494 -23 C 430 -23 373 -12 321 9 C 269 31 225 62 188 102 C 151 142 122 190 102 247 C 82 304 72 368 72 440 Z M 362 459 C 362 425 366 396 374 370 C 382 344 394 322 408 304 C 422 286 439 273 459 264 C 479 254 500 250 524 250 C 556 250 586 258 615 274 C 644 290 670 314 692 346 C 714 377 732 415 746 461 C 759 506 766 558 766 616 C 766 649 761 679 753 705 C 745 731 733 752 719 770 C 705 788 688 801 668 811 C 648 820 626 825 604 825 C 572 825 541 816 512 800 C 483 784 457 760 435 729 C 413 697 395 659 382 614 C 368 568 362 517 362 459 Z M 1129 1507 C 1121 1461 1108 1420 1091 1384 C 1073 1347 1052 1316 1028 1291 C 1004 1265 976 1246 946 1232 C 915 1218 882 1212 848 1212 C 812 1212 779 1217 750 1229 C 721 1240 694 1252 670 1266 C 646 1279 624 1291 603 1301 C 582 1311 561 1317 541 1317 C 523 1317 508 1309 496 1295 C 483 1280 471 1255 459 1219 L 275 1219 C 282 1264 294 1305 311 1341 C 328 1377 349 1408 373 1434 C 397 1459 424 1478 455 1492 C 485 1506 518 1513 553 1513 C 588 1513 620 1507 648 1497 C 676 1487 701 1475 725 1462 C 750 1448 773 1436 795 1425 C 817 1414 838 1409 860 1409 C 879 1409 894 1416 906 1431 C 918 1446 930 1471 944 1507 L 1129 1507 Z" unicode="õ" />
<glyph horiz-adv-x="1128" d="M 72 440 C 72 528 85 611 113 691 C 141 771 179 841 229 901 C 278 961 337 1009 406 1045 C 475 1080 551 1098 635 1098 C 697 1098 755 1087 807 1065 C 859 1043 903 1013 940 973 C 977 933 1006 884 1026 827 C 1046 770 1057 706 1057 635 C 1057 563 1047 492 1028 422 C 1008 352 975 282 928 212 C 881 142 819 85 743 42 C 666 -1 583 -23 494 -23 C 430 -23 373 -12 321 9 C 269 31 225 62 188 102 C 151 142 122 190 102 247 C 82 304 72 368 72 440 Z M 362 459 C 362 425 366 396 374 370 C 382 344 394 322 408 304 C 422 286 439 273 459 264 C 479 254 500 250 524 250 C 556 250 586 258 615 274 C 644 290 670 314 692 346 C 714 377 732 415 746 461 C 759 506 766 558 766 616 C 766 649 761 679 753 705 C 745 731 733 752 719 770 C 705 788 688 801 668 811 C 648 820 626 825 604 825 C 572 825 541 816 512 800 C 483 784 457 760 435 729 C 413 697 395 659 382 614 C 368 568 362 517 362 459 Z M 1083 1357 C 1083 1335 1078 1315 1070 1297 C 1062 1278 1050 1261 1036 1247 C 1021 1232 1004 1220 985 1212 C 966 1204 946 1200 926 1200 C 904 1200 883 1204 863 1212 C 843 1220 826 1232 812 1247 C 797 1261 785 1278 777 1297 C 768 1315 764 1335 764 1357 C 764 1379 768 1399 777 1419 C 785 1438 797 1455 812 1470 C 826 1484 843 1496 863 1504 C 883 1512 904 1517 926 1517 C 946 1517 966 1512 985 1504 C 1004 1496 1021 1484 1036 1470 C 1050 1455 1062 1438 1070 1419 C 1078 1399 1083 1379 1083 1357 Z M 641 1357 C 641 1335 636 1315 628 1297 C 619 1278 607 1261 593 1247 C 578 1232 561 1220 542 1212 C 522 1204 502 1200 481 1200 C 459 1200 439 1204 420 1212 C 400 1220 383 1232 369 1247 C 354 1261 342 1278 334 1297 C 325 1315 321 1335 321 1357 C 321 1379 325 1399 334 1419 C 342 1438 354 1455 369 1470 C 383 1484 400 1496 420 1504 C 439 1512 459 1517 481 1517 C 502 1517 522 1512 542 1504 C 561 1496 578 1484 593 1470 C 607 1455 619 1438 628 1419 C 636 1399 641 1379 641 1357 Z" unicode="ö" />
<glyph horiz-adv-x="1270" d="M 827 1143 C 827 1119 822 1097 813 1077 C 803 1056 791 1038 775 1023 C 759 1007 741 995 720 986 C 699 977 677 973 655 973 C 631 973 608 977 587 986 C 566 995 548 1007 533 1023 C 517 1038 505 1056 496 1077 C 487 1097 483 1119 483 1143 C 483 1166 487 1188 496 1210 C 505 1231 517 1250 533 1266 C 549 1282 567 1294 588 1304 C 609 1314 631 1319 655 1319 C 677 1319 699 1314 720 1304 C 741 1294 759 1282 775 1266 C 791 1250 803 1231 813 1210 C 822 1188 827 1166 827 1143 Z M 139 580 L 139 829 L 1169 829 L 1169 580 L 139 580 Z M 827 262 C 827 238 822 215 813 194 C 803 173 791 155 775 140 C 759 124 741 112 720 103 C 699 94 677 90 655 90 C 631 90 608 94 587 103 C 566 112 548 124 533 140 C 517 155 505 173 496 194 C 487 215 483 238 483 262 C 483 285 487 307 496 328 C 505 349 517 368 533 384 C 549 400 567 412 588 422 C 609 431 631 436 655 436 C 677 436 699 431 720 422 C 741 412 759 400 775 384 C 791 368 803 349 813 328 C 822 307 827 285 827 262 Z" unicode="÷" />
<glyph horiz-adv-x="1128" d="M 158 139 C 130 177 108 221 94 271 C 79 321 72 378 72 440 C 72 528 85 611 113 691 C 141 771 179 841 229 901 C 278 961 337 1009 406 1045 C 475 1080 551 1098 635 1098 C 667 1098 698 1095 727 1089 C 756 1083 784 1074 811 1063 L 891 1178 L 1143 1178 L 971 934 C 999 896 1020 851 1035 801 C 1049 751 1057 695 1057 635 C 1057 553 1044 472 1019 394 C 993 315 956 245 908 183 C 860 121 800 72 729 34 C 657 -4 579 -23 494 -23 C 462 -23 431 -20 402 -14 C 372 -8 345 0 319 10 L 240 -102 L -12 -102 L 158 139 Z M 664 836 C 654 839 645 841 635 843 C 625 845 614 846 604 846 C 570 846 537 837 506 820 C 474 802 446 777 422 744 C 398 711 378 671 364 623 C 349 575 342 520 342 459 C 342 435 344 411 348 389 L 664 836 Z M 465 240 C 483 232 503 229 524 229 C 558 229 590 237 622 255 C 653 272 681 297 705 330 C 729 363 749 404 764 452 C 778 500 786 554 786 616 C 786 641 784 664 780 684 L 465 240 Z" unicode="ø" />
<glyph horiz-adv-x="1188" d="M 100 311 C 100 333 101 359 104 387 C 106 415 110 442 115 469 L 221 1075 L 504 1075 L 401 494 C 397 475 395 458 394 442 C 393 426 393 412 393 399 C 393 348 405 309 429 283 C 453 257 491 244 543 244 C 571 244 596 248 620 257 C 643 265 664 279 682 299 C 700 318 715 343 728 374 C 741 404 752 442 760 487 L 862 1075 L 1145 1075 L 956 0 L 674 0 L 686 72 C 652 40 614 16 574 0 C 534 -15 490 -23 442 -23 C 326 -23 240 5 184 63 C 128 120 100 203 100 311 Z M 625 1219 L 385 1546 L 743 1546 L 864 1219 L 625 1219 Z" unicode="ù" />
<glyph horiz-adv-x="1188" d="M 100 311 C 100 333 101 359 104 387 C 106 415 110 442 115 469 L 221 1075 L 504 1075 L 401 494 C 397 475 395 458 394 442 C 393 426 393 412 393 399 C 393 348 405 309 429 283 C 453 257 491 244 543 244 C 571 244 596 248 620 257 C 643 265 664 279 682 299 C 700 318 715 343 728 374 C 741 404 752 442 760 487 L 862 1075 L 1145 1075 L 956 0 L 674 0 L 686 72 C 652 40 614 16 574 0 C 534 -15 490 -23 442 -23 C 326 -23 240 5 184 63 C 128 120 100 203 100 311 Z M 788 1219 L 548 1219 L 784 1546 L 1142 1546 L 788 1219 Z" unicode="ú" />
<glyph horiz-adv-x="1188" d="M 100 311 C 100 333 101 359 104 387 C 106 415 110 442 115 469 L 221 1075 L 504 1075 L 401 494 C 397 475 395 458 394 442 C 393 426 393 412 393 399 C 393 348 405 309 429 283 C 453 257 491 244 543 244 C 571 244 596 248 620 257 C 643 265 664 279 682 299 C 700 318 715 343 728 374 C 741 404 752 442 760 487 L 862 1075 L 1145 1075 L 956 0 L 674 0 L 686 72 C 652 40 614 16 574 0 C 534 -15 490 -23 442 -23 C 326 -23 240 5 184 63 C 128 120 100 203 100 311 Z M 916 1219 L 738 1372 L 506 1219 L 312 1219 L 619 1546 L 906 1546 L 1098 1219 L 916 1219 Z" unicode="û" />
<glyph horiz-adv-x="1188" d="M 100 311 C 100 333 101 359 104 387 C 106 415 110 442 115 469 L 221 1075 L 504 1075 L 401 494 C 397 475 395 458 394 442 C 393 426 393 412 393 399 C 393 348 405 309 429 283 C 453 257 491 244 543 244 C 571 244 596 248 620 257 C 643 265 664 279 682 299 C 700 318 715 343 728 374 C 741 404 752 442 760 487 L 862 1075 L 1145 1075 L 956 0 L 674 0 L 686 72 C 652 40 614 16 574 0 C 534 -15 490 -23 442 -23 C 326 -23 240 5 184 63 C 128 120 100 203 100 311 Z M 1110 1376 C 1110 1354 1105 1334 1097 1316 C 1089 1297 1077 1280 1063 1266 C 1048 1251 1031 1239 1012 1231 C 993 1223 973 1219 953 1219 C 931 1219 910 1223 890 1231 C 870 1239 853 1251 839 1266 C 824 1280 812 1297 804 1316 C 795 1334 791 1354 791 1376 C 791 1398 795 1418 804 1438 C 812 1457 824 1474 839 1489 C 853 1503 870 1515 890 1523 C 910 1531 931 1536 953 1536 C 973 1536 993 1531 1012 1523 C 1031 1515 1048 1503 1063 1489 C 1077 1474 1089 1457 1097 1438 C 1105 1418 1110 1398 1110 1376 Z M 668 1376 C 668 1354 663 1334 655 1316 C 646 1297 634 1280 620 1266 C 605 1251 588 1239 569 1231 C 549 1223 529 1219 508 1219 C 486 1219 466 1223 447 1231 C 427 1239 410 1251 396 1266 C 381 1280 369 1297 361 1316 C 352 1334 348 1354 348 1376 C 348 1398 352 1418 361 1438 C 369 1457 381 1474 396 1489 C 410 1503 427 1515 447 1523 C 466 1531 486 1536 508 1536 C 529 1536 549 1531 569 1523 C 588 1515 605 1503 620 1489 C 634 1474 646 1457 655 1438 C 663 1418 668 1398 668 1376 Z" unicode="ü" />
<glyph horiz-adv-x="1200" d="M 440 -379 L 158 -379 L 367 0 L 147 1075 L 455 1075 L 566 345 L 938 1075 L 1245 1075 L 440 -379 Z M 797 1200 L 557 1200 L 793 1527 L 1151 1527 L 797 1200 Z" unicode="ý" />
<glyph horiz-adv-x="1143" d="M 1069 686 C 1069 596 1059 511 1039 430 C 1019 349 988 274 946 204 C 904 134 851 79 785 38 C 719 -2 647 -23 569 -23 C 541 -23 517 -21 496 -17 C 474 -13 454 -7 436 0 C 417 8 399 17 383 28 C 366 39 349 52 332 66 L 279 -254 L -29 -395 L 279 1352 L 586 1493 L 502 1008 C 532 1034 564 1056 598 1073 C 632 1089 671 1098 715 1098 C 771 1098 822 1088 866 1069 C 910 1050 947 1023 977 988 C 1007 952 1029 909 1045 858 C 1061 807 1069 750 1069 686 Z M 778 639 C 778 703 765 751 739 783 C 713 815 677 831 629 831 C 610 831 593 828 577 823 C 561 818 545 811 531 803 C 517 795 503 785 491 775 C 478 764 466 753 455 741 L 383 336 C 396 320 409 307 422 295 C 435 283 449 274 463 266 C 477 258 492 253 508 249 C 524 245 543 244 563 244 C 596 244 626 254 653 275 C 679 296 702 325 720 361 C 738 397 753 438 763 486 C 773 534 778 585 778 639 Z" unicode="þ" />
<glyph horiz-adv-x="1200" d="M 440 -379 L 158 -379 L 367 0 L 147 1075 L 455 1075 L 566 345 L 938 1075 L 1245 1075 L 440 -379 Z M 1128 1357 C 1128 1335 1123 1315 1115 1297 C 1107 1278 1095 1261 1081 1247 C 1066 1232 1049 1220 1030 1212 C 1011 1204 991 1200 971 1200 C 949 1200 928 1204 908 1212 C 888 1220 871 1232 857 1247 C 842 1261 830 1278 822 1297 C 813 1315 809 1335 809 1357 C 809 1379 813 1399 822 1419 C 830 1438 842 1455 857 1470 C 871 1484 888 1496 908 1504 C 928 1512 949 1517 971 1517 C 991 1517 1011 1512 1030 1504 C 1049 1496 1066 1484 1081 1470 C 1095 1455 1107 1438 1115 1419 C 1123 1399 1128 1379 1128 1357 Z M 686 1357 C 686 1335 681 1315 673 1297 C 664 1278 652 1261 638 1247 C 623 1232 606 1220 587 1212 C 567 1204 547 1200 526 1200 C 504 1200 484 1204 465 1212 C 445 1220 428 1232 414 1247 C 399 1261 387 1278 379 1297 C 370 1315 366 1335 366 1357 C 366 1379 370 1399 379 1419 C 387 1438 399 1455 414 1470 C 428 1484 445 1496 465 1504 C 484 1512 504 1517 526 1517 C 547 1517 567 1512 587 1504 C 606 1496 623 1484 638 1470 C 652 1455 664 1438 673 1419 C 681 1399 686 1379 686 1357 Z" unicode="ÿ" />
<glyph horiz-adv-x="1528" d="M 1049 0 L 993 319 L 475 319 L 307 0 L -10 0 L 786 1434 L 1065 1434 L 1354 0 L 1049 0 Z M 863 1058 L 618 592 L 944 592 L 863 1058 Z M 1229 1556 L 635 1556 L 672 1771 L 1266 1771 L 1229 1556 Z" unicode="Ā" />
<glyph horiz-adv-x="1130" d="M 1038 778 C 1038 764 1037 749 1036 735 C 1035 720 1033 704 1030 688 L 909 0 L 627 0 L 641 72 C 613 46 580 23 542 5 C 504 -13 460 -23 410 -23 C 362 -23 316 -16 272 -3 C 228 9 190 29 157 56 C 123 83 97 118 77 160 C 57 202 47 253 47 311 C 47 371 57 426 78 476 C 99 526 129 568 168 604 C 206 640 253 667 308 687 C 362 707 424 717 492 717 C 540 717 589 712 638 703 C 686 694 722 684 745 674 L 752 717 C 753 725 754 732 754 737 C 754 741 754 746 754 752 C 754 789 739 817 711 836 C 682 854 634 864 567 864 C 521 864 477 858 435 848 C 393 837 356 824 324 809 L 250 1010 C 298 1036 353 1058 416 1074 C 478 1090 541 1098 604 1098 C 667 1098 725 1092 779 1080 C 832 1068 878 1049 916 1023 C 954 997 984 963 1006 923 C 1027 883 1038 834 1038 778 Z M 707 451 C 684 463 656 473 623 482 C 589 491 550 496 504 496 C 476 496 451 492 430 484 C 409 476 392 465 378 451 C 364 437 353 420 346 402 C 339 383 336 363 336 342 C 336 302 348 271 374 249 C 400 227 439 217 492 217 C 514 217 534 220 554 226 C 573 232 591 239 607 249 C 623 258 638 268 651 280 C 663 292 674 303 682 315 L 707 451 Z M 993 1249 L 399 1249 L 436 1464 L 1030 1464 L 993 1249 Z" unicode="ā" />
<glyph horiz-adv-x="1528" d="M 1049 0 L 993 319 L 475 319 L 307 0 L -10 0 L 786 1434 L 1065 1434 L 1354 0 L 1049 0 Z M 863 1058 L 618 592 L 944 592 L 863 1058 Z M 1343 1853 C 1317 1748 1270 1667 1200 1611 C 1130 1554 1039 1526 925 1526 C 872 1526 824 1533 780 1548 C 736 1562 699 1584 669 1612 C 638 1640 614 1674 598 1714 C 582 1754 575 1801 577 1853 L 749 1853 C 754 1807 773 1774 807 1752 C 840 1730 886 1720 944 1720 C 1004 1720 1052 1729 1088 1749 C 1124 1768 1153 1803 1177 1853 L 1343 1853 Z" unicode="Ă" />
<glyph horiz-adv-x="1130" d="M 1038 778 C 1038 764 1037 749 1036 735 C 1035 720 1033 704 1030 688 L 909 0 L 627 0 L 641 72 C 613 46 580 23 542 5 C 504 -13 460 -23 410 -23 C 362 -23 316 -16 272 -3 C 228 9 190 29 157 56 C 123 83 97 118 77 160 C 57 202 47 253 47 311 C 47 371 57 426 78 476 C 99 526 129 568 168 604 C 206 640 253 667 308 687 C 362 707 424 717 492 717 C 540 717 589 712 638 703 C 686 694 722 684 745 674 L 752 717 C 753 725 754 732 754 737 C 754 741 754 746 754 752 C 754 789 739 817 711 836 C 682 854 634 864 567 864 C 521 864 477 858 435 848 C 393 837 356 824 324 809 L 250 1010 C 298 1036 353 1058 416 1074 C 478 1090 541 1098 604 1098 C 667 1098 725 1092 779 1080 C 832 1068 878 1049 916 1023 C 954 997 984 963 1006 923 C 1027 883 1038 834 1038 778 Z M 707 451 C 684 463 656 473 623 482 C 589 491 550 496 504 496 C 476 496 451 492 430 484 C 409 476 392 465 378 451 C 364 437 353 420 346 402 C 339 383 336 363 336 342 C 336 302 348 271 374 249 C 400 227 439 217 492 217 C 514 217 534 220 554 226 C 573 232 591 239 607 249 C 623 258 638 268 651 280 C 663 292 674 303 682 315 L 707 451 Z M 1126 1546 C 1100 1441 1053 1360 983 1304 C 913 1247 822 1219 708 1219 C 655 1219 607 1226 563 1241 C 519 1255 482 1277 452 1305 C 421 1333 397 1367 381 1407 C 365 1447 358 1494 360 1546 L 532 1546 C 537 1500 556 1467 590 1445 C 623 1423 669 1413 727 1413 C 787 1413 835 1422 871 1442 C 907 1461 936 1496 960 1546 L 1126 1546 Z" unicode="ă" />
<glyph horiz-adv-x="1528" d="M 1049 0 L 993 319 L 475 319 L 307 0 L -10 0 L 786 1434 L 1065 1434 L 1354 0 L 1049 0 Z M 863 1058 L 618 592 L 944 592 L 863 1058 Z M 1270 0 C 1251 -7 1231 -16 1210 -28 C 1188 -40 1169 -53 1151 -68 C 1133 -83 1118 -100 1106 -119 C 1094 -137 1089 -157 1089 -179 C 1089 -192 1092 -202 1100 -210 C 1108 -217 1117 -221 1128 -221 C 1141 -221 1153 -217 1165 -209 C 1177 -201 1186 -193 1194 -184 L 1286 -264 C 1262 -306 1230 -341 1191 -369 C 1151 -396 1104 -410 1049 -410 C 994 -410 949 -395 913 -365 C 877 -335 860 -297 860 -252 C 860 -222 865 -194 876 -168 C 887 -142 901 -119 919 -98 C 937 -76 957 -57 980 -41 C 1002 -25 1025 -11 1049 0 L 1270 0 Z" unicode="Ą" />
<glyph horiz-adv-x="1130" d="M 1038 778 C 1038 764 1037 749 1036 735 C 1035 720 1033 704 1030 688 L 909 0 L 627 0 L 641 72 C 613 46 580 23 542 5 C 504 -13 460 -23 410 -23 C 362 -23 316 -16 272 -3 C 228 9 190 29 157 56 C 123 83 97 118 77 160 C 57 202 47 253 47 311 C 47 371 57 426 78 476 C 99 526 129 568 168 604 C 206 640 253 667 308 687 C 362 707 424 717 492 717 C 540 717 589 712 638 703 C 686 694 722 684 745 674 L 752 717 C 753 725 754 732 754 737 C 754 741 754 746 754 752 C 754 789 739 817 711 836 C 682 854 634 864 567 864 C 521 864 477 858 435 848 C 393 837 356 824 324 809 L 250 1010 C 298 1036 353 1058 416 1074 C 478 1090 541 1098 604 1098 C 667 1098 725 1092 779 1080 C 832 1068 878 1049 916 1023 C 954 997 984 963 1006 923 C 1027 883 1038 834 1038 778 Z M 707 451 C 684 463 656 473 623 482 C 589 491 550 496 504 496 C 476 496 451 492 430 484 C 409 476 392 465 378 451 C 364 437 353 420 346 402 C 339 383 336 363 336 342 C 336 302 348 271 374 249 C 400 227 439 217 492 217 C 514 217 534 220 554 226 C 573 232 591 239 607 249 C 623 258 638 268 651 280 C 663 292 674 303 682 315 L 707 451 Z M 848 0 C 829 -7 809 -16 788 -28 C 766 -40 747 -53 729 -68 C 711 -83 696 -100 684 -119 C 672 -137 667 -157 667 -179 C 667 -192 670 -202 678 -210 C 686 -217 695 -221 706 -221 C 719 -221 731 -217 743 -209 C 755 -201 764 -193 772 -184 L 864 -264 C 840 -306 808 -341 769 -369 C 729 -396 682 -410 627 -410 C 572 -410 527 -395 491 -365 C 455 -335 438 -297 438 -252 C 438 -222 443 -194 454 -168 C 465 -142 479 -119 497 -98 C 515 -76 535 -57 558 -41 C 580 -25 603 -11 627 0 L 848 0 Z" unicode="ą" />
<glyph horiz-adv-x="1364" d="M 1085 985 C 1070 1013 1054 1038 1037 1061 C 1020 1084 1001 1104 980 1121 C 958 1137 934 1150 906 1160 C 878 1169 845 1174 809 1174 C 751 1174 698 1158 650 1127 C 602 1095 562 1053 528 1001 C 494 949 467 889 448 821 C 429 753 420 682 420 608 C 420 550 427 499 441 456 C 455 412 474 376 499 348 C 524 319 554 297 589 283 C 623 269 661 262 702 262 C 758 262 809 277 854 308 C 899 338 943 383 987 442 L 1217 276 C 1179 224 1139 180 1099 143 C 1059 105 1016 74 972 50 C 928 25 881 7 831 -5 C 781 -17 728 -23 672 -23 C 603 -23 536 -12 470 9 C 404 31 345 65 293 112 C 241 159 200 220 168 295 C 136 369 121 460 121 567 C 121 673 132 770 156 858 C 180 946 207 1018 239 1074 C 271 1130 304 1179 340 1221 C 376 1263 420 1302 472 1339 C 524 1375 581 1404 645 1425 C 709 1445 774 1456 840 1456 C 910 1456 973 1448 1027 1434 C 1081 1420 1129 1399 1171 1371 C 1213 1343 1249 1308 1280 1268 C 1311 1227 1339 1180 1364 1128 L 1085 985 Z M 967 1526 L 727 1526 L 963 1853 L 1321 1853 L 967 1526 Z" unicode="Ć" />
<glyph horiz-adv-x="1092" d="M 854 653 C 815 714 778 758 743 785 C 708 811 667 825 621 825 C 581 825 546 815 514 795 C 482 775 454 750 432 718 C 409 686 391 649 379 607 C 366 565 360 523 360 479 C 360 405 378 348 414 309 C 450 269 498 250 557 250 C 596 250 636 260 677 280 C 717 300 761 331 807 373 L 967 186 C 905 122 837 72 764 34 C 690 -4 610 -23 522 -23 C 458 -23 399 -12 344 10 C 289 32 241 63 201 105 C 161 146 129 196 106 256 C 83 315 72 382 72 457 C 72 541 85 622 113 700 C 140 777 179 845 230 904 C 280 963 341 1010 413 1045 C 484 1080 563 1098 651 1098 C 707 1098 756 1091 800 1078 C 844 1064 883 1046 918 1022 C 952 998 983 970 1009 938 C 1035 905 1058 869 1079 831 L 854 653 Z M 694 1219 L 454 1219 L 690 1546 L 1048 1546 L 694 1219 Z" unicode="ć" />
<glyph horiz-adv-x="1364" d="" unicode="Ĉ" />
<glyph horiz-adv-x="1092" d="" unicode="ĉ" />
<glyph horiz-adv-x="1364" d="" unicode="Ċ" />
<glyph horiz-adv-x="1092" d="" unicode="ċ" />
<glyph horiz-adv-x="1364" d="M 1085 985 C 1070 1013 1054 1038 1037 1061 C 1020 1084 1001 1104 980 1121 C 958 1137 934 1150 906 1160 C 878 1169 845 1174 809 1174 C 751 1174 698 1158 650 1127 C 602 1095 562 1053 528 1001 C 494 949 467 889 448 821 C 429 753 420 682 420 608 C 420 550 427 499 441 456 C 455 412 474 376 499 348 C 524 319 554 297 589 283 C 623 269 661 262 702 262 C 758 262 809 277 854 308 C 899 338 943 383 987 442 L 1217 276 C 1179 224 1139 180 1099 143 C 1059 105 1016 74 972 50 C 928 25 881 7 831 -5 C 781 -17 728 -23 672 -23 C 603 -23 536 -12 470 9 C 404 31 345 65 293 112 C 241 159 200 220 168 295 C 136 369 121 460 121 567 C 121 673 132 770 156 858 C 180 946 207 1018 239 1074 C 271 1130 304 1179 340 1221 C 376 1263 420 1302 472 1339 C 524 1375 581 1404 645 1425 C 709 1445 774 1456 840 1456 C 910 1456 973 1448 1027 1434 C 1081 1420 1129 1399 1171 1371 C 1213 1343 1249 1308 1280 1268 C 1311 1227 1339 1180 1364 1128 L 1085 985 Z M 987 1526 L 700 1526 L 508 1853 L 690 1853 L 868 1700 L 1100 1853 L 1294 1853 L 987 1526 Z" unicode="Č" />
<glyph horiz-adv-x="1092" d="M 854 653 C 815 714 778 758 743 785 C 708 811 667 825 621 825 C 581 825 546 815 514 795 C 482 775 454 750 432 718 C 409 686 391 649 379 607 C 366 565 360 523 360 479 C 360 405 378 348 414 309 C 450 269 498 250 557 250 C 596 250 636 260 677 280 C 717 300 761 331 807 373 L 967 186 C 905 122 837 72 764 34 C 690 -4 610 -23 522 -23 C 458 -23 399 -12 344 10 C 289 32 241 63 201 105 C 161 146 129 196 106 256 C 83 315 72 382 72 457 C 72 541 85 622 113 700 C 140 777 179 845 230 904 C 280 963 341 1010 413 1045 C 484 1080 563 1098 651 1098 C 707 1098 756 1091 800 1078 C 844 1064 883 1046 918 1022 C 952 998 983 970 1009 938 C 1035 905 1058 869 1079 831 L 854 653 Z M 829 1219 L 542 1219 L 350 1546 L 532 1546 L 710 1393 L 942 1546 L 1136 1546 L 829 1219 Z" unicode="č" />
<glyph horiz-adv-x="1440" d="M 1389 868 C 1389 766 1379 677 1361 601 C 1342 524 1315 453 1281 389 C 1246 325 1204 269 1156 223 C 1108 176 1058 138 1008 110 C 958 81 893 55 814 33 C 734 11 643 0 541 0 L 90 0 L 344 1434 L 672 1434 C 800 1434 910 1420 1001 1394 C 1091 1367 1165 1329 1223 1280 C 1280 1230 1322 1171 1349 1101 C 1375 1031 1389 954 1389 868 Z M 1087 815 C 1087 868 1079 916 1064 958 C 1048 1000 1024 1035 991 1065 C 957 1094 914 1116 860 1132 C 806 1147 742 1155 666 1155 L 582 1155 L 426 279 L 614 279 C 686 279 751 291 809 315 C 867 339 917 374 958 420 C 999 466 1031 522 1053 588 C 1075 654 1087 730 1087 815 Z M 962 1526 L 675 1526 L 483 1853 L 665 1853 L 843 1700 L 1075 1853 L 1269 1853 L 962 1526 Z" unicode="Ď" />
<glyph horiz-adv-x="1389" d="M 68 389 C 68 474 77 557 97 639 C 116 721 146 796 187 865 C 228 934 281 990 346 1033 C 410 1076 484 1098 567 1098 C 594 1098 618 1096 640 1092 C 661 1088 681 1082 699 1074 C 717 1066 735 1057 752 1047 C 768 1036 785 1024 803 1010 L 862 1352 L 1169 1493 L 905 0 L 623 0 L 635 68 C 605 40 572 18 538 2 C 504 -14 465 -23 422 -23 C 365 -23 315 -13 271 5 C 227 24 190 51 160 87 C 130 122 107 165 91 216 C 75 267 68 325 68 389 Z M 358 436 C 358 372 371 324 397 292 C 423 260 460 244 508 244 C 526 244 544 246 560 251 C 576 256 591 263 605 271 C 619 279 633 289 646 300 C 658 310 670 322 682 334 L 754 739 C 740 754 727 767 714 779 C 701 791 687 800 673 808 C 659 816 643 821 627 825 C 611 829 593 831 573 831 C 539 831 509 820 483 799 C 456 778 433 750 415 714 C 397 678 383 636 373 588 C 363 540 358 490 358 436 Z M 1352 858 L 1157 858 L 1288 1434 L 1622 1434 L 1352 858 Z" unicode="ď" />
<glyph horiz-adv-x="1470" d="M 1418 859 C 1417 799 1410 730 1396 652 C 1382 574 1360 503 1330 438 C 1300 372 1264 315 1223 265 C 1182 215 1131 171 1071 131 C 1011 91 941 59 863 35 C 785 11 700 0 610 0 L 119 0 L 231 631 L 98 631 L 139 866 L 272 866 L 373 1434 L 700 1434 C 838 1434 956 1418 1054 1386 C 1152 1354 1227 1310 1281 1253 C 1334 1195 1370 1134 1389 1069 C 1408 1003 1418 933 1418 859 Z M 1117 814 C 1117 855 1112 895 1102 933 C 1092 971 1072 1008 1043 1042 C 1014 1076 971 1103 913 1124 C 855 1144 782 1155 694 1155 L 602 1155 L 551 866 L 735 866 L 694 631 L 508 631 L 446 279 L 633 279 C 692 279 748 287 800 305 C 852 322 898 347 939 381 C 979 415 1011 450 1033 487 C 1055 524 1071 558 1081 589 C 1091 620 1100 656 1107 698 C 1113 740 1117 778 1117 814 Z" unicode="Đ" />
<glyph horiz-adv-x="1143" d="M 752 719 C 738 734 725 747 712 759 C 699 771 685 780 671 788 C 657 796 641 801 625 805 C 609 809 591 811 571 811 C 537 811 507 800 481 779 C 454 758 432 731 414 697 C 396 663 383 623 373 577 C 363 530 358 483 358 436 C 358 372 371 324 397 292 C 423 260 460 244 508 244 C 526 244 544 246 560 251 C 576 256 591 263 605 271 C 619 279 633 289 646 300 C 658 310 670 322 682 334 L 752 719 Z M 1296 1315 L 1260 1100 L 1100 1100 L 905 0 L 623 0 L 635 68 C 605 40 572 18 538 2 C 504 -14 465 -23 422 -23 C 365 -23 315 -13 271 5 C 227 24 190 51 160 87 C 130 122 107 165 91 216 C 75 267 68 325 68 389 C 68 443 72 500 82 559 C 92 617 106 673 126 726 C 145 778 169 827 197 871 C 225 915 258 953 294 984 C 330 1014 370 1038 416 1054 C 462 1070 511 1078 565 1078 C 593 1078 619 1075 642 1071 C 665 1066 686 1059 706 1050 C 725 1041 742 1032 758 1022 C 773 1012 787 1001 801 990 L 819 1100 L 666 1100 L 702 1315 L 856 1315 L 862 1352 L 1169 1493 L 1139 1315 L 1296 1315 Z" unicode="đ" />
<glyph horiz-adv-x="1323" d="M 90 0 L 342 1434 L 1329 1434 L 1280 1153 L 580 1153 L 537 905 L 1104 905 L 1055 627 L 487 627 L 426 281 L 1157 281 L 1108 0 L 90 0 Z M 1147 1556 L 553 1556 L 590 1771 L 1184 1771 L 1147 1556 Z" unicode="Ē" />
<glyph horiz-adv-x="1094" d="M 1018 662 C 1018 626 1015 591 1009 555 C 1003 519 995 483 985 446 L 350 446 C 346 409 349 378 361 352 C 372 326 388 306 408 290 C 428 274 450 262 476 255 C 501 247 526 244 551 244 C 587 244 622 249 658 261 C 694 272 730 290 766 315 L 903 119 C 838 68 774 32 712 10 C 650 -12 586 -23 520 -23 C 450 -23 388 -12 332 9 C 276 30 229 61 190 101 C 151 141 121 190 100 248 C 78 306 68 371 68 444 C 68 536 82 621 111 701 C 140 781 180 850 230 909 C 280 967 340 1013 408 1047 C 476 1081 549 1098 627 1098 C 694 1098 752 1086 802 1063 C 851 1040 892 1009 924 969 C 956 929 979 883 995 831 C 1010 778 1018 722 1018 662 Z M 752 659 C 754 685 753 709 748 733 C 743 756 734 776 720 794 C 706 812 689 826 667 836 C 645 846 618 852 586 852 C 560 852 536 847 516 837 C 495 827 476 813 460 796 C 444 778 429 758 417 735 C 405 711 395 686 387 659 L 752 659 Z M 971 1249 L 377 1249 L 414 1464 L 1008 1464 L 971 1249 Z" unicode="ē" />
<glyph horiz-adv-x="1323" d="" unicode="Ĕ" />
<glyph horiz-adv-x="1094" d="" unicode="ĕ" />
<glyph horiz-adv-x="1323" d="M 90 0 L 342 1434 L 1329 1434 L 1280 1153 L 580 1153 L 537 905 L 1104 905 L 1055 627 L 487 627 L 426 281 L 1157 281 L 1108 0 L 90 0 Z M 1028 1683 C 1028 1661 1023 1641 1015 1623 C 1006 1604 994 1587 980 1573 C 966 1558 949 1546 930 1538 C 910 1530 890 1526 870 1526 C 848 1526 827 1530 807 1538 C 787 1546 770 1558 756 1573 C 742 1587 730 1604 722 1623 C 713 1641 709 1661 709 1683 C 709 1705 713 1725 722 1745 C 730 1764 742 1781 756 1796 C 770 1810 787 1822 807 1830 C 827 1838 848 1843 870 1843 C 890 1843 910 1838 930 1830 C 949 1822 966 1810 980 1796 C 994 1781 1006 1764 1015 1745 C 1023 1725 1028 1705 1028 1683 Z" unicode="Ė" />
<glyph horiz-adv-x="1094" d="M 1018 662 C 1018 626 1015 591 1009 555 C 1003 519 995 483 985 446 L 350 446 C 346 409 349 378 361 352 C 372 326 388 306 408 290 C 428 274 450 262 476 255 C 501 247 526 244 551 244 C 587 244 622 249 658 261 C 694 272 730 290 766 315 L 903 119 C 838 68 774 32 712 10 C 650 -12 586 -23 520 -23 C 450 -23 388 -12 332 9 C 276 30 229 61 190 101 C 151 141 121 190 100 248 C 78 306 68 371 68 444 C 68 536 82 621 111 701 C 140 781 180 850 230 909 C 280 967 340 1013 408 1047 C 476 1081 549 1098 627 1098 C 694 1098 752 1086 802 1063 C 851 1040 892 1009 924 969 C 956 929 979 883 995 831 C 1010 778 1018 722 1018 662 Z M 752 659 C 754 685 753 709 748 733 C 743 756 734 776 720 794 C 706 812 689 826 667 836 C 645 846 618 852 586 852 C 560 852 536 847 516 837 C 495 827 476 813 460 796 C 444 778 429 758 417 735 C 405 711 395 686 387 659 L 752 659 Z M 852 1376 C 852 1354 847 1334 839 1316 C 830 1297 818 1280 804 1266 C 790 1251 773 1239 754 1231 C 734 1223 714 1219 694 1219 C 672 1219 651 1223 631 1231 C 611 1239 594 1251 580 1266 C 566 1280 554 1297 546 1316 C 537 1334 533 1354 533 1376 C 533 1398 537 1418 546 1438 C 554 1457 566 1474 580 1489 C 594 1503 611 1515 631 1523 C 651 1531 672 1536 694 1536 C 714 1536 734 1531 754 1523 C 773 1515 790 1503 804 1489 C 818 1474 830 1457 839 1438 C 847 1418 852 1398 852 1376 Z" unicode="ė" />
<glyph horiz-adv-x="1323" d="M 90 0 L 342 1434 L 1329 1434 L 1280 1153 L 580 1153 L 537 905 L 1104 905 L 1055 627 L 487 627 L 426 281 L 1157 281 L 1108 0 L 90 0 Z M 1047 0 C 1028 -7 1008 -16 987 -28 C 965 -40 946 -53 928 -68 C 910 -83 895 -100 883 -119 C 871 -137 866 -157 866 -179 C 866 -192 869 -202 877 -210 C 885 -217 894 -221 905 -221 C 918 -221 930 -217 942 -209 C 954 -201 963 -193 971 -184 L 1063 -264 C 1039 -306 1007 -341 968 -369 C 928 -396 881 -410 826 -410 C 771 -410 726 -395 690 -365 C 654 -335 637 -297 637 -252 C 637 -222 642 -194 653 -168 C 664 -142 678 -119 696 -98 C 714 -76 734 -57 757 -41 C 779 -25 802 -11 826 0 L 1047 0 Z" unicode="Ę" />
<glyph horiz-adv-x="1094" d="M 752 659 C 754 685 753 709 748 733 C 743 756 734 776 720 794 C 706 812 689 826 667 836 C 645 846 618 852 586 852 C 560 852 536 847 516 837 C 495 827 476 813 460 796 C 444 778 429 758 417 735 C 405 711 395 686 387 659 L 752 659 Z M 499 -179 C 499 -192 502 -202 510 -210 C 518 -217 527 -221 538 -221 C 551 -221 563 -217 575 -209 C 587 -201 596 -193 604 -184 L 696 -264 C 672 -307 641 -342 601 -369 C 561 -396 513 -410 459 -410 C 431 -410 405 -406 383 -398 C 360 -390 339 -379 321 -363 C 303 -347 290 -330 282 -310 C 274 -290 270 -271 270 -252 C 270 -222 275 -194 286 -168 C 297 -142 311 -119 329 -98 C 347 -76 364 -59 382 -47 C 400 -34 415 -24 428 -16 C 394 -10 355 0 313 16 C 270 32 229 61 190 101 C 151 141 121 190 100 248 C 78 306 68 371 68 444 C 68 536 82 621 111 701 C 140 781 180 850 230 909 C 280 967 340 1013 408 1047 C 476 1081 549 1098 627 1098 C 694 1098 752 1086 802 1063 C 851 1040 892 1009 924 969 C 956 929 979 883 995 831 C 1010 778 1018 722 1018 662 C 1018 626 1015 591 1009 555 C 1003 519 995 483 985 446 L 350 446 C 346 409 349 378 361 352 C 372 326 388 306 408 290 C 428 274 450 262 476 255 C 501 247 526 244 551 244 C 587 244 622 249 658 261 C 694 272 730 290 766 315 L 903 119 C 863 85 815 55 761 31 C 706 7 662 -12 630 -27 C 605 -39 585 -51 570 -63 C 555 -74 543 -85 533 -97 C 523 -109 514 -122 508 -137 C 502 -152 499 -166 499 -179 Z" unicode="ę" />
<glyph horiz-adv-x="1323" d="M 90 0 L 342 1434 L 1329 1434 L 1280 1153 L 580 1153 L 537 905 L 1104 905 L 1055 627 L 487 627 L 426 281 L 1157 281 L 1108 0 L 90 0 Z M 987 1526 L 700 1526 L 508 1853 L 690 1853 L 868 1700 L 1100 1853 L 1294 1853 L 987 1526 Z" unicode="Ě" />
<glyph horiz-adv-x="1094" d="M 1018 662 C 1018 626 1015 591 1009 555 C 1003 519 995 483 985 446 L 350 446 C 346 409 349 378 361 352 C 372 326 388 306 408 290 C 428 274 450 262 476 255 C 501 247 526 244 551 244 C 587 244 622 249 658 261 C 694 272 730 290 766 315 L 903 119 C 838 68 774 32 712 10 C 650 -12 586 -23 520 -23 C 450 -23 388 -12 332 9 C 276 30 229 61 190 101 C 151 141 121 190 100 248 C 78 306 68 371 68 444 C 68 536 82 621 111 701 C 140 781 180 850 230 909 C 280 967 340 1013 408 1047 C 476 1081 549 1098 627 1098 C 694 1098 752 1086 802 1063 C 851 1040 892 1009 924 969 C 956 929 979 883 995 831 C 1010 778 1018 722 1018 662 Z M 752 659 C 754 685 753 709 748 733 C 743 756 734 776 720 794 C 706 812 689 826 667 836 C 645 846 618 852 586 852 C 560 852 536 847 516 837 C 495 827 476 813 460 796 C 444 778 429 758 417 735 C 405 711 395 686 387 659 L 752 659 Z M 811 1219 L 524 1219 L 332 1546 L 514 1546 L 692 1393 L 924 1546 L 1118 1546 L 811 1219 Z" unicode="ě" />
<glyph horiz-adv-x="1421" d="" unicode="Ĝ" />
<glyph horiz-adv-x="1143" d="" unicode="ĝ" />
<glyph horiz-adv-x="1421" d="M 1087 965 C 1075 997 1061 1025 1046 1051 C 1030 1076 1012 1097 992 1115 C 972 1133 948 1146 922 1156 C 895 1166 865 1171 831 1171 C 769 1171 714 1155 664 1125 C 614 1094 571 1053 535 1001 C 499 949 472 890 453 823 C 433 756 424 686 424 614 C 424 554 431 501 447 456 C 462 411 483 374 511 344 C 538 314 570 292 607 278 C 643 263 683 256 727 256 C 795 256 851 274 895 310 C 939 346 969 398 987 467 L 989 475 L 786 475 L 834 743 L 1341 743 L 1319 610 C 1299 498 1272 403 1237 323 C 1201 243 1157 178 1105 127 C 1053 75 992 37 924 13 C 855 -10 778 -23 694 -23 C 614 -23 539 -10 470 16 C 401 42 341 80 290 130 C 238 180 198 243 169 317 C 139 391 125 477 125 573 C 125 657 133 738 150 815 C 166 891 190 962 221 1028 C 251 1094 288 1153 332 1206 C 375 1258 424 1303 478 1340 C 532 1377 590 1406 653 1426 C 715 1446 781 1456 850 1456 C 984 1456 1096 1426 1185 1366 C 1273 1306 1338 1211 1378 1083 L 1087 965 Z M 1272 1853 C 1246 1748 1199 1667 1129 1611 C 1059 1554 968 1526 854 1526 C 801 1526 753 1533 709 1548 C 665 1562 628 1584 598 1612 C 567 1640 543 1674 527 1714 C 511 1754 504 1801 506 1853 L 678 1853 C 683 1807 702 1774 736 1752 C 769 1730 815 1720 873 1720 C 933 1720 981 1729 1017 1749 C 1053 1768 1082 1803 1106 1853 L 1272 1853 Z" unicode="Ğ" />
<glyph horiz-adv-x="1143" d="M 422 -23 C 365 -23 315 -13 271 5 C 227 24 190 51 160 87 C 130 122 107 165 91 216 C 75 267 68 325 68 389 C 68 497 81 596 109 686 C 136 775 172 850 216 910 C 260 970 311 1016 371 1049 C 430 1081 495 1098 567 1098 C 594 1098 618 1096 640 1092 C 661 1088 681 1082 699 1074 C 717 1066 735 1057 752 1047 C 768 1036 785 1024 803 1010 L 813 1075 L 1096 1075 L 940 182 C 913 35 884 -69 853 -132 C 821 -194 783 -244 739 -280 C 694 -316 638 -345 570 -365 C 502 -385 419 -396 322 -399 L 274 -172 C 334 -169 386 -163 429 -153 C 471 -143 507 -129 535 -111 C 563 -93 585 -70 601 -42 C 617 -14 628 18 635 57 L 637 70 C 610 42 578 20 541 3 C 503 -14 464 -23 422 -23 Z M 358 436 C 358 372 371 324 397 292 C 423 260 460 244 508 244 C 526 244 544 246 560 251 C 576 256 591 263 605 271 C 619 279 633 289 646 300 C 658 310 670 322 682 334 L 754 739 C 740 754 727 767 714 779 C 701 791 687 800 673 808 C 659 816 643 821 627 825 C 611 829 593 831 573 831 C 539 831 509 820 483 799 C 456 778 433 750 415 714 C 397 678 383 636 373 588 C 363 540 358 490 358 436 Z M 1132 1546 C 1106 1441 1059 1360 989 1304 C 919 1247 828 1219 714 1219 C 661 1219 613 1226 569 1241 C 525 1255 488 1277 458 1305 C 427 1333 403 1367 387 1407 C 371 1447 364 1494 366 1546 L 538 1546 C 543 1500 562 1467 596 1445 C 629 1423 675 1413 733 1413 C 793 1413 841 1422 877 1442 C 913 1461 942 1496 966 1546 L 1132 1546 Z" unicode="ğ" />
<glyph horiz-adv-x="1421" d="" unicode="Ġ" />
<glyph horiz-adv-x="1143" d="" unicode="ġ" />
<glyph horiz-adv-x="1421" d="M 1087 965 C 1075 997 1061 1025 1046 1051 C 1030 1076 1012 1097 992 1115 C 972 1133 948 1146 922 1156 C 895 1166 865 1171 831 1171 C 769 1171 714 1155 664 1125 C 614 1094 571 1053 535 1001 C 499 949 472 890 453 823 C 433 756 424 686 424 614 C 424 554 431 501 447 456 C 462 411 483 374 511 344 C 538 314 570 292 607 278 C 643 263 683 256 727 256 C 795 256 851 274 895 310 C 939 346 969 398 987 467 L 989 475 L 786 475 L 834 743 L 1341 743 L 1319 610 C 1299 498 1272 403 1237 323 C 1201 243 1157 178 1105 127 C 1053 75 992 37 924 13 C 855 -10 778 -23 694 -23 C 614 -23 539 -10 470 16 C 401 42 341 80 290 130 C 238 180 198 243 169 317 C 139 391 125 477 125 573 C 125 657 133 738 150 815 C 166 891 190 962 221 1028 C 251 1094 288 1153 332 1206 C 375 1258 424 1303 478 1340 C 532 1377 590 1406 653 1426 C 715 1446 781 1456 850 1456 C 984 1456 1096 1426 1185 1366 C 1273 1306 1338 1211 1378 1083 L 1087 965 Z M 541 -491 L 383 -491 L 465 -98 L 735 -98 L 541 -491 Z" unicode="Ģ" />
<glyph horiz-adv-x="1143" d="M 422 -23 C 365 -23 315 -13 271 5 C 227 24 190 51 160 87 C 130 122 107 165 91 216 C 75 267 68 325 68 389 C 68 497 81 596 109 686 C 136 775 172 850 216 910 C 260 970 311 1016 371 1049 C 430 1081 495 1098 567 1098 C 594 1098 618 1096 640 1092 C 661 1088 681 1082 699 1074 C 717 1066 735 1057 752 1047 C 768 1036 785 1024 803 1010 L 813 1075 L 1096 1075 L 940 182 C 913 35 884 -69 853 -132 C 821 -194 783 -244 739 -280 C 694 -316 638 -345 570 -365 C 502 -385 419 -396 322 -399 L 274 -172 C 334 -169 386 -163 429 -153 C 471 -143 507 -129 535 -111 C 563 -93 585 -70 601 -42 C 617 -14 628 18 635 57 L 637 70 C 610 42 578 20 541 3 C 503 -14 464 -23 422 -23 Z M 358 436 C 358 372 371 324 397 292 C 423 260 460 244 508 244 C 526 244 544 246 560 251 C 576 256 591 263 605 271 C 619 279 633 289 646 300 C 658 310 670 322 682 334 L 754 739 C 740 754 727 767 714 779 C 701 791 687 800 673 808 C 659 816 643 821 627 825 C 611 829 593 831 573 831 C 539 831 509 820 483 799 C 456 778 433 750 415 714 C 397 678 383 636 373 588 C 363 540 358 490 358 436 Z M 784 1596 L 941 1596 L 860 1203 L 590 1203 L 784 1596 Z" unicode="ģ" />
<glyph horiz-adv-x="1522" d="" unicode="Ĥ" />
<glyph horiz-adv-x="1188" d="" unicode="ĥ" />
<glyph horiz-adv-x="1522" d="" unicode="Ħ" />
<glyph horiz-adv-x="1188" d="" unicode="ħ" />
<glyph horiz-adv-x="696" d="" unicode="Ĩ" />
<glyph horiz-adv-x="578" d="" unicode="ĩ" />
<glyph horiz-adv-x="696" d="M 395 0 L 109 0 L 362 1434 L 649 1434 L 395 0 Z M 826 1556 L 232 1556 L 269 1771 L 863 1771 L 826 1556 Z" unicode="Ī" />
<glyph horiz-adv-x="578" d="M 336 0 L 53 0 L 242 1075 L 524 1075 L 336 0 Z M 714 1249 L 120 1249 L 157 1464 L 751 1464 L 714 1249 Z" unicode="ī" />
<glyph horiz-adv-x="696" d="" unicode="Ĭ" />
<glyph horiz-adv-x="578" d="" unicode="ĭ" />
<glyph horiz-adv-x="696" d="M 395 0 L 109 0 L 362 1434 L 649 1434 L 395 0 Z M 376 0 C 357 -7 337 -16 316 -28 C 294 -40 275 -53 257 -68 C 239 -83 224 -100 212 -119 C 200 -137 195 -157 195 -179 C 195 -192 198 -202 206 -210 C 214 -217 223 -221 234 -221 C 247 -221 259 -217 271 -209 C 283 -201 292 -193 300 -184 L 392 -264 C 368 -306 336 -341 297 -369 C 257 -396 210 -410 155 -410 C 100 -410 55 -395 19 -365 C -16 -335 -34 -297 -34 -252 C -34 -222 -28 -194 -17 -168 C -6 -142 7 -119 25 -98 C 43 -76 63 -57 86 -41 C 108 -25 131 -11 155 0 L 376 0 Z" unicode="Į" />
<glyph horiz-adv-x="578" d="M 586 1325 C 586 1303 581 1282 573 1262 C 564 1242 552 1225 538 1211 C 523 1196 506 1184 486 1176 C 466 1167 446 1163 424 1163 C 402 1163 381 1167 361 1176 C 341 1184 324 1196 310 1211 C 295 1225 283 1242 275 1262 C 266 1282 262 1303 262 1325 C 262 1347 266 1367 275 1387 C 283 1407 295 1424 310 1439 C 324 1453 341 1465 361 1474 C 381 1482 402 1487 424 1487 C 446 1487 466 1482 486 1474 C 506 1465 523 1453 538 1439 C 552 1424 564 1407 573 1387 C 581 1367 586 1347 586 1325 Z M 336 0 L 53 0 L 242 1075 L 524 1075 L 336 0 Z M 317 0 C 298 -7 278 -16 257 -28 C 235 -40 216 -53 198 -68 C 180 -83 165 -100 153 -119 C 141 -137 136 -157 136 -179 C 136 -192 139 -202 147 -210 C 155 -217 164 -221 175 -221 C 188 -221 200 -217 212 -209 C 224 -201 233 -193 241 -184 L 333 -264 C 309 -306 277 -341 238 -369 C 198 -396 151 -410 96 -410 C 41 -410 -3 -395 -39 -365 C -75 -335 -93 -297 -93 -252 C -93 -222 -87 -194 -76 -168 C -65 -142 -51 -119 -33 -98 C -15 -76 4 -57 27 -41 C 49 -25 72 -11 96 0 L 317 0 Z" unicode="į" />
<glyph horiz-adv-x="696" d="M 395 0 L 109 0 L 362 1434 L 649 1434 L 395 0 Z M 709 1683 C 709 1661 704 1641 696 1623 C 687 1604 675 1587 661 1573 C 647 1558 630 1546 611 1538 C 591 1530 571 1526 551 1526 C 529 1526 508 1530 488 1538 C 468 1546 451 1558 437 1573 C 423 1587 411 1604 403 1623 C 394 1641 390 1661 390 1683 C 390 1705 394 1725 403 1745 C 411 1764 423 1781 437 1796 C 451 1810 468 1822 488 1830 C 508 1838 529 1843 551 1843 C 571 1843 591 1838 611 1830 C 630 1822 647 1810 661 1796 C 675 1781 687 1764 696 1745 C 704 1725 709 1705 709 1683 Z" unicode="İ" />
<glyph horiz-adv-x="578" d="M 336 0 L 53 0 L 242 1075 L 524 1075 L 336 0 Z" unicode="ı" />
<glyph horiz-adv-x="2019" d="" unicode="Ĳ" />
<glyph horiz-adv-x="1155" d="" unicode="ĳ" />
<glyph horiz-adv-x="1323" d="" unicode="Ĵ" />
<glyph horiz-adv-x="578" d="" unicode="ĵ" />
<glyph horiz-adv-x="1466" d="M 979 932 L 1331 0 L 1028 0 L 760 711 L 444 393 L 377 0 L 90 0 L 342 1434 L 629 1434 L 517 801 L 1130 1434 L 1477 1434 L 979 932 Z M 611 -491 L 453 -491 L 535 -98 L 805 -98 L 611 -491 Z" unicode="Ķ" />
<glyph horiz-adv-x="1120" d="M 795 741 L 969 0 L 674 0 L 561 506 L 383 326 L 326 0 L 43 0 L 281 1352 L 590 1493 L 446 698 L 793 1075 L 1126 1075 L 795 741 Z M 423 -491 L 265 -491 L 347 -98 L 617 -98 L 423 -491 Z" unicode="ķ" />
<glyph horiz-adv-x="1120" d="" unicode="ĸ" />
<glyph horiz-adv-x="1262" d="M 1087 0 L 90 0 L 342 1434 L 629 1434 L 426 283 L 1137 283 L 1087 0 Z M 603 1526 L 363 1526 L 599 1853 L 957 1853 L 603 1526 Z" unicode="Ĺ" />
<glyph horiz-adv-x="578" d="M 336 0 L 53 0 L 291 1352 L 598 1493 L 336 0 Z M 552 1526 L 312 1526 L 548 1853 L 906 1853 L 552 1526 Z" unicode="ĺ" />
<glyph horiz-adv-x="1262" d="M 1087 0 L 90 0 L 342 1434 L 629 1434 L 426 283 L 1137 283 L 1087 0 Z M 539 -491 L 381 -491 L 463 -98 L 733 -98 L 539 -491 Z" unicode="Ļ" />
<glyph horiz-adv-x="578" d="M 336 0 L 53 0 L 291 1352 L 598 1493 L 336 0 Z M 119 -491 L -39 -491 L 43 -98 L 313 -98 L 119 -491 Z" unicode="ļ" />
<glyph horiz-adv-x="1262" d="M 1087 0 L 90 0 L 342 1434 L 629 1434 L 426 283 L 1137 283 L 1087 0 Z M 932 1063 L 737 1063 L 868 1639 L 1202 1639 L 932 1063 Z" unicode="Ľ" />
<glyph horiz-adv-x="821" d="M 336 0 L 53 0 L 291 1352 L 598 1493 L 336 0 Z M 784 858 L 589 858 L 720 1434 L 1054 1434 L 784 858 Z" unicode="ľ" />
<glyph horiz-adv-x="1262" d="" unicode="Ŀ" />
<glyph horiz-adv-x="1135" d="" unicode="ŀ" />
<glyph horiz-adv-x="1292" d="M 1118 0 L 121 0 L 207 483 L 55 381 L 104 657 L 256 760 L 375 1434 L 657 1434 L 569 936 L 838 1112 L 788 836 L 520 659 L 455 283 L 1169 283 L 1118 0 Z" unicode="Ł" />
<glyph horiz-adv-x="659" d="M 537 915 L 670 999 L 623 723 L 489 641 L 375 0 L 96 0 L 182 489 L 49 408 L 98 684 L 231 766 L 336 1352 L 639 1493 L 537 915 Z" unicode="ł" />
<glyph horiz-adv-x="1522" d="M 1243 0 L 987 0 L 541 958 L 373 0 L 90 0 L 342 1434 L 616 1434 L 1050 513 L 1212 1434 L 1495 1434 L 1243 0 Z M 1014 1526 L 774 1526 L 1010 1853 L 1368 1853 L 1014 1526 Z" unicode="Ń" />
<glyph horiz-adv-x="1188" d="M 1087 764 C 1087 741 1085 716 1083 688 C 1080 660 1077 632 1073 606 L 967 0 L 684 0 L 786 582 C 789 600 791 616 793 632 C 794 648 795 662 795 676 C 795 726 783 764 759 791 C 735 817 697 831 645 831 C 617 831 591 826 568 818 C 544 809 524 795 506 776 C 488 756 472 731 459 701 C 446 670 436 632 428 588 L 326 0 L 43 0 L 231 1075 L 514 1075 L 502 1004 C 529 1029 562 1051 602 1070 C 642 1088 689 1098 745 1098 C 861 1098 947 1069 1003 1011 C 1059 953 1087 871 1087 764 Z M 745 1219 L 505 1219 L 741 1546 L 1099 1546 L 745 1219 Z" unicode="ń" />
<glyph horiz-adv-x="1522" d="M 1243 0 L 987 0 L 541 958 L 373 0 L 90 0 L 342 1434 L 616 1434 L 1050 513 L 1212 1434 L 1495 1434 L 1243 0 Z M 607 -491 L 449 -491 L 531 -98 L 801 -98 L 607 -491 Z" unicode="Ņ" />
<glyph horiz-adv-x="1188" d="M 1087 764 C 1087 741 1085 716 1083 688 C 1080 660 1077 632 1073 606 L 967 0 L 684 0 L 786 582 C 789 600 791 616 793 632 C 794 648 795 662 795 676 C 795 726 783 764 759 791 C 735 817 697 831 645 831 C 617 831 591 826 568 818 C 544 809 524 795 506 776 C 488 756 472 731 459 701 C 446 670 436 632 428 588 L 326 0 L 43 0 L 231 1075 L 514 1075 L 502 1004 C 529 1029 562 1051 602 1070 C 642 1088 689 1098 745 1098 C 861 1098 947 1069 1003 1011 C 1059 953 1087 871 1087 764 Z M 425 -491 L 267 -491 L 349 -98 L 619 -98 L 425 -491 Z" unicode="ņ" />
<glyph horiz-adv-x="1522" d="M 1243 0 L 987 0 L 541 958 L 373 0 L 90 0 L 342 1434 L 616 1434 L 1050 513 L 1212 1434 L 1495 1434 L 1243 0 Z M 1083 1526 L 796 1526 L 604 1853 L 786 1853 L 964 1700 L 1196 1853 L 1390 1853 L 1083 1526 Z" unicode="Ň" />
<glyph horiz-adv-x="1188" d="M 1087 764 C 1087 741 1085 716 1083 688 C 1080 660 1077 632 1073 606 L 967 0 L 684 0 L 786 582 C 789 600 791 616 793 632 C 794 648 795 662 795 676 C 795 726 783 764 759 791 C 735 817 697 831 645 831 C 617 831 591 826 568 818 C 544 809 524 795 506 776 C 488 756 472 731 459 701 C 446 670 436 632 428 588 L 326 0 L 43 0 L 231 1075 L 514 1075 L 502 1004 C 529 1029 562 1051 602 1070 C 642 1088 689 1098 745 1098 C 861 1098 947 1069 1003 1011 C 1059 953 1087 871 1087 764 Z M 858 1219 L 571 1219 L 379 1546 L 561 1546 L 739 1393 L 971 1546 L 1165 1546 L 858 1219 Z" unicode="ň" />
<glyph horiz-adv-x="1667" d="" unicode="ŉ" />
<glyph horiz-adv-x="1522" d="" unicode="Ŋ" />
<glyph horiz-adv-x="1188" d="" unicode="ŋ" />
<glyph horiz-adv-x="1464" d="M 1409 866 C 1409 785 1401 707 1385 632 C 1369 557 1347 487 1317 421 C 1287 355 1251 294 1209 240 C 1166 186 1118 139 1065 100 C 1011 61 953 31 890 9 C 826 -12 759 -23 688 -23 C 600 -23 521 -9 451 17 C 381 44 321 83 272 134 C 223 184 186 246 160 319 C 134 392 121 475 121 567 C 121 647 128 725 144 801 C 160 876 182 946 212 1012 C 242 1078 278 1138 321 1193 C 363 1247 411 1294 465 1333 C 518 1372 576 1402 640 1424 C 703 1445 770 1456 842 1456 C 930 1456 1009 1442 1079 1415 C 1149 1388 1208 1349 1257 1299 C 1306 1248 1344 1186 1370 1113 C 1396 1040 1409 958 1409 866 Z M 1110 825 C 1110 884 1102 935 1087 979 C 1072 1023 1052 1059 1026 1087 C 1000 1115 969 1136 934 1150 C 899 1164 861 1171 821 1171 C 765 1171 713 1157 665 1130 C 616 1103 573 1065 537 1016 C 501 966 472 907 451 838 C 430 769 420 692 420 608 C 420 548 427 497 442 454 C 457 410 478 374 504 346 C 530 317 560 296 595 282 C 630 268 668 262 709 262 C 764 262 816 275 865 302 C 913 329 956 367 992 417 C 1028 466 1057 525 1078 594 C 1099 663 1110 740 1110 825 Z M 1215 1556 L 621 1556 L 658 1771 L 1252 1771 L 1215 1556 Z" unicode="Ō" />
<glyph horiz-adv-x="1128" d="M 72 440 C 72 528 85 611 113 691 C 141 771 179 841 229 901 C 278 961 337 1009 406 1045 C 475 1080 551 1098 635 1098 C 697 1098 755 1087 807 1065 C 859 1043 903 1013 940 973 C 977 933 1006 884 1026 827 C 1046 770 1057 706 1057 635 C 1057 563 1047 492 1028 422 C 1008 352 975 282 928 212 C 881 142 819 85 743 42 C 666 -1 583 -23 494 -23 C 430 -23 373 -12 321 9 C 269 31 225 62 188 102 C 151 142 122 190 102 247 C 82 304 72 368 72 440 Z M 362 459 C 362 425 366 396 374 370 C 382 344 394 322 408 304 C 422 286 439 273 459 264 C 479 254 500 250 524 250 C 556 250 586 258 615 274 C 644 290 670 314 692 346 C 714 377 732 415 746 461 C 759 506 766 558 766 616 C 766 649 761 679 753 705 C 745 731 733 752 719 770 C 705 788 688 801 668 811 C 648 820 626 825 604 825 C 572 825 541 816 512 800 C 483 784 457 760 435 729 C 413 697 395 659 382 614 C 368 568 362 517 362 459 Z M 987 1249 L 393 1249 L 430 1464 L 1024 1464 L 987 1249 Z" unicode="ō" />
<glyph horiz-adv-x="1464" d="" unicode="Ŏ" />
<glyph horiz-adv-x="1128" d="" unicode="ŏ" />
<glyph horiz-adv-x="1464" d="M 1409 866 C 1409 785 1401 707 1385 632 C 1369 557 1347 487 1317 421 C 1287 355 1251 294 1209 240 C 1166 186 1118 139 1065 100 C 1011 61 953 31 890 9 C 826 -12 759 -23 688 -23 C 600 -23 521 -9 451 17 C 381 44 321 83 272 134 C 223 184 186 246 160 319 C 134 392 121 475 121 567 C 121 647 128 725 144 801 C 160 876 182 946 212 1012 C 242 1078 278 1138 321 1193 C 363 1247 411 1294 465 1333 C 518 1372 576 1402 640 1424 C 703 1445 770 1456 842 1456 C 930 1456 1009 1442 1079 1415 C 1149 1388 1208 1349 1257 1299 C 1306 1248 1344 1186 1370 1113 C 1396 1040 1409 958 1409 866 Z M 1110 825 C 1110 884 1102 935 1087 979 C 1072 1023 1052 1059 1026 1087 C 1000 1115 969 1136 934 1150 C 899 1164 861 1171 821 1171 C 765 1171 713 1157 665 1130 C 616 1103 573 1065 537 1016 C 501 966 472 907 451 838 C 430 769 420 692 420 608 C 420 548 427 497 442 454 C 457 410 478 374 504 346 C 530 317 560 296 595 282 C 630 268 668 262 709 262 C 764 262 816 275 865 302 C 913 329 956 367 992 417 C 1028 466 1057 525 1078 594 C 1099 663 1110 740 1110 825 Z M 1156 1526 L 916 1526 L 1151 1853 L 1510 1853 L 1156 1526 Z M 705 1526 L 465 1526 L 701 1853 L 1059 1853 L 705 1526 Z" unicode="Ő" />
<glyph horiz-adv-x="1128" d="M 72 440 C 72 528 85 611 113 691 C 141 771 179 841 229 901 C 278 961 337 1009 406 1045 C 475 1080 551 1098 635 1098 C 697 1098 755 1087 807 1065 C 859 1043 903 1013 940 973 C 977 933 1006 884 1026 827 C 1046 770 1057 706 1057 635 C 1057 563 1047 492 1028 422 C 1008 352 975 282 928 212 C 881 142 819 85 743 42 C 666 -1 583 -23 494 -23 C 430 -23 373 -12 321 9 C 269 31 225 62 188 102 C 151 142 122 190 102 247 C 82 304 72 368 72 440 Z M 362 459 C 362 425 366 396 374 370 C 382 344 394 322 408 304 C 422 286 439 273 459 264 C 479 254 500 250 524 250 C 556 250 586 258 615 274 C 644 290 670 314 692 346 C 714 377 732 415 746 461 C 759 506 766 558 766 616 C 766 649 761 679 753 705 C 745 731 733 752 719 770 C 705 788 688 801 668 811 C 648 820 626 825 604 825 C 572 825 541 816 512 800 C 483 784 457 760 435 729 C 413 697 395 659 382 614 C 368 568 362 517 362 459 Z M 961 1219 L 721 1219 L 956 1546 L 1315 1546 L 961 1219 Z M 510 1219 L 270 1219 L 506 1546 L 864 1546 L 510 1219 Z" unicode="ő" />
<glyph horiz-adv-x="2175" d="M 1110 825 C 1110 884 1102 935 1087 979 C 1072 1023 1052 1059 1026 1087 C 1000 1115 969 1136 934 1150 C 899 1164 861 1171 821 1171 C 765 1171 713 1157 665 1130 C 616 1103 573 1065 537 1016 C 501 966 472 907 451 838 C 430 769 420 692 420 608 C 420 548 427 497 442 454 C 457 410 478 374 504 346 C 530 317 560 296 595 282 C 630 268 668 262 709 262 C 764 262 816 275 865 302 C 913 329 956 367 992 417 C 1028 466 1057 525 1078 594 C 1099 663 1110 740 1110 825 Z M 1294 281 L 2009 281 L 1960 0 L 989 0 L 1012 129 C 1000 111 983 94 963 76 C 942 58 918 41 890 27 C 862 12 830 0 795 -9 C 759 -18 721 -23 680 -23 C 594 -23 517 -9 448 17 C 379 44 320 83 272 134 C 223 184 186 246 160 319 C 134 392 121 475 121 567 C 121 647 129 725 145 801 C 161 876 183 946 213 1012 C 243 1078 279 1138 321 1193 C 363 1247 410 1294 463 1333 C 515 1372 573 1402 635 1424 C 697 1445 762 1456 831 1456 C 881 1456 926 1451 966 1442 C 1006 1433 1041 1421 1073 1405 C 1105 1389 1132 1371 1155 1350 C 1178 1329 1198 1307 1214 1284 L 1241 1434 L 2181 1434 L 2132 1153 L 1448 1153 L 1405 905 L 1972 905 L 1923 627 L 1356 627 L 1294 281 Z" unicode="Œ" />
<glyph horiz-adv-x="1753" d="M 1012 446 C 1008 409 1011 378 1022 352 C 1033 326 1049 306 1069 290 C 1089 274 1111 262 1137 255 C 1162 247 1187 244 1212 244 C 1248 244 1283 249 1319 261 C 1355 272 1391 290 1427 315 L 1565 119 C 1500 68 1437 32 1375 10 C 1313 -12 1248 -23 1180 -23 C 1098 -23 1030 -9 976 18 C 922 45 876 83 840 131 C 796 83 746 45 689 18 C 631 -9 566 -23 494 -23 C 430 -23 373 -12 321 9 C 269 31 225 62 188 102 C 151 142 122 190 102 247 C 82 304 72 368 72 440 C 72 528 86 612 114 692 C 142 772 181 842 232 904 C 282 965 342 1013 410 1047 C 478 1081 551 1098 627 1098 C 697 1098 760 1085 814 1059 C 868 1033 912 994 944 940 C 961 961 982 981 1006 1001 C 1030 1020 1056 1037 1085 1051 C 1113 1065 1144 1077 1177 1085 C 1209 1093 1244 1098 1280 1098 C 1350 1098 1411 1086 1461 1063 C 1511 1040 1553 1009 1585 969 C 1617 929 1641 883 1656 831 C 1671 778 1679 722 1679 662 C 1679 626 1676 590 1670 552 C 1664 514 1656 479 1647 446 L 1012 446 Z M 1413 659 C 1415 685 1414 709 1409 733 C 1404 756 1395 776 1381 794 C 1367 812 1350 826 1328 836 C 1306 846 1279 852 1247 852 C 1221 852 1198 847 1177 837 C 1156 827 1137 813 1121 796 C 1105 778 1091 758 1079 735 C 1067 711 1057 686 1049 659 L 1413 659 Z M 362 459 C 362 425 366 396 374 370 C 382 344 394 322 408 304 C 422 286 439 273 459 264 C 479 254 500 250 524 250 C 556 250 586 258 615 274 C 644 290 670 314 692 346 C 714 377 732 415 746 461 C 759 506 766 558 766 616 C 766 649 761 679 753 705 C 745 731 733 752 719 770 C 705 788 688 801 668 811 C 648 820 626 825 604 825 C 572 825 541 816 512 800 C 483 784 457 760 435 729 C 413 697 395 659 382 614 C 368 568 362 517 362 459 Z" unicode="œ" />
<glyph horiz-adv-x="1454" d="M 1425 1042 C 1425 973 1415 912 1396 858 C 1377 804 1351 758 1319 718 C 1286 678 1248 644 1205 618 C 1161 591 1115 571 1067 557 L 1243 0 L 936 0 L 770 516 L 467 516 L 377 0 L 90 0 L 342 1434 L 942 1434 C 1022 1434 1093 1425 1153 1407 C 1213 1389 1264 1363 1304 1329 C 1344 1295 1375 1253 1395 1205 C 1415 1157 1425 1102 1425 1042 Z M 1124 1004 C 1124 1053 1106 1090 1072 1116 C 1037 1142 984 1155 913 1155 L 580 1155 L 516 786 L 893 786 C 962 786 1018 804 1060 842 C 1102 880 1124 934 1124 1004 Z M 883 1526 L 643 1526 L 879 1853 L 1237 1853 L 883 1526 Z" unicode="Ŕ" />
<glyph horiz-adv-x="868" d="M 793 741 C 774 761 749 778 719 793 C 689 807 658 815 627 815 C 603 815 580 812 560 806 C 539 800 520 788 503 770 C 486 752 471 726 457 692 C 443 658 432 613 422 557 L 324 0 L 41 0 L 231 1075 L 514 1075 L 502 1004 C 526 1032 556 1054 591 1072 C 625 1089 665 1098 709 1098 C 757 1098 799 1089 835 1071 C 871 1053 898 1032 918 1008 L 793 741 Z M 628 1219 L 388 1219 L 624 1546 L 982 1546 L 628 1219 Z" unicode="ŕ" />
<glyph horiz-adv-x="1454" d="M 1425 1042 C 1425 973 1415 912 1396 858 C 1377 804 1351 758 1319 718 C 1286 678 1248 644 1205 618 C 1161 591 1115 571 1067 557 L 1243 0 L 936 0 L 770 516 L 467 516 L 377 0 L 90 0 L 342 1434 L 942 1434 C 1022 1434 1093 1425 1153 1407 C 1213 1389 1264 1363 1304 1329 C 1344 1295 1375 1253 1395 1205 C 1415 1157 1425 1102 1425 1042 Z M 1124 1004 C 1124 1053 1106 1090 1072 1116 C 1037 1142 984 1155 913 1155 L 580 1155 L 516 786 L 893 786 C 962 786 1018 804 1060 842 C 1102 880 1124 934 1124 1004 Z M 577 -491 L 419 -491 L 501 -98 L 771 -98 L 577 -491 Z" unicode="Ŗ" />
<glyph horiz-adv-x="868" d="M 793 741 C 774 761 749 778 719 793 C 689 807 658 815 627 815 C 603 815 580 812 560 806 C 539 800 520 788 503 770 C 486 752 471 726 457 692 C 443 658 432 613 422 557 L 324 0 L 41 0 L 231 1075 L 514 1075 L 502 1004 C 526 1032 556 1054 591 1072 C 625 1089 665 1098 709 1098 C 757 1098 799 1089 835 1071 C 871 1053 898 1032 918 1008 L 793 741 Z M 109 -491 L -49 -491 L 33 -98 L 303 -98 L 109 -491 Z" unicode="ŗ" />
<glyph horiz-adv-x="1454" d="M 1425 1042 C 1425 973 1415 912 1396 858 C 1377 804 1351 758 1319 718 C 1286 678 1248 644 1205 618 C 1161 591 1115 571 1067 557 L 1243 0 L 936 0 L 770 516 L 467 516 L 377 0 L 90 0 L 342 1434 L 942 1434 C 1022 1434 1093 1425 1153 1407 C 1213 1389 1264 1363 1304 1329 C 1344 1295 1375 1253 1395 1205 C 1415 1157 1425 1102 1425 1042 Z M 1124 1004 C 1124 1053 1106 1090 1072 1116 C 1037 1142 984 1155 913 1155 L 580 1155 L 516 786 L 893 786 C 962 786 1018 804 1060 842 C 1102 880 1124 934 1124 1004 Z M 983 1526 L 696 1526 L 504 1853 L 686 1853 L 864 1700 L 1096 1853 L 1290 1853 L 983 1526 Z" unicode="Ř" />
<glyph horiz-adv-x="868" d="M 793 741 C 774 761 749 778 719 793 C 689 807 658 815 627 815 C 603 815 580 812 560 806 C 539 800 520 788 503 770 C 486 752 471 726 457 692 C 443 658 432 613 422 557 L 324 0 L 41 0 L 231 1075 L 514 1075 L 502 1004 C 526 1032 556 1054 591 1072 C 625 1089 665 1098 709 1098 C 757 1098 799 1089 835 1071 C 871 1053 898 1032 918 1008 L 793 741 Z M 699 1219 L 412 1219 L 220 1546 L 402 1546 L 580 1393 L 812 1546 L 1006 1546 L 699 1219 Z" unicode="ř" />
<glyph horiz-adv-x="1346" d="M 1079 1014 C 1060 1037 1039 1059 1017 1080 C 994 1101 969 1120 942 1136 C 915 1152 886 1164 854 1174 C 822 1183 788 1188 750 1188 C 712 1188 680 1184 654 1177 C 627 1169 605 1159 589 1146 C 572 1133 560 1118 552 1101 C 544 1084 541 1066 541 1047 C 541 1026 545 1008 553 993 C 561 978 576 964 596 951 C 616 937 642 924 676 911 C 710 897 752 882 803 866 C 852 850 901 831 950 809 C 998 787 1042 760 1080 728 C 1118 696 1150 658 1174 614 C 1198 570 1210 519 1210 459 C 1210 377 1195 306 1167 246 C 1138 186 1098 136 1047 96 C 996 56 936 26 866 6 C 796 -13 721 -23 639 -23 C 566 -23 499 -14 437 1 C 375 17 320 39 271 67 C 221 94 178 125 142 161 C 105 197 75 234 53 274 L 287 440 C 313 404 341 375 372 351 C 402 327 434 307 468 293 C 502 278 537 267 573 261 C 609 255 645 252 682 252 C 712 252 741 255 769 261 C 797 267 821 277 842 291 C 862 305 879 322 891 344 C 903 366 909 392 909 424 C 909 442 904 460 894 476 C 884 492 868 508 846 523 C 824 538 794 553 757 569 C 720 584 675 600 621 618 C 565 634 515 654 469 677 C 423 700 383 727 350 758 C 316 789 290 825 272 865 C 253 905 244 952 244 1004 C 244 1084 258 1152 288 1209 C 317 1266 356 1313 406 1349 C 456 1385 513 1412 578 1430 C 642 1447 710 1456 782 1456 C 845 1456 903 1449 956 1435 C 1009 1421 1057 1403 1101 1379 C 1145 1355 1184 1328 1219 1296 C 1253 1264 1284 1229 1311 1192 L 1079 1014 Z M 823 1526 L 583 1526 L 819 1853 L 1177 1853 L 823 1526 Z" unicode="Ś" />
<glyph horiz-adv-x="1092" d="M 897 745 C 875 759 851 772 825 786 C 799 799 771 811 742 821 C 712 831 682 840 651 846 C 619 852 589 856 559 856 C 519 856 490 849 472 836 C 454 823 446 807 446 788 C 446 779 447 771 451 763 C 455 755 463 747 477 737 C 490 727 510 716 537 703 C 563 689 599 673 645 655 C 689 636 730 616 767 596 C 804 576 836 553 862 528 C 888 502 908 474 922 442 C 936 410 944 374 944 334 C 944 271 932 217 910 172 C 888 127 857 90 819 61 C 780 32 734 11 682 -2 C 630 -16 574 -23 514 -23 C 411 -23 316 -6 228 26 C 140 58 71 96 20 139 L 154 344 C 201 310 258 281 325 256 C 391 231 465 219 545 219 C 581 219 609 226 629 242 C 649 257 659 277 659 303 C 659 313 657 322 653 331 C 649 340 641 349 631 357 C 621 365 607 374 590 383 C 572 392 550 402 524 412 C 463 436 410 459 365 482 C 319 504 282 529 252 555 C 222 581 199 609 184 641 C 169 672 162 708 162 750 C 162 862 198 948 270 1008 C 342 1068 446 1098 580 1098 C 628 1098 674 1094 717 1086 C 760 1078 800 1069 837 1057 C 874 1045 908 1031 940 1016 C 972 1000 1000 985 1026 969 L 897 745 Z M 676 1219 L 436 1219 L 672 1546 L 1030 1546 L 676 1219 Z" unicode="ś" />
<glyph horiz-adv-x="1346" d="" unicode="Ŝ" />
<glyph horiz-adv-x="1092" d="" unicode="ŝ" />
<glyph horiz-adv-x="1346" d="M 1079 1014 C 1060 1037 1039 1059 1017 1080 C 994 1101 969 1120 942 1136 C 915 1152 886 1164 854 1174 C 822 1183 788 1188 750 1188 C 712 1188 680 1184 654 1177 C 627 1169 605 1159 589 1146 C 572 1133 560 1118 552 1101 C 544 1084 541 1066 541 1047 C 541 1026 545 1008 553 993 C 561 978 576 964 596 951 C 616 937 642 924 676 911 C 710 897 752 882 803 866 C 852 850 901 831 950 809 C 998 787 1042 760 1080 728 C 1118 696 1150 658 1174 614 C 1198 570 1210 519 1210 459 C 1210 377 1195 306 1167 246 C 1138 186 1098 136 1047 96 C 996 56 936 26 866 6 C 796 -13 721 -23 639 -23 C 566 -23 499 -14 437 1 C 375 17 320 39 271 67 C 221 94 178 125 142 161 C 105 197 75 234 53 274 L 287 440 C 313 404 341 375 372 351 C 402 327 434 307 468 293 C 502 278 537 267 573 261 C 609 255 645 252 682 252 C 712 252 741 255 769 261 C 797 267 821 277 842 291 C 862 305 879 322 891 344 C 903 366 909 392 909 424 C 909 442 904 460 894 476 C 884 492 868 508 846 523 C 824 538 794 553 757 569 C 720 584 675 600 621 618 C 565 634 515 654 469 677 C 423 700 383 727 350 758 C 316 789 290 825 272 865 C 253 905 244 952 244 1004 C 244 1084 258 1152 288 1209 C 317 1266 356 1313 406 1349 C 456 1385 513 1412 578 1430 C 642 1447 710 1456 782 1456 C 845 1456 903 1449 956 1435 C 1009 1421 1057 1403 1101 1379 C 1145 1355 1184 1328 1219 1296 C 1253 1264 1284 1229 1311 1192 L 1079 1014 Z M 801 -201 C 801 -231 795 -258 784 -282 C 772 -306 756 -326 735 -343 C 714 -359 689 -372 660 -381 C 630 -390 597 -395 561 -395 C 505 -395 452 -386 402 -369 C 352 -351 307 -328 269 -299 L 326 -225 C 352 -243 383 -259 417 -273 C 451 -286 485 -293 520 -293 C 550 -293 574 -287 594 -275 C 613 -263 623 -245 623 -223 C 623 -203 617 -190 606 -182 C 594 -174 578 -170 557 -170 C 549 -170 540 -171 530 -174 C 520 -176 512 -180 504 -184 L 434 -156 L 531 76 L 645 76 L 582 -86 C 593 -82 605 -79 617 -76 C 629 -73 643 -72 660 -72 C 701 -72 735 -83 761 -107 C 787 -130 801 -161 801 -201 Z" unicode="Ş" />
<glyph horiz-adv-x="1092" d="M 897 745 C 875 759 851 772 825 786 C 799 799 771 811 742 821 C 712 831 682 840 651 846 C 619 852 589 856 559 856 C 519 856 490 849 472 836 C 454 823 446 807 446 788 C 446 779 447 771 451 763 C 455 755 463 747 477 737 C 490 727 510 716 537 703 C 563 689 599 673 645 655 C 689 636 730 616 767 596 C 804 576 836 553 862 528 C 888 502 908 474 922 442 C 936 410 944 374 944 334 C 944 271 932 217 910 172 C 888 127 857 90 819 61 C 780 32 734 11 682 -2 C 630 -16 574 -23 514 -23 C 411 -23 316 -6 228 26 C 140 58 71 96 20 139 L 154 344 C 201 310 258 281 325 256 C 391 231 465 219 545 219 C 581 219 609 226 629 242 C 649 257 659 277 659 303 C 659 313 657 322 653 331 C 649 340 641 349 631 357 C 621 365 607 374 590 383 C 572 392 550 402 524 412 C 463 436 410 459 365 482 C 319 504 282 529 252 555 C 222 581 199 609 184 641 C 169 672 162 708 162 750 C 162 862 198 948 270 1008 C 342 1068 446 1098 580 1098 C 628 1098 674 1094 717 1086 C 760 1078 800 1069 837 1057 C 874 1045 908 1031 940 1016 C 972 1000 1000 985 1026 969 L 897 745 Z M 674 -201 C 674 -231 668 -258 657 -282 C 645 -306 629 -326 608 -343 C 587 -359 562 -372 533 -381 C 503 -390 470 -395 434 -395 C 378 -395 325 -386 275 -369 C 225 -351 180 -328 142 -299 L 199 -225 C 225 -243 256 -259 290 -273 C 324 -286 358 -293 393 -293 C 423 -293 447 -287 467 -275 C 486 -263 496 -245 496 -223 C 496 -203 490 -190 479 -182 C 467 -174 451 -170 430 -170 C 422 -170 413 -171 403 -174 C 393 -176 385 -180 377 -184 L 307 -156 L 404 76 L 518 76 L 455 -86 C 466 -82 478 -79 490 -76 C 502 -73 516 -72 533 -72 C 574 -72 608 -83 634 -107 C 660 -130 674 -161 674 -201 Z" unicode="ş" />
<glyph horiz-adv-x="1346" d="M 1079 1014 C 1060 1037 1039 1059 1017 1080 C 994 1101 969 1120 942 1136 C 915 1152 886 1164 854 1174 C 822 1183 788 1188 750 1188 C 712 1188 680 1184 654 1177 C 627 1169 605 1159 589 1146 C 572 1133 560 1118 552 1101 C 544 1084 541 1066 541 1047 C 541 1026 545 1008 553 993 C 561 978 576 964 596 951 C 616 937 642 924 676 911 C 710 897 752 882 803 866 C 852 850 901 831 950 809 C 998 787 1042 760 1080 728 C 1118 696 1150 658 1174 614 C 1198 570 1210 519 1210 459 C 1210 377 1195 306 1167 246 C 1138 186 1098 136 1047 96 C 996 56 936 26 866 6 C 796 -13 721 -23 639 -23 C 566 -23 499 -14 437 1 C 375 17 320 39 271 67 C 221 94 178 125 142 161 C 105 197 75 234 53 274 L 287 440 C 313 404 341 375 372 351 C 402 327 434 307 468 293 C 502 278 537 267 573 261 C 609 255 645 252 682 252 C 712 252 741 255 769 261 C 797 267 821 277 842 291 C 862 305 879 322 891 344 C 903 366 909 392 909 424 C 909 442 904 460 894 476 C 884 492 868 508 846 523 C 824 538 794 553 757 569 C 720 584 675 600 621 618 C 565 634 515 654 469 677 C 423 700 383 727 350 758 C 316 789 290 825 272 865 C 253 905 244 952 244 1004 C 244 1084 258 1152 288 1209 C 317 1266 356 1313 406 1349 C 456 1385 513 1412 578 1430 C 642 1447 710 1456 782 1456 C 845 1456 903 1449 956 1435 C 1009 1421 1057 1403 1101 1379 C 1145 1355 1184 1328 1219 1296 C 1253 1264 1284 1229 1311 1192 L 1079 1014 Z M 987 1536 L 700 1536 L 508 1863 L 690 1863 L 868 1710 L 1100 1863 L 1294 1863 L 987 1536 Z" unicode="Š" />
<glyph horiz-adv-x="1092" d="M 897 745 C 875 759 851 772 825 786 C 799 799 771 811 742 821 C 712 831 682 840 651 846 C 619 852 589 856 559 856 C 519 856 490 849 472 836 C 454 823 446 807 446 788 C 446 779 447 771 451 763 C 455 755 463 747 477 737 C 490 727 510 716 537 703 C 563 689 599 673 645 655 C 689 636 730 616 767 596 C 804 576 836 553 862 528 C 888 502 908 474 922 442 C 936 410 944 374 944 334 C 944 271 932 217 910 172 C 888 127 857 90 819 61 C 780 32 734 11 682 -2 C 630 -16 574 -23 514 -23 C 411 -23 316 -6 228 26 C 140 58 71 96 20 139 L 154 344 C 201 310 258 281 325 256 C 391 231 465 219 545 219 C 581 219 609 226 629 242 C 649 257 659 277 659 303 C 659 313 657 322 653 331 C 649 340 641 349 631 357 C 621 365 607 374 590 383 C 572 392 550 402 524 412 C 463 436 410 459 365 482 C 319 504 282 529 252 555 C 222 581 199 609 184 641 C 169 672 162 708 162 750 C 162 862 198 948 270 1008 C 342 1068 446 1098 580 1098 C 628 1098 674 1094 717 1086 C 760 1078 800 1069 837 1057 C 874 1045 908 1031 940 1016 C 972 1000 1000 985 1026 969 L 897 745 Z M 799 1219 L 512 1219 L 320 1546 L 502 1546 L 680 1393 L 912 1546 L 1106 1546 L 799 1219 Z" unicode="š" />
<glyph horiz-adv-x="1286" d="M 1305 1151 L 897 1151 L 694 0 L 408 0 L 610 1151 L 203 1151 L 252 1434 L 1354 1434 L 1305 1151 Z M 793 -201 C 793 -231 787 -258 776 -282 C 764 -306 748 -326 727 -343 C 706 -359 681 -372 652 -381 C 622 -390 589 -395 553 -395 C 497 -395 444 -386 394 -369 C 344 -351 299 -328 261 -299 L 318 -225 C 344 -243 375 -259 409 -273 C 443 -286 477 -293 512 -293 C 542 -293 566 -287 586 -275 C 605 -263 615 -245 615 -223 C 615 -203 609 -190 598 -182 C 586 -174 570 -170 549 -170 C 541 -170 532 -171 522 -174 C 512 -176 504 -180 496 -184 L 426 -156 L 523 76 L 637 76 L 574 -86 C 585 -82 597 -79 609 -76 C 621 -73 635 -72 652 -72 C 693 -72 727 -83 753 -107 C 779 -130 793 -161 793 -201 Z" unicode="Ţ" />
<glyph horiz-adv-x="897" d="M 813 809 L 563 809 L 487 377 C 485 367 484 359 484 352 C 483 344 483 337 483 330 C 483 298 491 276 509 265 C 526 253 550 248 582 248 C 610 248 636 253 660 265 C 684 276 709 292 735 313 L 643 33 C 619 16 587 2 547 -7 C 507 -17 471 -23 440 -23 C 364 -23 302 -1 255 42 C 207 86 184 147 184 227 C 184 249 186 273 190 301 L 281 809 L 100 809 L 147 1075 L 328 1075 L 377 1352 L 684 1493 L 610 1075 L 860 1075 L 813 809 Z M 607 -201 C 607 -231 601 -258 590 -282 C 578 -306 562 -326 541 -343 C 520 -359 495 -372 466 -381 C 436 -390 403 -395 367 -395 C 311 -395 258 -386 208 -369 C 158 -351 113 -328 75 -299 L 132 -225 C 158 -243 189 -259 223 -273 C 257 -286 291 -293 326 -293 C 356 -293 380 -287 400 -275 C 419 -263 429 -245 429 -223 C 429 -203 423 -190 412 -182 C 400 -174 384 -170 363 -170 C 355 -170 346 -171 336 -174 C 326 -176 318 -180 310 -184 L 240 -156 L 337 76 L 451 76 L 388 -86 C 399 -82 411 -79 423 -76 C 435 -73 449 -72 466 -72 C 507 -72 541 -83 567 -107 C 593 -130 607 -161 607 -201 Z" unicode="ţ" />
<glyph horiz-adv-x="1286" d="M 1305 1151 L 897 1151 L 694 0 L 408 0 L 610 1151 L 203 1151 L 252 1434 L 1354 1434 L 1305 1151 Z M 940 1526 L 653 1526 L 461 1853 L 643 1853 L 821 1700 L 1053 1853 L 1247 1853 L 940 1526 Z" unicode="Ť" />
<glyph horiz-adv-x="897" d="M 813 809 L 563 809 L 487 377 C 485 367 484 359 484 352 C 483 344 483 337 483 330 C 483 298 491 276 509 265 C 526 253 550 248 582 248 C 610 248 636 253 660 265 C 684 276 709 292 735 313 L 643 33 C 619 16 587 2 547 -7 C 507 -17 471 -23 440 -23 C 364 -23 302 -1 255 42 C 207 86 184 147 184 227 C 184 249 186 273 190 301 L 281 809 L 100 809 L 147 1075 L 328 1075 L 377 1352 L 684 1493 L 610 1075 L 860 1075 L 813 809 Z M 874 1155 L 716 1155 L 823 1621 L 1093 1621 L 874 1155 Z" unicode="ť" />
<glyph horiz-adv-x="1286" d="" unicode="Ŧ" />
<glyph horiz-adv-x="897" d="" unicode="ŧ" />
<glyph horiz-adv-x="1501" d="" unicode="Ũ" />
<glyph horiz-adv-x="1188" d="" unicode="ũ" />
<glyph horiz-adv-x="1501" d="M 1337 594 C 1319 492 1293 403 1261 327 C 1228 250 1186 186 1135 134 C 1083 82 1022 42 950 16 C 878 -9 794 -23 698 -23 C 622 -23 552 -13 489 6 C 425 26 371 56 325 96 C 279 136 244 188 218 250 C 192 312 180 385 180 471 C 180 494 181 523 183 557 C 185 591 190 626 197 662 L 332 1434 L 618 1434 L 487 692 C 483 667 479 638 476 606 C 472 574 471 540 471 506 C 471 422 493 360 537 319 C 581 278 646 258 733 258 C 774 258 812 264 847 277 C 881 289 912 309 939 337 C 966 364 989 399 1008 442 C 1027 485 1042 537 1053 598 L 1198 1434 L 1485 1434 L 1337 594 Z M 1227 1556 L 633 1556 L 670 1771 L 1264 1771 L 1227 1556 Z" unicode="Ū" />
<glyph horiz-adv-x="1188" d="M 100 311 C 100 333 101 359 104 387 C 106 415 110 442 115 469 L 221 1075 L 504 1075 L 401 494 C 397 475 395 458 394 442 C 393 426 393 412 393 399 C 393 348 405 309 429 283 C 453 257 491 244 543 244 C 571 244 596 248 620 257 C 643 265 664 279 682 299 C 700 318 715 343 728 374 C 741 404 752 442 760 487 L 862 1075 L 1145 1075 L 956 0 L 674 0 L 686 72 C 652 40 614 16 574 0 C 534 -15 490 -23 442 -23 C 326 -23 240 5 184 63 C 128 120 100 203 100 311 Z M 1018 1249 L 424 1249 L 461 1464 L 1055 1464 L 1018 1249 Z" unicode="ū" />
<glyph horiz-adv-x="1501" d="" unicode="Ŭ" />
<glyph horiz-adv-x="1188" d="" unicode="ŭ" />
<glyph horiz-adv-x="1501" d="M 1337 594 C 1319 492 1293 403 1261 327 C 1228 250 1186 186 1135 134 C 1083 82 1022 42 950 16 C 878 -9 794 -23 698 -23 C 622 -23 552 -13 489 6 C 425 26 371 56 325 96 C 279 136 244 188 218 250 C 192 312 180 385 180 471 C 180 494 181 523 183 557 C 185 591 190 626 197 662 L 332 1434 L 618 1434 L 487 692 C 483 667 479 638 476 606 C 472 574 471 540 471 506 C 471 422 493 360 537 319 C 581 278 646 258 733 258 C 774 258 812 264 847 277 C 881 289 912 309 939 337 C 966 364 989 399 1008 442 C 1027 485 1042 537 1053 598 L 1198 1434 L 1485 1434 L 1337 594 Z M 1211 1690 C 1211 1650 1204 1614 1190 1581 C 1176 1547 1156 1519 1132 1495 C 1107 1471 1078 1452 1044 1438 C 1010 1424 974 1418 935 1418 C 895 1418 859 1424 825 1438 C 791 1452 761 1471 737 1495 C 712 1519 693 1547 679 1581 C 665 1614 658 1650 658 1690 C 658 1729 665 1765 679 1799 C 693 1833 712 1862 737 1887 C 761 1911 791 1931 825 1945 C 859 1959 895 1966 935 1966 C 974 1966 1010 1959 1044 1945 C 1078 1931 1107 1911 1132 1887 C 1156 1862 1176 1833 1190 1799 C 1204 1765 1211 1729 1211 1690 Z M 1056 1690 C 1056 1707 1052 1723 1046 1738 C 1040 1753 1031 1766 1020 1777 C 1009 1788 996 1797 982 1803 C 967 1809 951 1813 935 1813 C 917 1813 901 1809 887 1803 C 872 1797 859 1788 849 1777 C 838 1766 829 1753 823 1738 C 817 1723 814 1707 814 1690 C 814 1672 817 1656 823 1641 C 829 1626 838 1613 849 1602 C 859 1591 872 1582 887 1576 C 901 1570 917 1567 935 1567 C 951 1567 967 1570 982 1576 C 996 1582 1009 1591 1020 1602 C 1031 1613 1040 1626 1046 1641 C 1052 1656 1056 1672 1056 1690 Z" unicode="Ů" />
<glyph horiz-adv-x="1188" d="M 100 311 C 100 333 101 359 104 387 C 106 415 110 442 115 469 L 221 1075 L 504 1075 L 401 494 C 397 475 395 458 394 442 C 393 426 393 412 393 399 C 393 348 405 309 429 283 C 453 257 491 244 543 244 C 571 244 596 248 620 257 C 643 265 664 279 682 299 C 700 318 715 343 728 374 C 741 404 752 442 760 487 L 862 1075 L 1145 1075 L 956 0 L 674 0 L 686 72 C 652 40 614 16 574 0 C 534 -15 490 -23 442 -23 C 326 -23 240 5 184 63 C 128 120 100 203 100 311 Z M 1036 1491 C 1036 1451 1029 1415 1015 1382 C 1001 1348 981 1320 957 1296 C 932 1272 903 1253 869 1239 C 835 1225 799 1219 760 1219 C 720 1219 684 1225 650 1239 C 616 1253 586 1272 562 1296 C 537 1320 518 1348 504 1382 C 490 1415 483 1451 483 1491 C 483 1530 490 1566 504 1600 C 518 1634 537 1663 562 1688 C 586 1712 616 1732 650 1746 C 684 1760 720 1767 760 1767 C 799 1767 835 1760 869 1746 C 903 1732 932 1712 957 1688 C 981 1663 1001 1634 1015 1600 C 1029 1566 1036 1530 1036 1491 Z M 881 1491 C 881 1508 877 1524 871 1539 C 865 1554 856 1567 845 1578 C 834 1589 821 1598 807 1604 C 792 1610 776 1614 760 1614 C 742 1614 726 1610 712 1604 C 697 1598 684 1589 674 1578 C 663 1567 654 1554 648 1539 C 642 1524 639 1508 639 1491 C 639 1473 642 1457 648 1442 C 654 1427 663 1414 674 1403 C 684 1392 697 1383 712 1377 C 726 1371 742 1368 760 1368 C 776 1368 792 1371 807 1377 C 821 1383 834 1392 845 1403 C 856 1414 865 1427 871 1442 C 877 1457 881 1473 881 1491 Z" unicode="ů" />
<glyph horiz-adv-x="1501" d="M 1337 594 C 1319 492 1293 403 1261 327 C 1228 250 1186 186 1135 134 C 1083 82 1022 42 950 16 C 878 -9 794 -23 698 -23 C 622 -23 552 -13 489 6 C 425 26 371 56 325 96 C 279 136 244 188 218 250 C 192 312 180 385 180 471 C 180 494 181 523 183 557 C 185 591 190 626 197 662 L 332 1434 L 618 1434 L 487 692 C 483 667 479 638 476 606 C 472 574 471 540 471 506 C 471 422 493 360 537 319 C 581 278 646 258 733 258 C 774 258 812 264 847 277 C 881 289 912 309 939 337 C 966 364 989 399 1008 442 C 1027 485 1042 537 1053 598 L 1198 1434 L 1485 1434 L 1337 594 Z M 1231 1526 L 991 1526 L 1226 1853 L 1585 1853 L 1231 1526 Z M 780 1526 L 540 1526 L 776 1853 L 1134 1853 L 780 1526 Z" unicode="Ű" />
<glyph horiz-adv-x="1188" d="M 100 311 C 100 333 101 359 104 387 C 106 415 110 442 115 469 L 221 1075 L 504 1075 L 401 494 C 397 475 395 458 394 442 C 393 426 393 412 393 399 C 393 348 405 309 429 283 C 453 257 491 244 543 244 C 571 244 596 248 620 257 C 643 265 664 279 682 299 C 700 318 715 343 728 374 C 741 404 752 442 760 487 L 862 1075 L 1145 1075 L 956 0 L 674 0 L 686 72 C 652 40 614 16 574 0 C 534 -15 490 -23 442 -23 C 326 -23 240 5 184 63 C 128 120 100 203 100 311 Z M 1020 1219 L 780 1219 L 1015 1546 L 1374 1546 L 1020 1219 Z M 569 1219 L 329 1219 L 565 1546 L 923 1546 L 569 1219 Z" unicode="ű" />
<glyph horiz-adv-x="1501" d="M 635 -20 C 582 -16 529 -6 475 11 C 421 28 371 57 326 97 C 280 137 245 188 219 250 C 193 312 180 385 180 471 C 180 494 181 523 184 558 C 186 592 191 627 197 662 L 332 1434 L 618 1434 L 487 692 C 483 667 479 638 476 606 C 472 574 471 540 471 506 C 471 460 477 422 489 392 C 501 362 518 336 540 316 C 562 296 590 281 622 272 C 654 262 691 258 733 258 C 774 258 812 264 847 277 C 881 289 912 309 939 337 C 966 364 989 399 1008 442 C 1027 485 1042 537 1053 598 L 1198 1434 L 1485 1434 L 1337 594 C 1319 490 1293 400 1261 324 C 1228 248 1189 187 1143 141 C 1097 95 1051 61 1006 41 C 961 20 923 6 892 -1 C 874 -9 855 -18 835 -30 C 815 -41 795 -55 775 -72 C 755 -89 739 -107 729 -126 C 719 -144 714 -162 714 -179 C 714 -192 717 -202 725 -210 C 733 -217 742 -221 753 -221 C 766 -221 778 -217 790 -209 C 802 -201 811 -193 819 -184 L 911 -264 C 887 -306 855 -341 816 -369 C 776 -396 729 -410 674 -410 C 648 -410 624 -406 601 -399 C 577 -391 557 -380 539 -366 C 521 -351 508 -334 499 -314 C 489 -294 485 -274 485 -252 C 485 -222 490 -194 501 -168 C 512 -142 526 -119 544 -98 C 562 -76 579 -59 595 -47 C 611 -35 625 -26 635 -20 Z" unicode="Ų" />
<glyph horiz-adv-x="1188" d="M 100 311 C 100 333 101 359 104 387 C 106 415 110 442 115 469 L 221 1075 L 504 1075 L 401 494 C 397 475 395 458 394 442 C 393 426 393 412 393 399 C 393 348 405 309 429 283 C 453 257 491 244 543 244 C 571 244 596 248 620 257 C 643 265 664 279 682 299 C 700 318 715 343 728 374 C 741 404 752 442 760 487 L 862 1075 L 1145 1075 L 956 0 L 674 0 L 686 72 C 652 40 614 16 574 0 C 534 -15 490 -23 442 -23 C 326 -23 240 5 184 63 C 128 120 100 203 100 311 Z M 895 0 C 876 -7 856 -16 835 -28 C 813 -40 794 -53 776 -68 C 758 -83 743 -100 731 -119 C 719 -137 714 -157 714 -179 C 714 -192 717 -202 725 -210 C 733 -217 742 -221 753 -221 C 766 -221 778 -217 790 -209 C 802 -201 811 -193 819 -184 L 911 -264 C 887 -306 855 -341 816 -369 C 776 -396 729 -410 674 -410 C 619 -410 574 -395 538 -365 C 502 -335 485 -297 485 -252 C 485 -222 490 -194 501 -168 C 512 -142 526 -119 544 -98 C 562 -76 582 -57 605 -41 C 627 -25 650 -11 674 0 L 895 0 Z" unicode="ų" />
<glyph horiz-adv-x="1792" d="" unicode="Ŵ" />
<glyph horiz-adv-x="1511" d="" unicode="ŵ" />
<glyph horiz-adv-x="1454" d="" unicode="Ŷ" />
<glyph horiz-adv-x="1200" d="" unicode="ŷ" />
<glyph horiz-adv-x="1454" d="M 877 567 L 776 0 L 489 0 L 588 561 L 203 1434 L 514 1434 L 765 828 L 1235 1434 L 1567 1434 L 877 567 Z M 1284 1663 C 1284 1641 1279 1621 1271 1603 C 1263 1584 1251 1567 1237 1553 C 1222 1538 1205 1526 1186 1518 C 1167 1510 1147 1506 1127 1506 C 1105 1506 1084 1510 1064 1518 C 1044 1526 1027 1538 1013 1553 C 998 1567 986 1584 978 1603 C 969 1621 965 1641 965 1663 C 965 1685 969 1705 978 1725 C 986 1744 998 1761 1013 1776 C 1027 1790 1044 1802 1064 1810 C 1084 1818 1105 1823 1127 1823 C 1147 1823 1167 1818 1186 1810 C 1205 1802 1222 1790 1237 1776 C 1251 1761 1263 1744 1271 1725 C 1279 1705 1284 1685 1284 1663 Z M 842 1663 C 842 1641 837 1621 829 1603 C 820 1584 808 1567 794 1553 C 779 1538 762 1526 743 1518 C 723 1510 703 1506 682 1506 C 660 1506 640 1510 621 1518 C 601 1526 584 1538 570 1553 C 555 1567 543 1584 535 1603 C 526 1621 522 1641 522 1663 C 522 1685 526 1705 535 1725 C 543 1744 555 1761 570 1776 C 584 1790 601 1802 621 1810 C 640 1818 660 1823 682 1823 C 703 1823 723 1818 743 1810 C 762 1802 779 1790 794 1776 C 808 1761 820 1744 829 1725 C 837 1705 842 1685 842 1663 Z" unicode="Ÿ" />
<glyph horiz-adv-x="1401" d="M 1366 1180 L 461 262 L 1214 262 L 1167 0 L 45 0 L 90 254 L 1001 1171 L 293 1171 L 340 1434 L 1411 1434 L 1366 1180 Z M 885 1526 L 645 1526 L 881 1853 L 1239 1853 L 885 1526 Z" unicode="Ź" />
<glyph horiz-adv-x="1126" d="M 1063 870 L 470 256 L 954 256 L 909 0 L 29 0 L 63 205 L 682 819 L 207 819 L 252 1075 L 1098 1075 L 1063 870 Z M 756 1219 L 516 1219 L 752 1546 L 1110 1546 L 756 1219 Z" unicode="ź" />
<glyph horiz-adv-x="1401" d="M 1366 1180 L 461 262 L 1214 262 L 1167 0 L 45 0 L 90 254 L 1001 1171 L 293 1171 L 340 1434 L 1411 1434 L 1366 1180 Z M 1053 1683 C 1053 1661 1048 1641 1040 1623 C 1031 1604 1019 1587 1005 1573 C 991 1558 974 1546 955 1538 C 935 1530 915 1526 895 1526 C 873 1526 852 1530 832 1538 C 812 1546 795 1558 781 1573 C 767 1587 755 1604 747 1623 C 738 1641 734 1661 734 1683 C 734 1705 738 1725 747 1745 C 755 1764 767 1781 781 1796 C 795 1810 812 1822 832 1830 C 852 1838 873 1843 895 1843 C 915 1843 935 1838 955 1830 C 974 1822 991 1810 1005 1796 C 1019 1781 1031 1764 1040 1745 C 1048 1725 1053 1705 1053 1683 Z" unicode="Ż" />
<glyph horiz-adv-x="1126" d="M 1063 870 L 470 256 L 954 256 L 909 0 L 29 0 L 63 205 L 682 819 L 207 819 L 252 1075 L 1098 1075 L 1063 870 Z M 868 1376 C 868 1354 863 1334 855 1316 C 846 1297 834 1280 820 1266 C 806 1251 789 1239 770 1231 C 750 1223 730 1219 710 1219 C 688 1219 667 1223 647 1231 C 627 1239 610 1251 596 1266 C 582 1280 570 1297 562 1316 C 553 1334 549 1354 549 1376 C 549 1398 553 1418 562 1438 C 570 1457 582 1474 596 1489 C 610 1503 627 1515 647 1523 C 667 1531 688 1536 710 1536 C 730 1536 750 1531 770 1523 C 789 1515 806 1503 820 1489 C 834 1474 846 1457 855 1438 C 863 1418 868 1398 868 1376 Z" unicode="ż" />
<glyph horiz-adv-x="1401" d="M 1366 1180 L 461 262 L 1214 262 L 1167 0 L 45 0 L 90 254 L 1001 1171 L 293 1171 L 340 1434 L 1411 1434 L 1366 1180 Z M 1009 1526 L 722 1526 L 530 1853 L 712 1853 L 890 1700 L 1122 1853 L 1316 1853 L 1009 1526 Z" unicode="Ž" />
<glyph horiz-adv-x="1126" d="M 1063 870 L 470 256 L 954 256 L 909 0 L 29 0 L 63 205 L 682 819 L 207 819 L 252 1075 L 1098 1075 L 1063 870 Z M 846 1219 L 559 1219 L 367 1546 L 549 1546 L 727 1393 L 959 1546 L 1153 1546 L 846 1219 Z" unicode="ž" />
<glyph horiz-adv-x="750" d="" unicode="ſ" />
<glyph horiz-adv-x="1270" d="M 1153 1219 C 1134 1225 1109 1230 1079 1234 C 1048 1238 1012 1241 970 1241 C 920 1241 882 1231 856 1211 C 829 1191 811 1159 802 1116 L 786 1038 L 1081 1038 L 1034 811 L 743 811 L 569 0 L 280 0 L 454 811 L 231 811 L 280 1038 L 503 1038 L 520 1126 C 532 1184 549 1234 572 1276 C 594 1318 623 1352 657 1379 C 691 1405 732 1425 779 1437 C 825 1449 878 1456 938 1456 C 993 1456 1042 1452 1086 1446 C 1130 1440 1166 1431 1196 1421 L 1153 1219 Z" unicode="ƒ" />
<glyph horiz-adv-x="1528" d="" unicode="Ǻ" />
<glyph horiz-adv-x="1130" d="" unicode="ǻ" />
<glyph horiz-adv-x="2118" d="" unicode="Ǽ" />
<glyph horiz-adv-x="1718" d="" unicode="ǽ" />
<glyph horiz-adv-x="1464" d="" unicode="Ǿ" />
<glyph horiz-adv-x="1128" d="" unicode="ǿ" />
<glyph horiz-adv-x="1346" d="" unicode="Ș" />
<glyph horiz-adv-x="1092" d="" unicode="ș" />
<glyph horiz-adv-x="1286" d="" unicode="Ț" />
</font>
</defs>
</svg>
