<?xml version="1.0" standalone="no"?>
<!DOCTYPE svg PUBLIC "-//W3C//DTD SVG 1.1//EN" "http://www.w3.org/Graphics/SVG/1.1/DTD/svg11.dtd" >
<svg>
<metadata>
Created by FontForge 20090914 at Fri Mar 21 00:34:48 2014
 By www-data
[c] Copyright 1993, Tobias Frere-Jones. Designed by Tobias Frere-Jones. Produced by The Font Bureau, Inc. All rights reserved.
</metadata>
<defs>
<font id="Interstate-BoldCondensed" horiz-adv-x="770" >
  <font-face 
    font-family="Interstate Cond"
    font-weight="700"
    font-stretch="condensed"
    units-per-em="1000"
    panose-1="0 0 0 0 0 0 0 0 0 0"
    ascent="750"
    descent="-250"
    x-height="525"
    cap-height="700"
    bbox="-68 -196 1205 910.004"
    underline-thickness="20"
    underline-position="-113"
    unicode-range="U+000D-U+FB02"
  />
<missing-glyph horiz-adv-x="500" 
 />
    <glyph glyph-name=".notdef" horiz-adv-x="500" 
 />
    <glyph glyph-name="nonmarkingreturn" unicode="&#xd;" horiz-adv-x="250" 
 />
    <glyph glyph-name="space" unicode=" " horiz-adv-x="230" 
 />
    <glyph glyph-name="exclam" unicode="!" horiz-adv-x="265" 
d="M176 210h-87l-19 154v336h125v-336zM213 70c0 -22 -8 -41 -24 -57s-35 -24 -57 -24s-41 8 -57 24s-24 35 -24 57s8 41 24 57s35 24 57 24s41 -8 57 -24s24 -35 24 -57z" />
    <glyph glyph-name="quotedbl" unicode="&#x22;" horiz-adv-x="471" 
d="M386 373h-80l-32 327h144zM165 373h-80l-32 327h144z" />
    <glyph glyph-name="numbersign" unicode="#" horiz-adv-x="660" 
d="M515 140v-140h-118v140h-134v-140h-118v140h-100v108h100v204h-100v108h100v140h118v-140h134v140h118v-140h100v-108h-100v-204h100v-108h-100zM397 452h-134v-204h134v204z" />
    <glyph glyph-name="dollar" unicode="$" horiz-adv-x="471" 
d="M443 194c0 -47.333 -12.333 -87.332 -37 -119.999s-59.334 -55 -104.001 -67v-87h-126v85c-32.667 8 -61.334 21.5 -86.001 40.5s-46.667 40.167 -66 63.5l85 86c21.333 -27.333 42.833 -47.5 64.5 -60.5s43.167 -19.5 64.5 -19.5c26 0 45.5 6.83301 58.5 20.5
s19.5 32.167 19.5 55.5c0 20 -7.5 38 -22.5 54s-43.167 34.333 -84.5 55c-26 13.333 -49.333 26.833 -70 40.5s-38.167 28.834 -52.5 45.501s-25.333 35.667 -33 57s-11.5 46.333 -11.5 75c0 42.667 11.833 79.667 35.5 111s56.5 52.666 98.5 63.999v87h126v-87
c26 -6.66699 49.167 -17.834 69.5 -33.501s39.5 -35.167 57.5 -58.5l-83 -78c-10 11.333 -19.167 21 -27.5 29s-16.666 14.5 -24.999 19.5s-17.166 8.5 -26.499 10.5s-20 3 -32 3c-20 0 -36 -5.83301 -48 -17.5s-18 -26.167 -18 -43.5c0 -10.667 1.66699 -20.167 5 -28.5
s8.83301 -16.333 16.5 -24s18 -15.667 31 -24s28.833 -17.5 47.5 -27.5c30 -16 56 -31.333 78 -46s40.167 -30.334 54.5 -47.001s24.833 -35.667 31.5 -57s10 -46.666 10 -75.999z" />
    <glyph glyph-name="percent" unicode="%" horiz-adv-x="861" 
d="M346 494c0 -66.667 -13.833 -119.668 -41.5 -159.001s-67.5 -59 -119.5 -59s-91.333 19.333 -118 58s-40 91.334 -40 158.001c0 68 13.5 121.5 40.5 160.5s66.833 58.5 119.5 58.5c54 0 94 -19.5 120 -58.5s39 -91.833 39 -158.5zM301 -0.000976562h-101l359 700h101z
M834 206.999c0 -66.667 -13.833 -119.668 -41.5 -159.001s-67.5 -59 -119.5 -59s-91.333 19.333 -118 58s-40 91.334 -40 158.001c0 68 13.5 121.5 40.5 160.5s66.833 58.5 119.5 58.5c54 0 94 -19.5 120 -58.5s39 -91.833 39 -158.5zM244 491.998c0 42 -4 74 -12 96
s-23.333 33 -46 33s-37.834 -10.667 -45.501 -32s-11.5 -53 -11.5 -95s4 -74 12 -96s23.333 -33 46 -33s37.834 11.667 45.501 35s11.5 54 11.5 92zM732 204.998c0 42 -4 74 -12 96s-23.333 33 -46 33s-37.834 -10.667 -45.501 -32s-11.5 -53 -11.5 -95s4 -74 12 -96
s23.333 -33 46 -33s37.834 11.667 45.501 35s11.5 54 11.5 92z" />
    <glyph glyph-name="ampersand" unicode="&#x26;" horiz-adv-x="542" 
d="M399 0l-33.9961 50.001c-20 -19.333 -42 -34.333 -66 -45s-49.667 -16 -77 -16c-64 0 -111.667 16.667 -143 50s-47 79.333 -47 138c0 40 9.16699 75.667 27.5 107s46.833 61 85.5 89l-24 36c-15.333 22 -27.5 43.5 -36.5 64.5s-13.5 44.5 -13.5 70.5
c0 54 17 95.333 51 124s77.333 43 130 43c36 0 67.667 -4.83301 95 -14.5s54.666 -24.5 81.999 -44.5l-58 -102c-19.333 14.667 -38.5 25.667 -57.5 33s-39.833 11 -62.5 11c-16.667 0 -30 -5 -40 -15s-15 -22 -15 -36c0 -16 2.66699 -29.5 8 -40.5
s13.666 -25.167 24.999 -42.5l135 -205c5.33301 15.333 10.166 31.166 14.499 47.499s8.16602 33.5 11.499 51.5l94 -42c-11.333 -61.333 -28 -115.333 -50 -162l99 -150h-134zM205.004 285.001c-21.333 -17.333 -35.833 -34.5 -43.5 -51.5s-11.5 -34.5 -11.5 -52.5
c0 -23.333 6.5 -42 19.5 -56s31.5 -21 55.5 -21c30 0 56.333 12 79 36z" />
    <glyph glyph-name="quotesingle" unicode="'" horiz-adv-x="255" 
d="M170 373h-85l-32 327h149z" />
    <glyph glyph-name="parenleft" unicode="(" horiz-adv-x="325" 
d="M223 -110c-24 23.333 -46.834 49.499 -68.501 78.499s-40.667 60.833 -57 95.5s-29.166 71.667 -38.499 111s-14 81 -14 125c0 45.333 4.5 87.833 13.5 127.5s21.5 76.667 37.5 111s34.833 66.333 56.5 96s45.167 56.834 70.5 81.501l70 -53
c-37.333 -44.667 -66.5 -96.334 -87.5 -155.001s-31.5 -126.334 -31.5 -203.001c0 -41.333 2.83301 -79.166 8.5 -113.499s13.667 -66.166 24 -95.499s22.833 -56.5 37.5 -81.5s31 -48.833 49 -71.5z" />
    <glyph glyph-name="parenright" unicode=")" horiz-adv-x="325" 
d="M280 306c0 -45.333 -4.49902 -87.832 -13.499 -127.499s-21.5 -76.667 -37.5 -111s-34.833 -66.333 -56.5 -96s-45.167 -56.834 -70.5 -81.501l-70 53c37.333 44.667 66.5 96.334 87.5 155.001s31.5 126.334 31.5 203.001c0 41.333 -2.83301 79.166 -8.5 113.499
s-13.667 66.166 -24 95.499s-22.833 56.5 -37.5 81.5s-31 48.833 -49 71.5l70 53c24 -23.333 46.833 -49.5 68.5 -78.5s40.667 -60.833 57 -95.5s29.166 -71.667 38.499 -111s14 -81 14 -125z" />
    <glyph glyph-name="asterisk" unicode="*" horiz-adv-x="440" 
d="M367 362l-109 73l10 -131h-96l9 133l-110 -74l-46 81l127 58l-127 58l46 82l110 -74l-9 132h96l-10 -131l109 74l48 -82l-129 -58l129 -59z" />
    <glyph glyph-name="plus" unicode="+" horiz-adv-x="513" 
d="M316 287v-178h-119v178h-162v114h162v178h119v-178h162v-114h-162z" />
    <glyph glyph-name="comma" unicode="," horiz-adv-x="246" 
d="M131 -112h-82l13 259h143z" />
    <glyph glyph-name="hyphen" unicode="-" horiz-adv-x="345" 
d="M45 302v122h255v-122h-255z" />
    <glyph glyph-name="period" unicode="." horiz-adv-x="246" 
d="M206 72c0 -22.667 -8.16699 -42.167 -24.5 -58.5s-35.833 -24.5 -58.5 -24.5s-42.167 8.16699 -58.5 24.5s-24.5 35.833 -24.5 58.5s8.16699 42.167 24.5 58.5s35.833 24.5 58.5 24.5s42.167 -8.16699 58.5 -24.5s24.5 -35.833 24.5 -58.5z" />
    <glyph glyph-name="slash" unicode="/" horiz-adv-x="405" 
d="M127 -90h-125l276 880h125z" />
    <glyph glyph-name="zero" unicode="0" horiz-adv-x="528" 
d="M485 351c0 -50.667 -4.00195 -98 -12.002 -142s-20.833 -82.333 -38.5 -115s-40.667 -58.334 -69 -77.001s-62.833 -28 -103.5 -28s-75.167 9.33301 -103.5 28s-51.166 44.167 -68.499 76.5s-30 70.5 -38 114.5s-12 91 -12 141c0 50.667 4 98 12 142s21 82.333 39 115
s41.167 58.334 69.5 77.001s62.833 28 103.5 28s75 -9.33301 103 -28s50.833 -44.167 68.5 -76.5s30.334 -70.5 38.001 -114.5s11.5 -91 11.5 -141zM357.998 349c0 79.333 -7.5 139.166 -22.5 179.499s-39.5 60.5 -73.5 60.5s-58.333 -19.833 -73 -59.5
s-22 -99.167 -22 -178.5s7.66699 -139.166 23 -179.499s40 -60.5 74 -60.5c33.333 0 57.333 19.833 72 59.5s22 99.167 22 178.5z" />
    <glyph glyph-name="one" unicode="1" horiz-adv-x="315" 
d="M117 0l-0.000976562 521h-95v78c34.667 3.33301 60.334 14.5 77.001 33.5s28.667 41.5 36 67.5h107v-700h-125z" />
    <glyph glyph-name="two" unicode="2" horiz-adv-x="520" 
d="M45 0c2 53.333 7.66699 99.667 17 139s22.5 74.166 39.5 104.499s38 57.666 63 81.999s53.833 48.5 86.5 72.5c24 17.333 41 34 51 50s15 34.667 15 56c0 54.667 -26.667 82 -80 82c-22 0 -42 -5.66699 -60 -17s-35.333 -26.666 -52 -45.999l-78 91
c23.333 30 50.833 53.667 82.5 71s69.167 26 112.5 26c60.667 0 109.5 -16.167 146.5 -48.5s55.5 -79.166 55.5 -140.499c0 -48.667 -10.833 -89 -32.5 -121s-49.167 -60.667 -82.5 -86c-24 -18 -44.667 -34.5 -62 -49.5s-31.833 -30 -43.5 -45s-20.5 -30.5 -26.5 -46.5
s-9.66699 -33.333 -11 -52h260v-122h-401z" />
    <glyph glyph-name="three" unicode="3" horiz-adv-x="508" 
d="M456 210c0 -68.667 -19.666 -122.667 -58.999 -162s-94.333 -59 -165 -59c-47.333 0 -88 10.333 -122 31s-65 53 -93 97l99 70c19.333 -28 38.333 -47.5 57 -58.5s39.667 -16.5 63 -16.5c30 0 53.167 8.66699 69.5 26s24.5 40.333 24.5 69c0 36 -10.5 61.833 -31.5 77.5
s-47.833 23.5 -80.5 23.5h-48v121h49c29.333 0 51.833 6.33301 67.5 19s23.5 31.667 23.5 57c0 23.333 -6.16699 42.833 -18.5 58.5s-33.5 23.5 -63.5 23.5c-19.333 0 -36.5 -4.16699 -51.5 -12.5s-31.5 -21.5 -49.5 -39.5l-85 85c12.667 14 25.5 26.667 38.5 38
s27.167 21 42.5 29s32.166 14 50.499 18s39.166 6 62.499 6c30 0 57.333 -4.5 82 -13.5s45.834 -21.833 63.501 -38.5s31.167 -36.667 40.5 -60s14 -49.666 14 -78.999c0 -40 -9 -71.5 -27 -94.5s-41.667 -39.833 -71 -50.5c15.333 -4 30 -10.333 44 -19
s26.5 -19.667 37.5 -33s19.833 -29.333 26.5 -48s10 -40.334 10 -65.001z" />
    <glyph glyph-name="four" unicode="4" horiz-adv-x="510" 
d="M413 143v-143h-116v143h-275v99l258 458h133v-450h72v-107h-72zM300 536c-5.33301 -13.333 -11.999 -28.668 -19.999 -46.001s-17.667 -36.666 -29 -57.999l-55 -102l-24 -42.5l-23 -38.5c10 0 22.333 0.166992 37 0.5s29.667 0.5 45 0.5h66v169
c0 25.333 0.166992 46.833 0.5 64.5s1.16602 35.167 2.49902 52.5z" />
    <glyph glyph-name="five" unicode="5" horiz-adv-x="497" 
d="M457 236c0 -78.667 -20.6689 -139.5 -62.002 -182.5s-99.666 -64.5 -174.999 -64.5c-36 0 -70.833 6.83301 -104.5 20.5s-63.167 32.167 -88.5 55.5l70 95c24 -18 45.5 -30.5 64.5 -37.5s40.5 -10.5 64.5 -10.5c36 0 62.5 10.5 79.5 31.5s25.5 49.5 25.5 85.5
c0 35.333 -7.33301 61.5 -22 78.5s-34.667 25.5 -60 25.5c-31.333 0 -60.666 -13 -87.999 -39l-102 48l17 358h345v-121h-234l-9 -153c12.667 8 26.5 14.333 41.5 19s34.167 7 57.5 7c25.333 0 49 -4.5 71 -13.5s41 -22.5 57 -40.5s28.667 -40.5 38 -67.5s14 -58.5 14 -94.5
z" />
    <glyph glyph-name="six" unicode="6" horiz-adv-x="512" 
d="M474 234c0 -40 -5.33301 -75.167 -16 -105.5s-25.667 -55.833 -45 -76.5s-42.333 -36.334 -69 -47.001s-56.334 -16 -89.001 -16c-30.667 0 -59.167 5.33301 -85.5 16s-49 27.334 -68 50.001s-34 52 -45 88s-16.5 79 -16.5 129c0 60 6.83301 115.667 20.5 167
s34.834 96.333 63.501 135s65.5 70 110.5 94s98.5 38.333 160.5 43v-125c-36 -2 -67.167 -8.66699 -93.5 -20s-48.666 -25.833 -66.999 -43.5s-33 -37.167 -44 -58.5s-19.5 -43 -25.5 -65c17.333 19.333 35.833 33 55.5 41s44.5 12 74.5 12
c23.333 0 45.666 -4.66699 66.999 -14s40.333 -23 57 -41s30 -40.667 40 -68s15 -59 15 -95zM352 226c0 32.667 -7.49805 59.667 -22.498 81s-37.833 32 -68.5 32c-34.667 0 -59.834 -11 -75.501 -33s-23.5 -47.667 -23.5 -77c0 -16.667 1.66699 -32.5 5 -47.5
s9 -28.167 17 -39.5s18.333 -20.333 31 -27s28.334 -10 47.001 -10c15.333 0 28.666 3.33301 39.999 10s20.666 15.5 27.999 26.5s12.833 23.833 16.5 38.5s5.5 30 5.5 46z" />
    <glyph glyph-name="seven" unicode="7" horiz-adv-x="459" 
d="M423 575c-28.667 -37.333 -53.5 -76.5 -74.5 -117.5s-38.167 -85 -51.5 -132s-23.333 -97.5 -30 -151.5s-10 -112 -10 -174h-120c0 234 52 428.667 156 584h-266v116h396v-125z" />
    <glyph glyph-name="eight" unicode="8" horiz-adv-x="518" 
d="M478 209c0 -31.333 -4.50195 -60.333 -13.502 -87s-22.667 -49.834 -41 -69.501s-41.166 -35.167 -68.499 -46.5s-59.333 -17 -96 -17s-68.667 5.66699 -96 17s-50.166 26.833 -68.499 46.5s-32 42.834 -41 69.501s-13.5 55.667 -13.5 87c0 46 10 82.5 30 109.5
s43.333 46.833 70 59.5c-20 10.667 -37.167 27.5 -51.5 50.5s-21.5 50.5 -21.5 82.5c0 29.333 4.16699 56.166 12.5 80.499s20.5 45.333 36.5 63s36 31.5 60 41.5s51.667 15 83 15s59 -5 83 -15s44 -23.833 60 -41.5s28.167 -38.667 36.5 -63s12.5 -51.166 12.5 -80.499
c0 -32 -6.83301 -59.333 -20.5 -82s-31.167 -39.667 -52.5 -51c27.333 -12.667 50.833 -32.5 70.5 -59.5s29.5 -63.5 29.5 -109.5zM336.998 512c0 23.333 -5.66699 43.5 -17 60.5s-31.666 25.5 -60.999 25.5s-49.666 -8.5 -60.999 -25.5s-17 -37.167 -17 -60.5
s6.66699 -43.5 20 -60.5s32.666 -25.5 57.999 -25.5s44.666 8.5 57.999 25.5s20 37.167 20 60.5zM357.998 209c0 32 -8.49805 57.333 -25.498 76s-41.5 28 -73.5 28s-56.5 -9.33301 -73.5 -28s-25.5 -44 -25.5 -76c0 -30 8.66699 -55 26 -75s41.666 -30 72.999 -30
s55.666 10 72.999 30s26 45 26 75z" />
    <glyph glyph-name="nine" unicode="9" horiz-adv-x="512" 
d="M472 428c0 -60 -6.83008 -115.667 -20.4971 -167s-34.834 -96.333 -63.501 -135s-65.5 -70 -110.5 -94s-98.5 -38.333 -160.5 -43v125c36 2 67.167 8.66699 93.5 20s48.666 25.833 66.999 43.5s33 37.167 44 58.5s19.5 43 25.5 65c-17.333 -19.333 -35.833 -33 -55.5 -41
s-44.5 -12 -74.5 -12c-22.667 0 -44.834 4.66699 -66.501 14s-40.834 23 -57.501 41s-30 40.667 -40 68s-15 59 -15 95c0 40 5.33301 75.167 16 105.5s25.667 55.833 45 76.5s42.333 36.334 69 47.001s56.334 16 89.001 16c30.667 0 59.167 -5.33301 85.5 -16
s49 -27.334 68 -50.001s34 -52 45 -88s16.5 -79 16.5 -129zM350.003 471c0 16.667 -1.66895 32.5 -5.00195 47.5s-9 28.167 -17 39.5s-18.333 20.333 -31 27s-28.334 10 -47.001 10c-15.333 0 -28.666 -3.33301 -39.999 -10s-20.666 -15.5 -27.999 -26.5
s-12.833 -23.833 -16.5 -38.5s-5.5 -30 -5.5 -46c0 -32.667 7.5 -59.667 22.5 -81s37.833 -32 68.5 -32c34.667 0 59.834 11 75.501 33s23.5 47.667 23.5 77z" />
    <glyph glyph-name="colon" unicode=":" horiz-adv-x="246" 
d="M206 453c0 -22.667 -8.16699 -42.167 -24.5 -58.5s-35.833 -24.5 -58.5 -24.5s-42.167 8.16699 -58.5 24.5s-24.5 35.833 -24.5 58.5s8.16699 42.167 24.5 58.5s35.833 24.5 58.5 24.5s42.167 -8.16699 58.5 -24.5s24.5 -35.833 24.5 -58.5zM206 72
c0 -22.667 -8.16699 -42.167 -24.5 -58.5s-35.833 -24.5 -58.5 -24.5s-42.167 8.16699 -58.5 24.5s-24.5 35.833 -24.5 58.5s8.16699 42.167 24.5 58.5s35.833 24.5 58.5 24.5s42.167 -8.16699 58.5 -24.5s24.5 -35.833 24.5 -58.5z" />
    <glyph glyph-name="semicolon" unicode=";" horiz-adv-x="246" 
d="M206 453c0 -22.667 -8.16699 -42.167 -24.5 -58.5s-35.833 -24.5 -58.5 -24.5s-42.167 8.16699 -58.5 24.5s-24.5 35.833 -24.5 58.5s8.16699 42.167 24.5 58.5s35.833 24.5 58.5 24.5s42.167 -8.16699 58.5 -24.5s24.5 -35.833 24.5 -58.5zM125 -112h-82l13 259h143z
" />
    <glyph glyph-name="less" unicode="&#x3c;" horiz-adv-x="410" 
d="M42 297v94l311 269v-159l-190 -156l190 -157v-160z" />
    <glyph glyph-name="equal" unicode="=" horiz-adv-x="523" 
d="M60 398v125h403v-125h-403zM60 165v125h403v-125h-403z" />
    <glyph glyph-name="greater" unicode="&#x3e;" horiz-adv-x="410" 
d="M57 28v159l190 156l-190 157v160l311 -269v-94z" />
    <glyph glyph-name="question" unicode="?" horiz-adv-x="444" 
d="M415 527c0 -40.667 -8.66797 -74.166 -26.001 -100.499s-40 -50.833 -68 -73.5c-20.667 -16.667 -36 -35.667 -46 -57s-15 -50 -15 -86h-118c0 27.333 1.66699 51.5 5 72.5s9.16602 40.333 17.499 58s19.333 34.167 33 49.5s30.834 31 51.501 47
c12.667 10 22.834 22.167 30.501 36.5s11.5 28.5 11.5 42.5c0 21.333 -6.83301 38.666 -20.5 51.999s-34.834 20 -63.501 20c-21.333 0 -41.5 -6.16699 -60.5 -18.5s-37.167 -29.5 -54.5 -51.5l-83 79c25.333 35.333 54.333 63.166 87 83.499s73.667 30.5 123 30.5
c28 0 53.833 -3.66699 77.5 -11s44.334 -18.666 62.001 -33.999s31.5 -34.5 41.5 -57.5s15 -50.167 15 -81.5zM281.999 70.001c0 -22 -8 -41 -24 -57s-35 -24 -57 -24s-41 8 -57 24s-24 35 -24 57s8 41 24 57s35 24 57 24s41 -8 57 -24s24 -35 24 -57z" />
    <glyph glyph-name="at" unicode="@" horiz-adv-x="636" 
d="M596 360c0 -30.667 -1.99414 -58.832 -5.99414 -84.499s-10.5 -47.667 -19.5 -66s-21.167 -32.5 -36.5 -42.5s-34 -15 -56 -15c-19.333 0 -36.166 5.5 -50.499 16.5s-24.5 23.167 -30.5 36.5c-10.667 -15.333 -25.167 -28.666 -43.5 -39.999s-36.833 -17 -55.5 -17
c-15.333 0 -30.333 2.83301 -45 8.5s-27.834 14.5 -39.501 26.5s-21 27 -28 45s-10.5 39.333 -10.5 64c0 22.667 3.33301 42.5 10 59.5s15.5 31 26.5 42s23.667 19.167 38 24.5s29.166 8 44.499 8c13.333 0 26.166 -1.83301 38.499 -5.5s23.5 -8.16699 33.5 -13.5v39
c0 17.333 -4.66699 29.833 -14 37.5s-23.666 11.5 -42.999 11.5c-12.667 0 -24.834 -2 -36.501 -6s-24.5 -11.667 -38.5 -23l-30 62c17.333 13.333 35.666 23.166 54.999 29.499s38 9.5 56 9.5c41.333 0 73.166 -10.333 95.499 -31s33.5 -52.667 33.5 -96v-174
c0 -16.667 2.5 -30.167 7.5 -40.5s14.833 -15.5 29.5 -15.5c20 0 34.667 11.667 44 35s14 62.333 14 117c0 46 -5.5 87.167 -16.5 123.5s-26.167 66.833 -45.5 91.5s-42.666 43.5 -69.999 56.5s-57 19.5 -89 19.5c-33.333 0 -63.5 -7.16699 -90.5 -21.5
s-50 -34.666 -69 -60.999s-33.667 -58 -44 -95s-15.5 -78.167 -15.5 -123.5s5.16699 -86.833 15.5 -124.5s25.166 -69.834 44.499 -96.501s42.666 -47.334 69.999 -62.001s57.666 -22 90.999 -22c16.667 0 33.167 1.66699 49.5 5s33.5 10 51.5 20l22 -47
c-23.333 -15.333 -44.5 -25.166 -63.5 -29.499s-39.5 -6.5 -61.5 -6.5c-40 0 -77 8.5 -111 25.5s-63.333 41.333 -88 73s-44 69.667 -58 114s-21 93.833 -21 148.5s7 104.167 21 148.5s33.333 82.333 58 114s54 56 88 73s71 25.5 111 25.5c41.333 0 79 -8.33301 113 -25
s63.167 -40.334 87.5 -71.001s43.333 -67.667 57 -111s20.5 -91.333 20.5 -144zM366.006 329.002c-6.66699 7.33301 -15.334 13.499 -26.001 18.499s-23.334 7.5 -38.001 7.5c-17.333 0 -29.666 -5.83301 -36.999 -17.5s-11 -26.167 -11 -43.5
c0 -21.333 3.33301 -38.666 10 -51.999s20.667 -20 42 -20c12.667 0 24.334 4.33301 35.001 13s19 20.667 25 36v58z" />
    <glyph glyph-name="A" unicode="A" horiz-adv-x="536" 
d="M379 0l-33 146h-157l-33 -146h-128l179 700h122l179 -700h-129zM300 346c-2.66699 13.333 -5.83594 28.165 -9.50293 44.498s-7 32.333 -10 48s-5.66699 30.334 -8 44.001s-4.16602 24.834 -5.49902 33.501c-1.33301 -8.66699 -3.16602 -19.667 -5.49902 -33l-7.5 -43
c-2.66699 -15.333 -5.66699 -31 -9 -47s-6.66602 -31 -9.99902 -45l-19 -85h103z" />
    <glyph glyph-name="B" unicode="B" horiz-adv-x="513" 
d="M479 217c0 -72.667 -19.833 -127 -59.5 -163s-97.167 -54 -172.5 -54h-182v700h189c64.667 0 115.5 -16.5 152.5 -49.5s55.5 -78.833 55.5 -137.5c0 -30 -7.33301 -57.333 -22 -82s-36 -43 -64 -55c28 -11.333 52.167 -29.833 72.5 -55.5s30.5 -60.167 30.5 -103.5z
M338 508c0 24 -6.16699 42.833 -18.5 56.5s-33.833 20.5 -64.5 20.5h-68v-153h71c30.667 0 51.667 7.66699 63 23s17 33 17 53zM355 214c0 36.667 -8.33203 63.501 -24.999 80.501s-43.334 25.5 -80.001 25.5h-63v-205h67c36 0 61.833 9.16699 77.5 27.5
s23.5 42.166 23.5 71.499z" />
    <glyph glyph-name="C" unicode="C" horiz-adv-x="500" 
d="M468 168c-16.667 -58 -40.835 -102.332 -72.502 -132.999s-74.5 -46 -128.5 -46c-38.667 0 -72.334 9.33301 -101.001 28s-52.334 44.167 -71.001 76.5s-32.5 70.5 -41.5 114.5s-13.5 91 -13.5 141c0 50.667 4.66699 98 14 142s23.5 82.333 42.5 115
s42.833 58.334 71.5 77.001s62.334 28 101.001 28c30 0 55.833 -4.5 77.5 -13.5s40.334 -21.333 56.001 -37s28.667 -34.334 39 -56.001s18.833 -45.167 25.5 -70.5l-117 -38c-9.33301 32 -19.666 55 -30.999 69s-28.666 21 -51.999 21c-34 0 -59 -20.5 -75 -61.5
s-24 -98.833 -24 -173.5s8.33301 -132.834 25 -174.501s42 -62.5 76 -62.5c21.333 0 38.5 7.16699 51.5 21.5s26.167 40.5 39.5 78.5z" />
    <glyph glyph-name="D" unicode="D" horiz-adv-x="530" 
d="M490 351c0 -61.333 -6.33203 -114.169 -18.999 -158.502s-30.834 -80.666 -54.501 -108.999s-52 -49.333 -85 -63s-70.167 -20.5 -111.5 -20.5h-155v700h158c42 0 79.5 -6.66699 112.5 -20s61 -34.166 84 -62.499s40.5 -64.5 52.5 -108.5s18 -96.667 18 -158z
M362.001 348.997c0 32 -2 61.999 -6 89.999s-11.167 52.333 -21.5 73s-24.5 36.834 -42.5 48.501s-41 17.5 -69 17.5h-33v-456h33c28 0 51 5.83301 69 17.5s32.167 27.667 42.5 48s17.5 44.333 21.5 72s6 57.5 6 89.5z" />
    <glyph glyph-name="E" unicode="E" horiz-adv-x="476" 
d="M65 0v700h359v-120h-234v-148h157v-118h-157v-194h243v-120h-368z" />
    <glyph glyph-name="F" unicode="F" horiz-adv-x="464" 
d="M190 579v-155h164v-121h-164v-303h-125v700h369v-121h-244z" />
    <glyph glyph-name="G" unicode="G" horiz-adv-x="538" 
d="M494 253c0 -84.667 -18.6689 -149.831 -56.002 -195.498s-92.666 -68.5 -165.999 -68.5c-40.667 0 -75.667 9.33301 -105 28s-53.333 44.167 -72 76.5s-32.5 70.5 -41.5 114.5s-13.5 91 -13.5 141c0 50.667 4.5 98 13.5 142s23 82.333 42 115s43.333 58.334 73 77.001
s64.834 28 105.501 28c53.333 0 98.333 -14.333 135 -43s62.667 -73.334 78 -134.001l-117 -38c-9.33301 33.333 -22 56.666 -38 69.999s-36 20 -60 20c-38 0 -64.833 -20.5 -80.5 -61.5s-23.5 -98.833 -23.5 -173.5s8.16699 -132.834 24.5 -174.501s43.5 -62.5 81.5 -62.5
s64 10.667 78 32s21 58 21 110h-100v117h221v-120z" />
    <glyph glyph-name="H" unicode="H" horiz-adv-x="540" 
d="M350 0v302h-160v-302h-125v700h125v-276h160v276h125v-700h-125z" />
    <glyph glyph-name="I" unicode="I" horiz-adv-x="265" 
d="M70 0v700h125v-700h-125z" />
    <glyph glyph-name="J" unicode="J" horiz-adv-x="480" 
d="M418 270c0 -44 -3.66504 -83.334 -10.998 -118.001s-19 -64.167 -35 -88.5s-36.833 -42.833 -62.5 -55.5s-57.167 -19 -94.5 -19c-56.667 0 -101.834 17.833 -135.501 53.5s-54.167 86.834 -61.5 153.501l119 36c3.33301 -36 11.166 -64.833 23.499 -86.5
s31.5 -32.5 57.5 -32.5s45 11 57 33s18 62 18 120v434h125v-430z" />
    <glyph glyph-name="K" unicode="K" horiz-adv-x="524" 
d="M366 0l-113 301.001l-63 -113v-188h-125v700h125v-207c0 -20.667 -0.166992 -39.834 -0.5 -57.501s-0.833008 -34.167 -1.5 -49.5l26 52l29 56l109 206h133l-149 -262l170 -438h-140z" />
    <glyph glyph-name="L" unicode="L" horiz-adv-x="443" 
d="M65 0v700h125v-578h219v-122h-344z" />
    <glyph glyph-name="M" unicode="M" horiz-adv-x="640" 
d="M461 0v226.001c0 42 0.166992 81.333 0.5 118s0.833008 68 1.5 94l-27 -93c-10.667 -36.667 -22.667 -75 -36 -115l-81 -248l-81 248l-35.5 115l-27.5 93c0.666992 -26 1.16699 -57.333 1.5 -94s0.5 -76 0.5 -118v-226h-112v700h126l83 -259l29 -91
c8.66699 -28 14.667 -50.333 18 -67c3.33301 17.333 9.5 40.166 18.5 68.499l28.5 89.5l83 259h124v-700h-114z" />
    <glyph glyph-name="N" unicode="N" horiz-adv-x="544" 
d="M359 0l-128.999 312.003c-9.33301 22 -18.833 46 -28.5 72s-17.834 49.333 -24.501 70c0 -10.667 0.166992 -22.834 0.5 -36.501l1 -42.5c0.333008 -14.667 0.5 -28.834 0.5 -42.501v-37.5v-295h-114v700h126l123 -307c4 -10.667 8.66699 -22.334 14 -35.001
s10.5 -25.667 15.5 -39l14 -38.5l11.5 -33.5c0 10.667 -0.333008 23.167 -1 37.5s-1.16699 29 -1.5 44l-1 44c-0.333008 14.333 -0.5 26.833 -0.5 37.5v290h114v-700h-120z" />
    <glyph glyph-name="O" unicode="O" horiz-adv-x="545" 
d="M505 351c0 -50.667 -4.50098 -98 -13.501 -142s-23 -82.333 -42 -115s-43.167 -58.334 -72.5 -77.001s-64.333 -28 -105 -28s-75.667 9.33301 -105 28s-53.333 44.167 -72 76.5s-32.5 70.5 -41.5 114.5s-13.5 91 -13.5 141c0 50.667 4.5 98 13.5 142s23 82.333 42 115
s43.333 58.334 73 77.001s64.834 28 105.501 28s75.5 -9.33301 104.5 -28s52.833 -44.167 71.5 -76.5s32.5 -70.5 41.5 -114.5s13.5 -91 13.5 -141zM376.999 349c0 74.667 -8.16797 132.834 -24.501 174.501s-43.166 62.5 -80.499 62.5c-38 0 -64.833 -20.5 -80.5 -61.5
s-23.5 -98.833 -23.5 -173.5s8.16699 -132.834 24.5 -174.501s43.5 -62.5 81.5 -62.5c37.333 0 63.833 20.5 79.5 61.5s23.5 98.833 23.5 173.5z" />
    <glyph glyph-name="P" unicode="P" horiz-adv-x="498" 
d="M474 477c0 -38 -6.33301 -71 -19 -99s-29.5 -51.5 -50.5 -70.5s-45.167 -33.167 -72.5 -42.5s-56 -14 -86 -14h-56v-251h-125v700h186c33.333 0 63.666 -4.66699 90.999 -14s50.833 -23.333 70.5 -42s34.834 -42 45.501 -70s16 -60.333 16 -97zM349 475
c0 29.333 -7.33203 53.833 -21.999 73.5s-40.334 29.5 -77.001 29.5h-60v-205h62c32 0 56.167 9 72.5 27s24.5 43 24.5 75z" />
    <glyph glyph-name="Q" unicode="Q" horiz-adv-x="545" 
d="M505 351c0 -58 -7.16895 -111.001 -21.502 -159.001s-34.166 -88.667 -59.499 -122l49 -81l-85 -52l-41 69c-24.667 -11.333 -49.667 -17 -75 -17c-40.667 0 -75.667 9.33301 -105 28s-53.333 44.167 -72 76.5s-32.5 70.5 -41.5 114.5s-13.5 91 -13.5 141
c0 50.667 4.5 98 13.5 142s23 82.333 42 115s43.333 58.334 73 77.001s64.834 28 105.501 28s75.5 -9.33301 104.5 -28s52.833 -44.167 71.5 -76.5s32.5 -70.5 41.5 -114.5s13.5 -91 13.5 -141zM376.998 348.999c0 74.667 -8.16797 132.834 -24.501 174.501
s-43.166 62.5 -80.499 62.5c-38 0 -64.833 -20.5 -80.5 -61.5s-23.5 -98.833 -23.5 -173.5s8.33301 -134.167 25 -178.5s43.667 -66.5 81 -66.5c5.33301 0 9.33301 0.333008 12 1l-50 83l85 52l38 -64c6 19.333 10.5 42.666 13.5 69.999s4.5 61 4.5 101z" />
    <glyph glyph-name="R" unicode="R" horiz-adv-x="510" 
d="M340 0l-109 266h-41v-266h-125v700h186c68 0 122.167 -18.167 162.5 -54.5s60.5 -90.833 60.5 -163.5c0 -49.333 -11.167 -89.5 -33.5 -120.5s-50.5 -54.5 -84.5 -70.5l120 -291h-136zM349 480c0 32 -7.83301 56.333 -23.5 73s-42.5 25 -80.5 25h-55v-195h62
c64.667 0 97 32.333 97 97z" />
    <glyph glyph-name="S" unicode="S" horiz-adv-x="471" 
d="M443 189c0 -28.667 -4.83398 -55.3301 -14.501 -79.9971s-23.5 -45.834 -41.5 -63.501s-40 -31.5 -66 -41.5s-55.333 -15 -88 -15c-47.333 0 -88 10.833 -122 32.5s-63 47.5 -87 77.5l85 91c21.333 -27.333 42.833 -47.5 64.5 -60.5s43.167 -19.5 64.5 -19.5
c26 0 45.5 6.83301 58.5 20.5s19.5 32.167 19.5 55.5c0 20 -7.5 38.833 -22.5 56.5s-43.167 36.834 -84.5 57.501c-26 13.333 -49.333 27 -70 41s-38.167 29.667 -52.5 47s-25.333 37 -33 59s-11.5 47.333 -11.5 76c0 26 4.66699 50.5 14 73.5s22.5 43 39.5 60
s37.667 30.333 62 40s51.166 14.5 80.499 14.5c44 0 80.5 -8.5 109.5 -25.5s56.167 -41.833 81.5 -74.5l-83 -83c-10 11.333 -19.167 21 -27.5 29s-16.666 14.5 -24.999 19.5s-17.166 8.5 -26.499 10.5s-20 3 -32 3c-20 0 -36 -5.83301 -48 -17.5s-18 -26.167 -18 -43.5
c0 -20.667 7.16699 -38.834 21.5 -54.501s40.5 -33.834 78.5 -54.501c30 -16 56 -31.5 78 -46.5s40.167 -31.333 54.5 -49s24.833 -37.334 31.5 -59.001s10 -47.167 10 -76.5z" />
    <glyph glyph-name="T" unicode="T" horiz-adv-x="465" 
d="M295 580v-580h-125v580h-145v120h415v-120h-145z" />
    <glyph glyph-name="U" unicode="U" horiz-adv-x="540" 
d="M478 280c0 -45.333 -3.66992 -86 -11.0029 -122s-19.166 -66.5 -35.499 -91.5s-37.666 -44.167 -63.999 -57.5s-58.833 -20 -97.5 -20c-37.333 0 -69.166 6.83301 -95.499 20.5s-47.833 33.167 -64.5 58.5s-28.834 55.833 -36.501 91.5s-11.5 75.167 -11.5 118.5v422h125
v-422c0 -60.667 6.83301 -103.334 20.5 -128.001s34.834 -37 63.501 -37c29.333 0 50.333 12.333 63 37s19 67.334 19 128.001v422h125v-420z" />
    <glyph glyph-name="V" unicode="V" horiz-adv-x="512" 
d="M318 0h-122l-169 700h129l68 -338c2.66699 -12.667 5.66699 -27.667 9 -45l10 -51.5l9 -47.5c2.66699 -14.667 4.33398 -26 5.00098 -34l5.5 34c2.33301 14.667 5.16602 30.667 8.49902 48l10 51.5l9 44.5l67 338h128z" />
    <glyph glyph-name="W" unicode="W" horiz-adv-x="659" 
d="M526 0l-108 0.000976562l-59 294c-7.33301 34 -13.5 65.833 -18.5 95.5s-9.16699 56.5 -12.5 80.5c-3.33301 -24.667 -7.5 -51.667 -12.5 -81s-11.167 -61 -18.5 -95l-59 -294h-105l-113 700h118l34 -261c2 -12.667 4 -27.834 6 -45.501l6 -54.5
c2 -18.667 3.83301 -36.667 5.5 -54s3.16699 -32 4.5 -44c1.33301 12 3.33301 26.667 6 44s5.66699 35.333 9 54l9.5 54.5c3 17.667 5.83301 32.834 8.5 45.501l51 261h103l51 -261c2.66699 -12.667 5.66699 -27.834 9 -45.501s6.5 -35.834 9.5 -54.501l9 -54
c3 -17.333 5.16699 -32 6.5 -44c1.33301 12 2.83301 26.667 4.5 44s3.5 35.333 5.5 54l6 54.5c2 17.667 4 32.834 6 45.501l34 261h117z" />
    <glyph glyph-name="X" unicode="X" horiz-adv-x="514" 
d="M357 0l-58 132c-7.33301 15.333 -14.833 33.5 -22.5 54.5l-19.5 52.5c-4.66699 -14 -11 -31.5 -19 -52.5s-15.667 -39.167 -23 -54.5l-58 -132h-135l167 359l-158 341h135l49 -112c7.33301 -15.333 15 -33.5 23 -54.5s14.333 -38.5 19 -52.5l19.5 52.5
c7.66699 21 15.167 39.167 22.5 54.5l49 112h135l-159 -340l168 -360h-135z" />
    <glyph glyph-name="Y" unicode="Y" horiz-adv-x="520" 
d="M322 264l-0.000976562 -264.002h-125v262l-180 438h138l54 -142c6 -15.333 11.667 -30.833 17 -46.5l15 -45.5l12.5 -40.5c3.66699 -12.333 6.16699 -22.5 7.5 -30.5l8 31c3.33301 12.667 7.33301 26.334 12 41.001s9.83398 29.834 15.501 45.501l16.5 45.5l54 142h136z
" />
    <glyph glyph-name="Z" unicode="Z" horiz-adv-x="469" 
d="M37 0v111l203 390l26.5 48l23.5 40c-12.667 -0.666992 -26.334 -1.16699 -41.001 -1.5s-30.667 -0.5 -48 -0.5h-147v113h365v-111l-201 -390l-26.5 -48l-23.5 -40c12.667 0.666992 26.334 1.16699 41.001 1.5s30.667 0.5 48 0.5h162v-113h-382z" />
    <glyph glyph-name="bracketleft" unicode="[" horiz-adv-x="365" 
d="M75 -110v810h237v-100h-114v-610h114v-100h-237z" />
    <glyph glyph-name="backslash" unicode="\" horiz-adv-x="405" 
d="M278 -90l-276 880h125l276 -880h-125z" />
    <glyph glyph-name="bracketright" unicode="]" horiz-adv-x="365" 
d="M53 -110v100h114v610h-114v100h237v-810h-237z" />
    <glyph glyph-name="asciicircum" unicode="^" horiz-adv-x="464" 
d="M312 382l-81 196l-81 -196h-120l143 318h118l143 -318h-122z" />
    <glyph glyph-name="underscore" unicode="_" horiz-adv-x="380" 
d="M0 -177v105h380v-105h-380z" />
    <glyph glyph-name="grave" unicode="`" horiz-adv-x="400" 
d="M210 595l-145 160h155l87 -160h-97z" />
    <glyph glyph-name="a" unicode="a" horiz-adv-x="444" 
d="M276 0l-0.000976562 35.9961c-12 -15.333 -26.333 -27 -43 -35s-33.667 -12 -51 -12c-46 0 -83.333 16.333 -112 49s-43 77.334 -43 134.001c0 26.667 4 50.834 12 72.501s19.167 40 33.5 55s31.333 26.667 51 35s41.167 12.5 64.5 12.5s41 -1.66699 53 -5
s23.667 -8.66602 35 -15.999v40c0 18.667 -4.66699 34.167 -14 46.5s-25.666 18.5 -48.999 18.5c-22 0 -41 -2.5 -57 -7.5s-32.333 -13.167 -49 -24.5l-48 86c24 16.667 49 29.334 75 38.001s55 13 87 13c61.333 0 105.5 -14.667 132.5 -44s40.5 -73 40.5 -131v-361h-118z
M275.999 221.996c-9.33301 8 -19.1641 14.167 -29.4971 18.5s-24.5 6.5 -42.5 6.5c-16.667 0 -30.334 -6.66699 -41.001 -20s-16 -31 -16 -53c0 -25.333 5.16699 -45 15.5 -59s25.166 -21 44.499 -21c14 0 27.167 4.16699 39.5 12.5s22.166 18.833 29.499 31.5v84z" />
    <glyph glyph-name="b" unicode="b" horiz-adv-x="464" 
d="M427 263c0 -40 -3.16309 -76.834 -9.49609 -110.501s-16 -62.5 -29 -86.5s-29.833 -42.833 -50.5 -56.5s-45.334 -20.5 -74.001 -20.5c-17.333 0 -34 3.66699 -50 11s-29.667 17 -41 29v-29h-118v670l118 59v-240c13.333 14 28.666 25.333 45.999 34s35.666 13 54.999 13
c49.333 0 87.166 -22.167 113.499 -66.5s39.5 -113.166 39.5 -206.499zM307.004 258.999c0 58 -4.00195 100.334 -12.002 127.001s-24.333 40 -49 40c-14.667 0 -28.667 -4.66699 -42 -14s-23.666 -19.333 -30.999 -30v-238c8 -11.333 18.333 -21.666 31 -30.999
s27.334 -14 44.001 -14c10.667 0 19.667 2.66699 27 8s13.333 14.166 18 26.499s8.16699 28.666 10.5 48.999s3.5 45.833 3.5 76.5z" />
    <glyph glyph-name="c" unicode="c" horiz-adv-x="430" 
d="M304 353c-9.33301 21.333 -19.6641 38.501 -30.9971 51.501s-25.666 19.5 -42.999 19.5c-26.667 0 -45.834 -14.5 -57.501 -43.5s-17.5 -68.167 -17.5 -117.5s6.16699 -88.666 18.5 -117.999s32.5 -44 60.5 -44c17.333 0 32.166 7.33301 44.499 22s22.833 33 31.5 55
l87 -63c-15.333 -36.667 -36.333 -66.834 -63 -90.501s-60.334 -35.5 -101.001 -35.5c-28.667 0 -55.167 5.83301 -79.5 17.5s-45.333 29 -63 52s-31.334 51.5 -41.001 85.5s-14.5 73 -14.5 117s5 83.167 15 117.5s23.667 63.166 41 86.499s38 41 62 53s50.333 18 79 18
c40.667 0 74.667 -10 102 -30s49 -49.667 65 -89z" />
    <glyph glyph-name="d" unicode="d" horiz-adv-x="464" 
d="M291 0l-0.00390625 36.001c-13.333 -14 -28.666 -25.333 -45.999 -34s-35.666 -13 -54.999 -13c-49.333 0 -87.166 22.167 -113.499 66.5s-39.5 113.166 -39.5 206.499c0 40 3.16699 76.833 9.5 110.5s16 62.5 29 86.5s29.833 42.833 50.5 56.5s45.334 20.5 74.001 20.5
c17.333 0 34 -3.66699 50 -11s29.667 -17 41 -29v174l118 59v-729h-118zM290.996 381.001c-8 11.333 -18.3311 21.665 -30.998 30.998s-27.334 14 -44.001 14c-10.667 0 -19.667 -2.66699 -27 -8s-13.333 -14.166 -18 -26.499s-8.16699 -28.666 -10.5 -48.999
s-3.5 -45.833 -3.5 -76.5c0 -58 4 -100.333 12 -127s24.333 -40 49 -40c14.667 0 28.667 4.66699 42 14s23.666 19.333 30.999 30v238z" />
    <glyph glyph-name="e" unicode="e" horiz-adv-x="456" 
d="M421 262c0 -7.33301 -0.168945 -14.667 -0.501953 -22s-0.833008 -14.666 -1.5 -21.999h-265c2.66699 -40.667 11.5 -70.334 26.5 -89.001s34.167 -28 57.5 -28c21.333 0 37.5 3.83301 48.5 11.5s22.167 19.167 33.5 34.5l84 -63c-19.333 -32 -43.5 -55.833 -72.5 -71.5
s-60.833 -23.5 -95.5 -23.5c-32.667 0 -61.5 6.66699 -86.5 20s-46 32 -63 56s-29.833 52.667 -38.5 86s-13 70.333 -13 111c0 44 4.83301 83 14.5 117s23 62.667 40 86s37.333 41 61 53s49.834 18 78.501 18c33.333 0 62 -7.5 86 -22.5s43.833 -35.167 59.5 -60.5
s27.334 -54.5 35.001 -87.5s11.5 -67.5 11.5 -103.5zM302.998 314.999c-2.66699 32 -9.5 59.167 -20.5 81.5s-29.167 33.5 -54.5 33.5c-43.333 0 -68 -38.333 -74 -115h149z" />
    <glyph glyph-name="f" unicode="f" horiz-adv-x="315" 
d="M300 609c-7.33301 3.33301 -15.1699 5.83105 -23.5029 7.49805s-18.166 2.5 -29.499 2.5c-16.667 0 -28.5 -3.66699 -35.5 -11s-10.5 -20.666 -10.5 -39.999v-43h84v-112h-84v-413h-118v413h-53v112h53v63c0 24 3.33301 44.833 10 62.5s15.834 32 27.501 43
s25.167 19.167 40.5 24.5s32 8 50 8c20.667 0 37.834 -1.16699 51.501 -3.5s26.167 -6.16602 37.5 -11.499v-102z" />
    <glyph glyph-name="g" unicode="g" horiz-adv-x="464" 
d="M409 54c0 -39.333 -3.33789 -73.1631 -10.0049 -101.496s-18.667 -52.333 -36 -72s-40.5 -35.334 -69.5 -47.001s-66.167 -20.5 -111.5 -26.5l-32 88c30.667 6 55.334 12.167 74.001 18.5s33 14.666 43 24.999s16.5 23.166 19.5 38.499s4.5 35 4.5 59
c-13.333 -14 -28.666 -25.333 -45.999 -34s-35.666 -13 -54.999 -13c-49.333 0 -87.166 22.167 -113.499 66.5s-39.5 113.166 -39.5 206.499c0 40 3.16699 76.833 9.5 110.5s16 62.5 29 86.5s29.833 42.833 50.5 56.5s45.334 20.5 74.001 20.5c17.333 0 34 -3.66699 50 -11
s29.667 -17 41 -29v29h118v-471zM290.995 381.003c-8 11.333 -18.3311 21.665 -30.998 30.998s-27.334 14 -44.001 14c-10.667 0 -19.667 -2.66699 -27 -8s-13.333 -14.166 -18 -26.499s-8.16699 -28.666 -10.5 -48.999s-3.5 -45.833 -3.5 -76.5c0 -58 4 -100.333 12 -127
s24.333 -40 49 -40c14.667 0 28.667 4.66699 42 14s23.666 19.333 30.999 30v238z" />
    <glyph glyph-name="h" unicode="h" horiz-adv-x="461" 
d="M293 0l0.00195312 339.999c0 32.667 -3 55.167 -9 67.5s-19.667 18.5 -41 18.5c-13.333 0 -26.5 -4.66699 -39.5 -14s-23.167 -19.333 -30.5 -30v-382h-118v670l118 59v-240c13.333 14 28.166 25.333 44.499 34s34.166 13 53.499 13c28 0 51 -4.16699 69 -12.5
s32.333 -20.666 43 -36.999s18 -36.5 22 -60.5s6 -51.333 6 -82v-344h-118z" />
    <glyph glyph-name="i" unicode="i" horiz-adv-x="238" 
d="M194 651c0 -20.667 -7.33301 -38.334 -22 -53.001s-32.334 -22 -53.001 -22s-38.334 7.33301 -53.001 22s-22 32.334 -22 53.001s7.33301 38.334 22 53.001s32.334 22 53.001 22s38.334 -7.33301 53.001 -22s22 -32.334 22 -53.001zM60 0v525h118v-525h-118z" />
    <glyph glyph-name="j" unicode="j" horiz-adv-x="238" 
d="M194 651c0 -20.667 -7.33301 -38.334 -22 -53.001s-32.334 -22 -53.001 -22s-38.334 7.33301 -53.001 22s-22 32.334 -22 53.001s7.33301 38.334 22 53.001s32.334 22 53.001 22s38.334 -7.33301 53.001 -22s22 -32.334 22 -53.001zM178 33
c0 -38.667 -2.83301 -70.999 -8.5 -96.999s-15.667 -47.5 -30 -64.5s-34.166 -30.333 -59.499 -40s-58 -17.834 -98 -24.501l-33 90c24.667 5.33301 44.5 11 59.5 17s26.167 13.833 33.5 23.5s12.166 21.667 14.499 36s3.5 32.5 3.5 54.5v497h118v-492z" />
    <glyph glyph-name="k" unicode="k" horiz-adv-x="443" 
d="M298 0l-78 241.001l-47 -77v-164h-118v670l118 59v-329c0 -14.667 -0.166992 -27 -0.5 -37s-0.5 -22.333 -0.5 -37c6 13.333 12.667 26.666 20 39.999l20 35l73 124h130l-114 -171l120 -354h-123z" />
    <glyph glyph-name="l" unicode="l" horiz-adv-x="238" 
d="M60 0v670l118 59v-729h-118z" />
    <glyph glyph-name="m" unicode="m" horiz-adv-x="683" 
d="M515 0l0.000976562 339.999c0 32.667 -2.83301 55.167 -8.5 67.5s-18.167 18.5 -37.5 18.5c-12.667 0 -25 -4.66699 -37 -14s-21.667 -19.333 -29 -30v-382h-118v340c0 32.667 -2.83301 55.167 -8.5 67.5s-18.167 18.5 -37.5 18.5c-12.667 0 -25 -4.66699 -37 -14
s-21.667 -19.333 -29 -30v-382h-118v525h118v-36c13.333 14 28 25.333 44 34s32.667 13 50 13c32 0 56.833 -5.33301 74.5 -16s31.167 -24.667 40.5 -42c14.667 15.333 31.167 28.833 49.5 40.5s40.166 17.5 65.499 17.5c28 0 50.833 -4.16699 68.5 -12.5
s31.5 -20.666 41.5 -36.999s16.833 -36.5 20.5 -60.5s5.5 -51.333 5.5 -82v-344h-118z" />
    <glyph glyph-name="n" unicode="n" horiz-adv-x="461" 
d="M293 0l0.00195312 339.999c0 32.667 -3 55.167 -9 67.5s-19.667 18.5 -41 18.5c-13.333 0 -26.5 -4.66699 -39.5 -14s-23.167 -19.333 -30.5 -30v-382h-118v525h118v-36c13.333 14 28.166 25.333 44.499 34s34.166 13 53.499 13c28 0 51 -4.16699 69 -12.5
s32.333 -20.666 43 -36.999s18 -36.5 22 -60.5s6 -51.333 6 -82v-344h-118z" />
    <glyph glyph-name="o" unicode="o" horiz-adv-x="468" 
d="M433 263c0 -44 -4.83301 -83.166 -14.5 -117.499s-23.334 -63 -41.001 -86s-38.667 -40.5 -63 -52.5s-51.166 -18 -80.499 -18s-56.166 5.83301 -80.499 17.5s-45.333 29 -63 52s-31.334 51.5 -41.001 85.5s-14.5 73 -14.5 117s4.83301 83.167 14.5 117.5
s23.334 63.166 41.001 86.499s38.834 41 63.501 53s51.667 18 81 18s56.166 -6 80.499 -18s45.166 -29.5 62.499 -52.5s30.833 -51.5 40.5 -85.5s14.5 -73 14.5 -117zM313 261.001c0 48.667 -6.33203 87.999 -18.999 117.999s-33 45 -61 45
c-28.667 0 -48.834 -14.5 -60.501 -43.5s-17.5 -68.167 -17.5 -117.5s6.16699 -88.666 18.5 -117.999s32.833 -44 61.5 -44c14 0 26 4.16699 36 12.5s18 19.833 24 34.5s10.5 31.667 13.5 51s4.5 40 4.5 62z" />
    <glyph glyph-name="p" unicode="p" horiz-adv-x="464" 
d="M427 263c0 -40 -3.16309 -76.834 -9.49609 -110.501s-16 -62.5 -29 -86.5s-29.833 -42.833 -50.5 -56.5s-45.334 -20.5 -74.001 -20.5c-17.333 0 -34 3.66699 -50 11s-29.667 17 -41 29v-163l-118 -59v718h118v-36c13.333 14 28.666 25.333 45.999 34
s35.666 13 54.999 13c49.333 0 87.166 -22.167 113.499 -66.5s39.5 -113.166 39.5 -206.499zM307.004 258.999c0 58 -4.00195 100.334 -12.002 127.001s-24.333 40 -49 40c-14.667 0 -28.667 -4.66699 -42 -14s-23.666 -19.333 -30.999 -30v-238
c8 -11.333 18.333 -21.666 31 -30.999s27.334 -14 44.001 -14c10.667 0 19.667 2.66699 27 8s13.333 14.166 18 26.499s8.16699 28.666 10.5 48.999s3.5 45.833 3.5 76.5z" />
    <glyph glyph-name="q" unicode="q" horiz-adv-x="464" 
d="M291 -193l-0.00390625 229.001c-13.333 -14 -28.666 -25.333 -45.999 -34s-35.666 -13 -54.999 -13c-49.333 0 -87.166 22.167 -113.499 66.5s-39.5 113.166 -39.5 206.499c0 40 3.16699 76.833 9.5 110.5s16 62.5 29 86.5s29.833 42.833 50.5 56.5
s45.334 20.5 74.001 20.5c17.333 0 34 -3.66699 50 -11s29.667 -17 41 -29v29h118v-659zM290.996 381.001c-8 11.333 -18.3311 21.665 -30.998 30.998s-27.334 14 -44.001 14c-10.667 0 -19.667 -2.66699 -27 -8s-13.333 -14.166 -18 -26.499
s-8.16699 -28.666 -10.5 -48.999s-3.5 -45.833 -3.5 -76.5c0 -58 4 -100.333 12 -127s24.333 -40 49 -40c14.667 0 28.667 4.66699 42 14s23.666 19.333 30.999 30v238z" />
    <glyph glyph-name="r" unicode="r" horiz-adv-x="364" 
d="M318 394c-10 8 -20.5 14.332 -31.5 18.999s-23.5 7 -37.5 7c-30 0 -55.333 -15 -76 -45v-375h-118v525h118v-36c10 11.333 23.667 22 41 32s35.666 15 54.999 15c17.333 0 32.333 -2.16699 45 -6.5s25.334 -11.166 38.001 -20.499z" />
    <glyph glyph-name="s" unicode="s" horiz-adv-x="414" 
d="M373 154c0 -54 -16.1641 -95 -48.4971 -123s-73.5 -42 -123.5 -42c-32.667 0 -62.334 4.66699 -89.001 14s-52.334 23.666 -77.001 42.999l42 101c43.333 -30.667 85.333 -46 126 -46c18.667 0 32.5 3.83301 41.5 11.5s13.5 18.167 13.5 31.5
c0 7.33301 -1.5 13.833 -4.5 19.5s-8.16699 11.5 -15.5 17.5s-17 12.333 -29 19s-27.333 14.334 -46 23.001c-38 18.667 -66.5 40.167 -85.5 64.5s-28.5 56.833 -28.5 97.5c0 23.333 4 44.333 12 63s19.167 34.5 33.5 47.5s31.5 23 51.5 30s41.667 10.5 65 10.5
c28 0 53.833 -4 77.5 -12s47.167 -20 70.5 -36l-41 -96c-22.667 12 -41.834 20.333 -57.501 25s-33.167 7 -52.5 7c-13.333 0 -24 -3.33301 -32 -10s-12 -15.334 -12 -26.001c0 -6 1.16699 -11.5 3.5 -16.5s6.83301 -10.167 13.5 -15.5s15.667 -11.166 27 -17.499
s26 -13.833 44 -22.5c38.667 -18.667 68.5 -40 89.5 -64s31.5 -56.667 31.5 -98z" />
    <glyph glyph-name="t" unicode="t" horiz-adv-x="365" 
d="M307 12c-13.333 -7.33301 -27.333 -13 -42 -17s-30.667 -6 -48 -6c-42.667 0 -74.5 12.333 -95.5 37s-31.5 66 -31.5 124v263h-65v112h65v145l118 59v-204h106v-112h-106v-260c0 -19.333 3.66699 -32.833 11 -40.5s18 -11.5 32 -11.5c24 0 47.333 8.33301 70 25z" />
    <glyph glyph-name="u" unicode="u" horiz-adv-x="461" 
d="M288 0l-0.00195312 36.001c-13.333 -14 -28.166 -25.333 -44.499 -34s-34.166 -13 -53.499 -13c-28 0 -51 4.16699 -69 12.5s-32.333 20.666 -43 36.999s-18 36.5 -22 60.5s-6 51.333 -6 82v344h118v-340c0 -32.667 3 -55.167 9 -67.5s19.667 -18.5 41 -18.5
c13.333 0 26.5 4.66699 39.5 14s23.167 19.333 30.5 30v382h118v-525h-118z" />
    <glyph glyph-name="v" unicode="v" horiz-adv-x="436" 
d="M282 0l-128 0.000976562l-134 525h118l49 -227c2 -10.667 4.66699 -23.834 8 -39.501s6.5 -31.5 9.5 -47.5l8.5 -44.5l6 -31.5l6 32l9 45.5l9.5 47.5l7.5 38l49 227h116z" />
    <glyph glyph-name="w" unicode="w" horiz-adv-x="584" 
d="M448 0h-88.002l-38 182c-2.66699 12 -5.5 25.5 -8.5 40.5l-9 46c-3 15.667 -5.66699 30.5 -8 44.5s-4.16602 25.333 -5.49902 34c-1.33301 -8.66699 -3.16602 -20 -5.49902 -34s-5 -28.833 -8 -44.5l-9 -47c-3 -15.667 -5.83301 -29.5 -8.5 -41.5l-36 -180h-88l-116 525
h108l27 -154l7 -42.5l8 -47.5c2.66699 -16 5 -31 7 -45l5 -35c1.33301 9.33301 3.33301 21 6 35l9 45l10 47.5l9 41.5l34 155h84l34 -155l9 -41.5l10 -47.5l9 -45c2.66699 -14 4.66699 -25.667 6 -35l5 35c2 14 4.33301 29 7 45l8 47.5l7 42.5l27 154h108z" />
    <glyph glyph-name="x" unicode="x" horiz-adv-x="446" 
d="M297 0l-39 83.999c-7.33301 15.333 -13.833 30.5 -19.5 45.5l-16.5 44.5l-16.5 -44.5c-5.66699 -15 -12.167 -30.167 -19.5 -45.5l-39 -84h-124l140 272l-130 253h126l29 -64c7.33301 -15.333 13.833 -30.666 19.5 -45.999l16.5 -44l16.5 44.5
c5.66699 15 12.167 30.167 19.5 45.5l29 64h124l-130 -253l140 -272h-126z" />
    <glyph glyph-name="y" unicode="y" horiz-adv-x="452" 
d="M232 -185h-109l53 194l-156 516h124l49 -196l11 -44c4 -16.667 7.66699 -33 11 -49l9.5 -44.5c3 -13.667 5.16699 -24.167 6.5 -31.5l6 32l9 45l10 48.5l9 42.5l44 197h123z" />
    <glyph glyph-name="z" unicode="z" horiz-adv-x="415" 
d="M38 0v103l139 210l39.5 59l35.5 49c-15.333 -0.666992 -32.333 -1.16699 -51 -1.5s-38.667 -0.5 -60 -0.5h-88v106h317v-103l-136 -210c-13.333 -21.333 -26.5 -41 -39.5 -59l-36.5 -49c16 0.666992 33.333 1.16699 52 1.5s38.667 0.5 60 0.5h100v-106h-332z" />
    <glyph glyph-name="braceleft" unicode="{" horiz-adv-x="375" 
d="M335 -110c-82.667 0 -141.334 17.8379 -176.001 53.5049s-52 88.167 -52 157.5v75c0 24 -5.16699 41.5 -15.5 52.5s-25.166 16.5 -44.499 16.5h-22v104h22c19.333 0 34.166 5.5 44.499 16.5s15.5 28.5 15.5 52.5v76c0 69.333 17.333 121.833 52 157.5
s93.334 53.5 176.001 53.5v-81c-22.667 -2.66699 -40.5 -7 -53.5 -13s-23 -14.333 -30 -25s-11.5 -23.5 -13.5 -38.5s-3 -32.833 -3 -53.5v-41c0 -26.667 -1.83301 -49 -5.5 -67s-9.5 -32.833 -17.5 -44.5s-18 -20.834 -30 -27.501s-26 -12.334 -42 -17.001
c16 -4.66699 30 -10.334 42 -17.001s22 -15.834 30 -27.501s13.833 -26.334 17.5 -44.001s5.5 -40.167 5.5 -67.5v-40c0 -20.667 1 -38.5 3 -53.5s6.5 -27.833 13.5 -38.5s17 -19 30 -25s30.833 -10.333 53.5 -13v-81z" />
    <glyph glyph-name="bar" unicode="|" horiz-adv-x="258" 
d="M74 -185v985h110v-985h-110z" />
    <glyph glyph-name="braceright" unicode="}" horiz-adv-x="375" 
d="M328 246c-19.333 0 -34.166 -5.50488 -44.499 -16.5049s-15.5 -28.5 -15.5 -52.5v-76c0 -69.333 -17.167 -121.833 -51.5 -157.5s-93.166 -53.5 -176.499 -53.5v81c22.667 2.66699 40.5 7 53.5 13s23 14.333 30 25s11.5 23.5 13.5 38.5s3 32.833 3 53.5v41
c0 27.333 1.83301 49.833 5.5 67.5s9.5 32.334 17.5 44.001s18 20.834 30 27.501s26 12.334 42 17.001c-16 4.66699 -30 10.334 -42 17.001s-22 15.834 -30 27.501s-13.833 26.5 -17.5 44.5s-5.5 40.333 -5.5 67v40c0 20.667 -1 38.5 -3 53.5s-6.5 27.833 -13.5 38.5
s-17 19 -30 25s-30.833 10.333 -53.5 13v81c83.333 0 142.166 -17.833 176.499 -53.5s51.5 -88.167 51.5 -157.5v-75c0 -24 5.16699 -41.5 15.5 -52.5s25.166 -16.5 44.499 -16.5h22v-104h-22z" />
    <glyph glyph-name="asciitilde" unicode="~" horiz-adv-x="562" 
d="M520 424c-18 -46 -38.6689 -81 -62.002 -105s-53.666 -36 -90.999 -36c-20.667 0 -37.667 2.83301 -51 8.5s-28.333 14.167 -45 25.5c-21.333 14.667 -38.166 25 -50.499 31s-23.166 9 -32.499 9c-16 0 -28.833 -5.33301 -38.5 -16s-21.5 -30.667 -35.5 -60l-72 37
c18 46 38.667 81 62 105s53.666 36 90.999 36c20.667 0 37.667 -2.83301 51 -8.5s28.333 -14.167 45 -25.5c38.667 -26.667 66 -40 82 -40s29 5.33301 39 16s22 30.667 36 60z" />
    <glyph glyph-name="nonbreakingspace" unicode="&#xa0;" horiz-adv-x="115" 
 />
    <glyph glyph-name="exclamdown" unicode="&#xa1;" horiz-adv-x="265" 
d="M214 619c0 -22 -8 -41 -24 -57s-35 -24 -57 -24s-41 8 -57 24s-24 35 -24 57s8 41 24 57s35 24 57 24s41 -8 57 -24s24 -35 24 -57zM70 -11v336l19 154h87l19 -154v-336h-125z" />
    <glyph glyph-name="cent" unicode="&#xa2;" horiz-adv-x="430" 
d="M304 449c-9.33301 21.333 -19.666 38.499 -30.999 51.499s-25.666 19.5 -42.999 19.5c-26.667 0 -45.834 -15 -57.501 -45s-17.5 -69.667 -17.5 -119s6.16699 -89.166 18.5 -119.499s32.5 -45.5 60.5 -45.5c17.333 0 32.166 7.33301 44.499 22s22.833 33 31.5 55l87 -60
c-12 -28.667 -27.333 -53.5 -46 -74.5s-41.667 -35.833 -69 -44.5v-100h-119v106c-39.333 16 -70.5 45.667 -93.5 89s-34.5 100 -34.5 170s11.667 127 35 171s54.333 74 93 90v96h119v-88c52.667 -14 91.667 -51.667 117 -113z" />
    <glyph glyph-name="sterling" unicode="&#xa3;" horiz-adv-x="489" 
d="M401 541c-19.333 15.333 -38.833 27.3291 -58.5 35.9961s-40.834 13 -63.501 13c-23.333 0 -40.833 -5.66699 -52.5 -17s-17.5 -26.666 -17.5 -45.999c0 -13.333 2.16699 -28.333 6.5 -45s10.166 -32.667 17.499 -48c8.66699 -19.333 15.334 -38 20.001 -56h113v-103
h-106c-3.33301 -31.333 -10.166 -60.333 -20.499 -87s-23.833 -53 -40.5 -79h253v-109h-392v102c26 29.333 45.5 57.333 58.5 84s20.833 56.334 23.5 89.001h-82v103h70c-4.66699 14 -10.667 28 -18 42c-7.33301 15.333 -13.666 33 -18.999 53s-8 40.333 -8 61
c0 54.667 16.667 97.834 50 129.501s78.666 47.5 135.999 47.5c39.333 0 74.5 -6.66699 105.5 -20s60.833 -31.666 89.5 -54.999z" />
    <glyph glyph-name="currency" unicode="&#xa4;" horiz-adv-x="500" 
d="M164 373l0.00292969 -22v-25h181v-87h-173c14 -86.667 46.333 -130 97 -130c21.333 0 38.666 6.83301 51.999 20.5s26.333 40.167 39 79.5l108 -46c-16.667 -58 -41.5 -101.5 -74.5 -130.5s-76.833 -43.5 -131.5 -43.5c-37.333 0 -69.833 9.33301 -97.5 28
s-50.834 44.167 -69.501 76.5s-32.5 70.5 -41.5 114.5s-13.5 91 -13.5 141c0 50.667 4.66699 98 14 142s23.5 82.333 42.5 115s42.833 58.334 71.5 77.001s62.334 28 101.001 28c30 0 55.833 -4 77.5 -12s40.167 -19.5 55.5 -34.5s28.166 -33.167 38.499 -54.5
s19.166 -45 26.499 -71l-117 -38c-8.66699 29.333 -19.5 51.666 -32.5 66.999s-31.5 23 -55.5 23c-48.667 0 -79 -43.667 -91 -131h174v-87h-181z" />
    <glyph glyph-name="yen" unicode="&#xa5;" horiz-adv-x="496" 
d="M306 247l-0.000976562 -28.001h105v-107h-105v-112h-117v112h-105v107h105v26l-174 455h138l46 -142l14 -43.5c5.33301 -16.333 10.333 -32.5 15 -48.5s8.83398 -31.167 12.501 -45.5s6.5 -26.166 8.5 -35.499c2 10 5 22 9 36l13 45l14.5 48l13.5 44l46 142h136z" />
    <glyph glyph-name="brokenbar" unicode="&#xa6;" 
d="M574 217c-5.33301 -3.33301 -10.333 -5 -15 -5s-8.33398 1 -11.001 3c-10.667 7.33301 -13.667 17.666 -9 30.999l14 50h-116v-114l51 14c13.333 4.66699 23.333 1.66699 30 -9c2 -2.66699 3 -6.33398 3 -11.001s-2 -9.66699 -6 -15l-130 -176l-133 176
c-3.33301 5.33301 -5 10.333 -5 15s1 8.33398 3 11.001c7.33301 10.667 17.666 13.667 30.999 9l50 -14v114h-114l14 -50c4.66699 -13.333 1.66699 -23.666 -9 -30.999c-2.66699 -2 -6.33398 -3 -11.001 -3s-9.66699 1.66699 -15 5l-176 133l176 130
c5.33301 4 10.333 6 15 6s8.33398 -1 11.001 -3c10.667 -6.66699 13.667 -16.667 9 -30l-14 -51h114v116l-50 -14c-13.333 -4.66699 -23.666 -1.66699 -30.999 9c-2 2.66699 -3 6.33398 -3 11.001s1.66699 9.66699 5 15l133 176l130 -176c4 -5.33301 6 -10.333 6 -15
s-1 -8.33398 -3 -11.001c-6.66699 -10.667 -16.667 -13.667 -30 -9l-51 14v-116h116l-14 51c-4.66699 13.333 -1.66699 23.333 9 30c2.66699 2 6.33398 3 11.001 3s9.66699 -2 15 -6l176 -130z" />
    <glyph glyph-name="section" unicode="&#xa7;" horiz-adv-x="527" 
d="M483 261c0 -37.333 -8.5 -68.166 -25.5 -92.499s-38.167 -44.833 -63.5 -61.5c16 -14.667 27.833 -30.5 35.5 -47.5s11.5 -37.167 11.5 -60.5c0 -48.667 -16.667 -88 -50 -118s-79 -45 -137 -45c-32.667 0 -63.334 5.16699 -92.001 15.5s-56.667 24.166 -84 41.499l54 97
c18.667 -12 38.334 -21.833 59.001 -29.5s41 -11.5 61 -11.5c42 0 63 15 63 45c0 8.66699 -1.5 16.334 -4.5 23.001s-8.5 13.5 -16.5 20.5s-19 14.333 -33 22s-32 16.834 -54 27.501c-28.667 14 -53.167 27.667 -73.5 41s-37.166 27.5 -50.499 42.5
s-23.166 31.833 -29.499 50.5s-9.5 40.334 -9.5 65.001c0 37.333 8.33301 68.166 25 92.499s37.667 44.833 63 61.5c-15.333 14.667 -26.833 30.5 -34.5 47.5s-11.5 37.167 -11.5 60.5c0 48.667 16.667 88 50 118s79 45 137 45c32.667 0 63.334 -5.16699 92.001 -15.5
s56.667 -24.166 84 -41.499l-54 -97c-18.667 12 -38.334 21.833 -59.001 29.5s-41 11.5 -61 11.5c-42 0 -63 -15 -63 -45c0 -8.66699 1.5 -16.334 4.5 -23.001s8.5 -13.5 16.5 -20.5s19 -14.333 33 -22s32 -16.834 54 -27.501c28.667 -14 53.167 -27.667 73.5 -41
s37.166 -27.5 50.499 -42.5s23.166 -31.833 29.499 -50.5s9.5 -40.334 9.5 -65.001zM358 252c0 13.333 -1.66699 24.832 -5 34.499s-9.16602 18.834 -17.499 27.501s-19.5 17.167 -33.5 25.5s-31.667 17.833 -53 28.5l-12.5 6c-4.33301 2 -8.16602 4 -11.499 6
c-18.667 -10.667 -32.667 -22.667 -42 -36s-14 -29.666 -14 -48.999c0 -12.667 1.66699 -24 5 -34s9.16602 -19.333 17.499 -28s19.5 -17.167 33.5 -25.5s31.667 -17.833 53 -28.5l12.5 -6c4.33301 -2 8.16602 -4 11.499 -6c18.667 10.667 32.667 22.667 42 36
s14 29.666 14 48.999z" />
    <glyph glyph-name="dieresis" unicode="&#xa8;" horiz-adv-x="400" 
d="M367 666c0 -19.333 -7 -36 -21 -50s-30.667 -21 -50 -21s-36.166 7 -50.499 21s-21.5 30.667 -21.5 50s7.16699 36.166 21.5 50.499s31.166 21.5 50.499 21.5s36 -7.16699 50 -21.5s21 -31.166 21 -50.499zM176 666c0 -19.333 -7 -36 -21 -50s-30.667 -21 -50 -21
s-36.166 7 -50.499 21s-21.5 30.667 -21.5 50s7.16699 36.166 21.5 50.499s31.166 21.5 50.499 21.5s36 -7.16699 50 -21.5s21 -31.166 21 -50.499z" />
    <glyph glyph-name="copyright" unicode="&#xa9;" horiz-adv-x="646" 
d="M596 350c0 -54.667 -7 -104.167 -21 -148.5s-33.333 -82.333 -58 -114s-54 -56 -88 -73s-71 -25.5 -111 -25.5s-77 8.5 -111 25.5s-63.333 41.333 -88 73s-44 69.667 -58 114s-21 93.833 -21 148.5s7 104.167 21 148.5s33.333 82.333 58 114s54 56 88 73
s71 25.5 111 25.5s77 -8.5 111 -25.5s63.333 -41.333 88 -73s44 -69.667 58 -114s21 -93.833 21 -148.5zM535 348c0 45.333 -5.16797 86.833 -15.501 124.5s-25 69.834 -44 96.501s-41.833 47.334 -68.5 62.001s-56.334 22 -89.001 22c-33.333 0 -63.333 -7.16699 -90 -21.5
s-49.5 -34.666 -68.5 -60.999s-33.5 -58 -43.5 -95s-15 -78.167 -15 -123.5s5.16699 -86.833 15.5 -124.5s25 -69.834 44 -96.501s42 -47.334 69 -62.001s57.167 -22 90.5 -22c32.667 0 62.334 7.16699 89.001 21.5s49.334 34.666 68.001 60.999s33 58 43 95
s15 78.167 15 123.5zM432.999 250c-9.33301 -32.667 -22.9961 -57.666 -40.9961 -74.999s-42 -26 -72 -26c-22 0 -40.833 5.16699 -56.5 15.5s-28.834 24.666 -39.501 42.999s-18.5 39.833 -23.5 64.5s-7.5 51 -7.5 79s2.66699 54.333 8 79s13.166 46.167 23.499 64.5
s23.5 32.833 39.5 43.5s35 16 57 16c34 0 59.167 -9.5 75.5 -28.5s28.166 -42.833 35.499 -71.5l-66 -21c-5.33301 18 -11 31 -17 39s-15.667 12 -29 12c-19.333 0 -33.333 -11.5 -42 -34.5s-13 -55.5 -13 -97.5s4.5 -74.667 13.5 -98s23.167 -35 42.5 -35
c12 0 21.667 4 29 12s14.666 22.667 21.999 44z" />
    <glyph glyph-name="ordfeminine" unicode="&#xaa;" horiz-adv-x="396" 
d="M244 277l-0.000976562 29.001c-10 -12.667 -21.833 -22.167 -35.5 -28.5s-27.167 -9.5 -40.5 -9.5c-38 0 -68.5 13.167 -91.5 39.5s-34.5 62.5 -34.5 108.5c0 44 12.167 78.667 36.5 104s55.5 38 93.5 38c19.333 0 33.833 -1.5 43.5 -4.5s19.167 -7.16699 28.5 -12.5v32
c0 15.333 -3.66699 28 -11 38s-20.666 15 -39.999 15c-18 0 -33.5 -2 -46.5 -6s-26.167 -10.667 -39.5 -20l-39 69c19.333 13.333 39.5 23.666 60.5 30.999s44.5 11 70.5 11c50 0 85.833 -12 107.5 -36s32.5 -59.333 32.5 -106v-292h-95zM243.999 456.001
c-8 6.66699 -16 11.833 -24 15.5s-19.667 5.5 -35 5.5c-13.333 0 -24.333 -5.5 -33 -16.5s-13 -25.167 -13 -42.5c0 -43.333 16.333 -65 49 -65c11.333 0 22 3.33301 32 10s18 15 24 25v68z" />
    <glyph glyph-name="guillemotleft" unicode="&#xab;" horiz-adv-x="510" 
d="M357 0l-135 262l135 263h118l-130 -262l130 -263h-118zM155 0l-135 262l135 263h118l-130 -262l130 -263h-118z" />
    <glyph glyph-name="logicalnot" unicode="&#xac;" horiz-adv-x="580" 
d="M364 199c-6 -3.33301 -11.5 -4.99902 -16.5 -4.99902s-9.16699 1 -12.5 3c-11.333 8 -14.666 19.667 -9.99902 35l16 55h-296v118h296l-16 57c-4.66699 14.667 -1.33398 25.667 9.99902 33c3.33301 2 7.5 3.16699 12.5 3.5s10.5 -1.83398 16.5 -6.50098l196 -145z" />
    <glyph glyph-name="registered" unicode="&#xae;" horiz-adv-x="646" 
d="M596 350c0 -54.667 -7 -104.167 -21 -148.5s-33.333 -82.333 -58 -114s-54 -56 -88 -73s-71 -25.5 -111 -25.5s-77 8.5 -111 25.5s-63.333 41.333 -88 73s-44 69.667 -58 114s-21 93.833 -21 148.5s7 104.167 21 148.5s33.333 82.333 58 114s54 56 88 73
s71 25.5 111 25.5s77 -8.5 111 -25.5s63.333 -41.333 88 -73s44 -69.667 58 -114s21 -93.833 21 -148.5zM535 348c0 45.333 -5.16797 86.833 -15.501 124.5s-25 69.834 -44 96.501s-41.833 47.334 -68.5 62.001s-56.334 22 -89.001 22c-33.333 0 -63.333 -7.16699 -90 -21.5
s-49.5 -34.666 -68.5 -60.999s-33.5 -58 -43.5 -95s-15 -78.167 -15 -123.5s5.16699 -86.833 15.5 -124.5s25 -69.834 44 -96.501s42 -47.334 69 -62.001s57.167 -22 90.5 -22c32.667 0 62.334 7.16699 89.001 21.5s49.334 34.666 68.001 60.999s33 58 43 95
s15 78.167 15 123.5zM368.999 162l-61 149h-23v-149h-70v392h105c38 0 68.333 -10.167 91 -30.5s34 -50.833 34 -91.5c0 -28 -6.33301 -50.667 -19 -68s-28.667 -30.333 -48 -39l68 -163h-77zM374.999 430c0 18 -4.5 31.667 -13.5 41s-24.167 14 -45.5 14h-31v-109h35
c36.667 0 55 18 55 54z" />
    <glyph glyph-name="macron" unicode="&#xaf;" horiz-adv-x="400" 
d="M70 610v95h260v-95h-260z" />
    <glyph glyph-name="degree" unicode="&#xb0;" horiz-adv-x="423" 
d="M393 531c0 -26 -4.66699 -50.167 -14 -72.5s-22.166 -41.666 -38.499 -57.999s-35.5 -29.166 -57.5 -38.499s-46 -14 -72 -14c-25.333 0 -49 4.66699 -71 14s-41.167 22.166 -57.5 38.499s-29.166 35.666 -38.499 57.999s-14 46.5 -14 72.5
c0 25.333 4.66699 48.833 14 70.5s22.166 40.667 38.499 57s35.5 29.166 57.5 38.499s45.667 14 71 14c26 0 50 -4.66699 72 -14s41.167 -22.166 57.5 -38.499s29.166 -35.333 38.499 -57s14 -45.167 14 -70.5zM300 531c0 23.333 -8.66699 43.833 -26 61.5
s-38.333 26.5 -63 26.5c-12 0 -23.333 -2.33301 -34 -7s-20 -11 -28 -19s-14.333 -17.333 -19 -28s-7 -22 -7 -34c0 -25.333 8.66699 -46.833 26 -64.5s38 -26.5 62 -26.5c24.667 0 45.667 8.83301 63 26.5s26 39.167 26 64.5z" />
    <glyph glyph-name="plusminus" unicode="&#xb1;" 
d="M574 217c-5.33301 -3.33301 -10.333 -5 -15 -5s-8.33398 1 -11.001 3c-10.667 7.33301 -13.667 17.666 -9 30.999l14 50h-116v-114l51 14c13.333 4.66699 23.333 1.66699 30 -9c2 -2.66699 3 -6.33398 3 -11.001s-2 -9.66699 -6 -15l-130 -176l-133 176
c-3.33301 5.33301 -5 10.333 -5 15s1 8.33398 3 11.001c7.33301 10.667 17.666 13.667 30.999 9l50 -14v114h-114l14 -50c4.66699 -13.333 1.66699 -23.666 -9 -30.999c-2.66699 -2 -6.33398 -3 -11.001 -3s-9.66699 1.66699 -15 5l-176 133l176 130
c5.33301 4 10.333 6 15 6s8.33398 -1 11.001 -3c10.667 -6.66699 13.667 -16.667 9 -30l-14 -51h114v116l-50 -14c-13.333 -4.66699 -23.666 -1.66699 -30.999 9c-2 2.66699 -3 6.33398 -3 11.001s1.66699 9.66699 5 15l133 176l130 -176c4 -5.33301 6 -10.333 6 -15
s-1 -8.33398 -3 -11.001c-6.66699 -10.667 -16.667 -13.667 -30 -9l-51 14v-116h116l-14 51c-4.66699 13.333 -1.66699 23.333 9 30c2.66699 2 6.33398 3 11.001 3s9.66699 -2 15 -6l176 -130z" />
    <glyph glyph-name="twosuperior" unicode="&#xb2;" 
d="M574 217c-5.33301 -3.33301 -10.333 -5 -15 -5s-8.33398 1 -11.001 3c-10.667 7.33301 -13.667 17.666 -9 30.999l14 50h-116v-114l51 14c13.333 4.66699 23.333 1.66699 30 -9c2 -2.66699 3 -6.33398 3 -11.001s-2 -9.66699 -6 -15l-130 -176l-133 176
c-3.33301 5.33301 -5 10.333 -5 15s1 8.33398 3 11.001c7.33301 10.667 17.666 13.667 30.999 9l50 -14v114h-114l14 -50c4.66699 -13.333 1.66699 -23.666 -9 -30.999c-2.66699 -2 -6.33398 -3 -11.001 -3s-9.66699 1.66699 -15 5l-176 133l176 130
c5.33301 4 10.333 6 15 6s8.33398 -1 11.001 -3c10.667 -6.66699 13.667 -16.667 9 -30l-14 -51h114v116l-50 -14c-13.333 -4.66699 -23.666 -1.66699 -30.999 9c-2 2.66699 -3 6.33398 -3 11.001s1.66699 9.66699 5 15l133 176l130 -176c4 -5.33301 6 -10.333 6 -15
s-1 -8.33398 -3 -11.001c-6.66699 -10.667 -16.667 -13.667 -30 -9l-51 14v-116h116l-14 51c-4.66699 13.333 -1.66699 23.333 9 30c2.66699 2 6.33398 3 11.001 3s9.66699 -2 15 -6l176 -130z" />
    <glyph glyph-name="threesuperior" unicode="&#xb3;" 
d="M574 217c-5.33301 -3.33301 -10.333 -5 -15 -5s-8.33398 1 -11.001 3c-10.667 7.33301 -13.667 17.666 -9 30.999l14 50h-116v-114l51 14c13.333 4.66699 23.333 1.66699 30 -9c2 -2.66699 3 -6.33398 3 -11.001s-2 -9.66699 -6 -15l-130 -176l-133 176
c-3.33301 5.33301 -5 10.333 -5 15s1 8.33398 3 11.001c7.33301 10.667 17.666 13.667 30.999 9l50 -14v114h-114l14 -50c4.66699 -13.333 1.66699 -23.666 -9 -30.999c-2.66699 -2 -6.33398 -3 -11.001 -3s-9.66699 1.66699 -15 5l-176 133l176 130
c5.33301 4 10.333 6 15 6s8.33398 -1 11.001 -3c10.667 -6.66699 13.667 -16.667 9 -30l-14 -51h114v116l-50 -14c-13.333 -4.66699 -23.666 -1.66699 -30.999 9c-2 2.66699 -3 6.33398 -3 11.001s1.66699 9.66699 5 15l133 176l130 -176c4 -5.33301 6 -10.333 6 -15
s-1 -8.33398 -3 -11.001c-6.66699 -10.667 -16.667 -13.667 -30 -9l-51 14v-116h116l-14 51c-4.66699 13.333 -1.66699 23.333 9 30c2.66699 2 6.33398 3 11.001 3s9.66699 -2 15 -6l176 -130z" />
    <glyph glyph-name="acute" unicode="&#xb4;" horiz-adv-x="400" 
d="M190 595h-97l87 160h155z" />
    <glyph glyph-name="mu" unicode="&#xb5;" horiz-adv-x="730" 
d="M514 199c-6 -3.33301 -11.5 -5 -16.5 -5s-9.16699 1 -12.5 3c-11.333 8 -14.666 19.667 -9.99902 35l16 55h-252l16 -55c4.66699 -15.333 1.33398 -27 -9.99902 -35c-3.33301 -2 -7.5 -3 -12.5 -3s-10.5 1.66699 -16.5 5l-196 148l196 145
c6 4.66699 11.5 6.83398 16.5 6.50098s9.16699 -1.5 12.5 -3.5c11.333 -7.33301 14.666 -18.333 9.99902 -33l-16 -57h252l-16 57c-4.66699 14.667 -1.33398 25.667 9.99902 33c3.33301 2 7.5 3.16699 12.5 3.5s10.5 -1.83398 16.5 -6.50098l196 -145z" />
    <glyph glyph-name="paragraph" unicode="&#xb6;" horiz-adv-x="620" 
d="M442 -185v789.001h-64v-789h-105v436h-8c-33.333 0 -63.666 4.83301 -90.999 14.5s-50.833 24 -70.5 43s-34.834 42.5 -45.501 70.5s-16 60.333 -16 97c0 38 6.33301 71 19 99s29.5 51.167 50.5 69.5s45.167 32.166 72.5 41.499s56 14 86 14h277v-885h-105z" />
    <glyph glyph-name="periodcentered" unicode="&#xb7;" horiz-adv-x="246" 
d="M206 367c0 -22.667 -8.16699 -42.167 -24.5 -58.5s-35.833 -24.5 -58.5 -24.5s-42.167 8.16699 -58.5 24.5s-24.5 35.833 -24.5 58.5s8.16699 42.167 24.5 58.5s35.833 24.5 58.5 24.5s42.167 -8.16699 58.5 -24.5s24.5 -35.833 24.5 -58.5z" />
    <glyph glyph-name="cedilla" unicode="&#xb8;" horiz-adv-x="400" 
d="M319 -106c0 -30 -9.83008 -51.999 -29.4971 -65.999s-44.5 -21 -74.5 -21c-26 0 -47.667 3.16699 -65 9.5s-34.333 15.166 -51 26.499l21 38c15.333 -8 28.166 -14.333 38.499 -19s22.166 -7 35.499 -7c17.333 0 29.833 3.16699 37.5 9.5s11.5 15.166 11.5 26.499
c0 18.667 -8.66699 28 -26 28c-6.66699 0 -12.167 -0.666992 -16.5 -2s-8.83301 -3.66602 -13.5 -6.99902l-36 14l21 88h57l-12 -54c9.33301 4 21.333 6 36 6c19.333 0 35.166 -5.83301 47.499 -17.5s18.5 -29.167 18.5 -52.5z" />
    <glyph glyph-name="onesuperior" unicode="&#xb9;" 
d="M574 217c-5.33301 -3.33301 -10.333 -5 -15 -5s-8.33398 1 -11.001 3c-10.667 7.33301 -13.667 17.666 -9 30.999l14 50h-116v-114l51 14c13.333 4.66699 23.333 1.66699 30 -9c2 -2.66699 3 -6.33398 3 -11.001s-2 -9.66699 -6 -15l-130 -176l-133 176
c-3.33301 5.33301 -5 10.333 -5 15s1 8.33398 3 11.001c7.33301 10.667 17.666 13.667 30.999 9l50 -14v114h-114l14 -50c4.66699 -13.333 1.66699 -23.666 -9 -30.999c-2.66699 -2 -6.33398 -3 -11.001 -3s-9.66699 1.66699 -15 5l-176 133l176 130
c5.33301 4 10.333 6 15 6s8.33398 -1 11.001 -3c10.667 -6.66699 13.667 -16.667 9 -30l-14 -51h114v116l-50 -14c-13.333 -4.66699 -23.666 -1.66699 -30.999 9c-2 2.66699 -3 6.33398 -3 11.001s1.66699 9.66699 5 15l133 176l130 -176c4 -5.33301 6 -10.333 6 -15
s-1 -8.33398 -3 -11.001c-6.66699 -10.667 -16.667 -13.667 -30 -9l-51 14v-116h116l-14 51c-4.66699 13.333 -1.66699 23.333 9 30c2.66699 2 6.33398 3 11.001 3s9.66699 -2 15 -6l176 -130z" />
    <glyph glyph-name="ordmasculine" unicode="&#xba;" horiz-adv-x="398" 
d="M360 490c0 -72.667 -14.833 -127.833 -44.5 -165.5s-68.5 -56.5 -116.5 -56.5s-86.833 18.667 -116.5 56s-44.5 92 -44.5 164c0 72.667 15 128 45 166s69 57 117 57s86.667 -18.833 116 -56.5s44 -92.5 44 -164.5zM263 488.001c0 40 -5.00098 71.998 -15.001 95.998
s-26.667 36 -50 36s-39.666 -11.667 -48.999 -35s-14 -55 -14 -95s5 -71.833 15 -95.5s26.667 -35.5 50 -35.5c11.333 0 21 3.33301 29 10s14.5 15.834 19.5 27.501s8.66699 25.334 11 41.001s3.5 32.5 3.5 50.5z" />
    <glyph glyph-name="guillemotright" unicode="&#xbb;" horiz-adv-x="510" 
d="M355 0h-118l130 262l-130 263h118l135 -262zM153 0h-118l130 262l-130 263h118l135 -262z" />
    <glyph glyph-name="onequarter" unicode="&#xbc;" 
d="M574 217c-5.33301 -3.33301 -10.333 -5 -15 -5s-8.33398 1 -11.001 3c-10.667 7.33301 -13.667 17.666 -9 30.999l14 50h-116v-114l51 14c13.333 4.66699 23.333 1.66699 30 -9c2 -2.66699 3 -6.33398 3 -11.001s-2 -9.66699 -6 -15l-130 -176l-133 176
c-3.33301 5.33301 -5 10.333 -5 15s1 8.33398 3 11.001c7.33301 10.667 17.666 13.667 30.999 9l50 -14v114h-114l14 -50c4.66699 -13.333 1.66699 -23.666 -9 -30.999c-2.66699 -2 -6.33398 -3 -11.001 -3s-9.66699 1.66699 -15 5l-176 133l176 130
c5.33301 4 10.333 6 15 6s8.33398 -1 11.001 -3c10.667 -6.66699 13.667 -16.667 9 -30l-14 -51h114v116l-50 -14c-13.333 -4.66699 -23.666 -1.66699 -30.999 9c-2 2.66699 -3 6.33398 -3 11.001s1.66699 9.66699 5 15l133 176l130 -176c4 -5.33301 6 -10.333 6 -15
s-1 -8.33398 -3 -11.001c-6.66699 -10.667 -16.667 -13.667 -30 -9l-51 14v-116h116l-14 51c-4.66699 13.333 -1.66699 23.333 9 30c2.66699 2 6.33398 3 11.001 3s9.66699 -2 15 -6l176 -130z" />
    <glyph glyph-name="onehalf" unicode="&#xbd;" 
d="M574 217c-5.33301 -3.33301 -10.333 -5 -15 -5s-8.33398 1 -11.001 3c-10.667 7.33301 -13.667 17.666 -9 30.999l14 50h-116v-114l51 14c13.333 4.66699 23.333 1.66699 30 -9c2 -2.66699 3 -6.33398 3 -11.001s-2 -9.66699 -6 -15l-130 -176l-133 176
c-3.33301 5.33301 -5 10.333 -5 15s1 8.33398 3 11.001c7.33301 10.667 17.666 13.667 30.999 9l50 -14v114h-114l14 -50c4.66699 -13.333 1.66699 -23.666 -9 -30.999c-2.66699 -2 -6.33398 -3 -11.001 -3s-9.66699 1.66699 -15 5l-176 133l176 130
c5.33301 4 10.333 6 15 6s8.33398 -1 11.001 -3c10.667 -6.66699 13.667 -16.667 9 -30l-14 -51h114v116l-50 -14c-13.333 -4.66699 -23.666 -1.66699 -30.999 9c-2 2.66699 -3 6.33398 -3 11.001s1.66699 9.66699 5 15l133 176l130 -176c4 -5.33301 6 -10.333 6 -15
s-1 -8.33398 -3 -11.001c-6.66699 -10.667 -16.667 -13.667 -30 -9l-51 14v-116h116l-14 51c-4.66699 13.333 -1.66699 23.333 9 30c2.66699 2 6.33398 3 11.001 3s9.66699 -2 15 -6l176 -130z" />
    <glyph glyph-name="threequarters" unicode="&#xbe;" 
d="M574 217c-5.33301 -3.33301 -10.333 -5 -15 -5s-8.33398 1 -11.001 3c-10.667 7.33301 -13.667 17.666 -9 30.999l14 50h-116v-114l51 14c13.333 4.66699 23.333 1.66699 30 -9c2 -2.66699 3 -6.33398 3 -11.001s-2 -9.66699 -6 -15l-130 -176l-133 176
c-3.33301 5.33301 -5 10.333 -5 15s1 8.33398 3 11.001c7.33301 10.667 17.666 13.667 30.999 9l50 -14v114h-114l14 -50c4.66699 -13.333 1.66699 -23.666 -9 -30.999c-2.66699 -2 -6.33398 -3 -11.001 -3s-9.66699 1.66699 -15 5l-176 133l176 130
c5.33301 4 10.333 6 15 6s8.33398 -1 11.001 -3c10.667 -6.66699 13.667 -16.667 9 -30l-14 -51h114v116l-50 -14c-13.333 -4.66699 -23.666 -1.66699 -30.999 9c-2 2.66699 -3 6.33398 -3 11.001s1.66699 9.66699 5 15l133 176l130 -176c4 -5.33301 6 -10.333 6 -15
s-1 -8.33398 -3 -11.001c-6.66699 -10.667 -16.667 -13.667 -30 -9l-51 14v-116h116l-14 51c-4.66699 13.333 -1.66699 23.333 9 30c2.66699 2 6.33398 3 11.001 3s9.66699 -2 15 -6l176 -130z" />
    <glyph glyph-name="questiondown" unicode="&#xbf;" horiz-adv-x="444" 
d="M324 630c0 -22 -8 -41 -24 -57s-35 -24 -57 -24s-41 8 -57 24s-24 35 -24 57s8 41 24 57s35 24 57 24s41 -8 57 -24s24 -35 24 -57zM435 103c-25.333 -35.333 -54.332 -63.167 -86.999 -83.5s-73.667 -30.5 -123 -30.5c-28 0 -53.833 3.66699 -77.5 11
s-44.334 18.666 -62.001 33.999s-31.5 34.5 -41.5 57.5s-15 50.167 -15 81.5c0 40.667 8.66699 74.167 26 100.5s40 50.833 68 73.5c20.667 16.667 36 35.667 46 57s15 50 15 86h118c0 -27.333 -1.66699 -51.5 -5 -72.5s-9.16602 -40.333 -17.499 -58
s-19.333 -34.167 -33 -49.5s-30.834 -31 -51.501 -47c-12.667 -10 -22.834 -22.167 -30.501 -36.5s-11.5 -28.5 -11.5 -42.5c0 -21.333 6.83301 -38.666 20.5 -51.999s34.834 -20 63.501 -20c21.333 0 41.5 6.16699 60.5 18.5s37.167 29.5 54.5 51.5z" />
    <glyph glyph-name="Agrave" unicode="&#xc0;" horiz-adv-x="536" 
d="M379 0l-33 146h-157l-33 -146h-128l179 700h122l179 -700h-129zM300 346c-2.66699 13.333 -5.83594 28.165 -9.50293 44.498s-7 32.333 -10 48s-5.66699 30.334 -8 44.001s-4.16602 24.834 -5.49902 33.501c-1.33301 -8.66699 -3.16602 -19.667 -5.49902 -33l-7.5 -43
c-2.66699 -15.333 -5.66699 -31 -9 -47s-6.66602 -31 -9.99902 -45l-19 -85h103zM225.998 744.999l-145 160h155l87 -160h-97z" />
    <glyph glyph-name="Aacute" unicode="&#xc1;" horiz-adv-x="536" 
d="M379 0l-33 146h-157l-33 -146h-128l179 700h122l179 -700h-129zM300 346c-2.66699 13.333 -5.83594 28.165 -9.50293 44.498s-7 32.333 -10 48s-5.66699 30.334 -8 44.001s-4.16602 24.834 -5.49902 33.501c-1.33301 -8.66699 -3.16602 -19.667 -5.49902 -33l-7.5 -43
c-2.66699 -15.333 -5.66699 -31 -9 -47s-6.66602 -31 -9.99902 -45l-19 -85h103zM304.998 744.999h-97l87 160h155z" />
    <glyph glyph-name="Acircumflex" unicode="&#xc2;" horiz-adv-x="536" 
d="M379 0l-33 146h-157l-33 -146h-128l179 700h122l179 -700h-129zM300 346c-2.66699 13.333 -5.83594 28.165 -9.50293 44.498s-7 32.333 -10 48s-5.66699 30.334 -8 44.001s-4.16602 24.834 -5.49902 33.501c-1.33301 -8.66699 -3.16602 -19.667 -5.49902 -33l-7.5 -43
c-2.66699 -15.333 -5.66699 -31 -9 -47s-6.66602 -31 -9.99902 -45l-19 -85h103zM342.998 739.999l-77 73l-77 -73h-86l109 160h110l109 -160h-88z" />
    <glyph glyph-name="Atilde" unicode="&#xc3;" horiz-adv-x="536" 
d="M379 0l-33 146h-157l-33 -146h-128l179 700h122l179 -700h-129zM300 346c-2.66699 13.333 -5.83594 28.165 -9.50293 44.498s-7 32.333 -10 48s-5.66699 30.334 -8 44.001s-4.16602 24.834 -5.49902 33.501c-1.33301 -8.66699 -3.16602 -19.667 -5.49902 -33l-7.5 -43
c-2.66699 -15.333 -5.66699 -31 -9 -47s-6.66602 -31 -9.99902 -45l-19 -85h103zM433.998 871.999c0 -40 -9 -71.667 -27 -95s-41.667 -35 -71 -35c-18 0 -32.5 2.16699 -43.5 6.5s-25.167 11.5 -42.5 21.5c-13.333 8 -22.666 13 -27.999 15s-11 3 -17 3
c-8 0 -14 -3.16699 -18 -9.5s-7.33301 -17.5 -10 -33.5h-77c0 40 9 71.667 27 95s41.667 35 71 35c18 0 32.5 -2.16699 43.5 -6.5s25.167 -11.5 42.5 -21.5c13.333 -8 22.666 -13 27.999 -15s11 -3 17 -3c8 0 14 3.16699 18 9.5s7.33301 17.5 10 33.5h77z" />
    <glyph glyph-name="Adieresis" unicode="&#xc4;" horiz-adv-x="536" 
d="M379 0l-33 146h-157l-33 -146h-128l179 700h122l179 -700h-129zM300 346c-2.66699 13.333 -5.83594 28.165 -9.50293 44.498s-7 32.333 -10 48s-5.66699 30.334 -8 44.001s-4.16602 24.834 -5.49902 33.501c-1.33301 -8.66699 -3.16602 -19.667 -5.49902 -33l-7.5 -43
c-2.66699 -15.333 -5.66699 -31 -9 -47s-6.66602 -31 -9.99902 -45l-19 -85h103zM431.998 815.999c0 -19.333 -7 -36 -21 -50s-30.667 -21 -50 -21s-36.166 7 -50.499 21s-21.5 30.667 -21.5 50s7.16699 36.166 21.5 50.499s31.166 21.5 50.499 21.5s36 -7.16699 50 -21.5
s21 -31.166 21 -50.499zM240.998 815.999c0 -19.333 -7 -36 -21 -50s-30.667 -21 -50 -21s-36.166 7 -50.499 21s-21.5 30.667 -21.5 50s7.16699 36.166 21.5 50.499s31.166 21.5 50.499 21.5s36 -7.16699 50 -21.5s21 -31.166 21 -50.499z" />
    <glyph glyph-name="Aring" unicode="&#xc5;" horiz-adv-x="536" 
d="M379 0l-33 146h-157l-33 -146h-128l165 645c-13.333 10.667 -24 24 -32 40s-12 33.667 -12 53c0 34 11.333 62.333 34 85s51 34 85 34s62.333 -11.333 85 -34s34 -51 34 -85c0 -19.333 -4 -37 -12 -53s-18.667 -29.333 -32 -40l165 -645h-129zM320 738
c0 15.333 -5 28 -15 38s-22.333 15 -37 15s-27 -5 -37 -15s-15 -22.667 -15 -38s5 -28 15 -38s22.333 -15 37 -15s27 5 37 15s15 22.667 15 38zM300 346c-2.66699 13.333 -5.83594 28.165 -9.50293 44.498s-7 32.333 -10 48s-5.66699 30.334 -8 44.001
s-4.16602 24.834 -5.49902 33.501c-1.33301 -8.66699 -3.16602 -19.667 -5.49902 -33l-7.5 -43c-2.66699 -15.333 -5.66699 -31 -9 -47s-6.66602 -31 -9.99902 -45l-19 -85h103z" />
    <glyph glyph-name="AE" unicode="&#xc6;" horiz-adv-x="733" 
d="M337 0v141h-147l-47 -141h-126l249 700h415v-116h-225v-154h148v-114h-148v-200h234v-116h-353zM338 589c-5.33301 -18.667 -11.833 -39.667 -19.5 -63l-21.5 -64l-69 -207h109v216v57.5c0 23 0.333008 43.167 1 60.5z" />
    <glyph glyph-name="Ccedilla" unicode="&#xc7;" horiz-adv-x="500" 
d="M468 168c-16 -56 -39.001 -99.165 -69.001 -129.498s-70 -46.833 -120 -49.5l-7 -31c9.33301 4 21.333 6 36 6c19.333 0 35.166 -5.83301 47.499 -17.5s18.5 -29.167 18.5 -52.5c0 -30 -9.83301 -52 -29.5 -66s-44.5 -21 -74.5 -21c-26 0 -47.667 3.16699 -65 9.5
s-34.333 15.166 -51 26.499l21 38c15.333 -8 28.166 -14.333 38.499 -19s22.166 -7 35.499 -7c17.333 0 29.833 3.16699 37.5 9.5s11.5 15.166 11.5 26.499c0 18.667 -8.66699 28 -26 28c-6.66699 0 -12.167 -0.666992 -16.5 -2s-8.83301 -3.66602 -13.5 -6.99902l-36 14
l17 70c-31.333 7.33301 -58.5 21.333 -81.5 42s-42 46.667 -57 78s-26.167 67 -33.5 107s-11 82.667 -11 128c0 50.667 4.66699 98 14 142s23.5 82.333 42.5 115s42.833 58.334 71.5 77.001s62.334 28 101.001 28c30 0 55.833 -4.5 77.5 -13.5s40.334 -21.333 56.001 -37
s28.667 -34.334 39 -56.001s18.833 -45.167 25.5 -70.5l-117 -38c-9.33301 32 -19.666 55 -30.999 69s-28.666 21 -51.999 21c-34 0 -59 -20.5 -75 -61.5s-24 -98.833 -24 -173.5s8.33301 -132.834 25 -174.501s42 -62.5 76 -62.5c21.333 0 38.5 7.16699 51.5 21.5
s26.167 40.5 39.5 78.5z" />
    <glyph glyph-name="Egrave" unicode="&#xc8;" horiz-adv-x="476" 
d="M65 0v700h359v-120h-234v-148h157v-118h-157v-194h243v-120h-368zM199 745l-145 160h155l87 -160h-97z" />
    <glyph glyph-name="Eacute" unicode="&#xc9;" horiz-adv-x="476" 
d="M65 0v700h359v-120h-234v-148h157v-118h-157v-194h243v-120h-368zM273 745h-97l87 160h155z" />
    <glyph glyph-name="Ecircumflex" unicode="&#xca;" horiz-adv-x="476" 
d="M65 0v700h359v-120h-234v-148h157v-118h-157v-194h243v-120h-368zM317 745l-77 73l-77 -73h-86l109 160h110l109 -160h-88z" />
    <glyph glyph-name="Edieresis" unicode="&#xcb;" horiz-adv-x="476" 
d="M65 0v700h359v-120h-234v-148h157v-118h-157v-194h243v-120h-368zM405 816c0 -19.333 -7 -36 -21 -50s-30.667 -21 -50 -21s-36.166 7 -50.499 21s-21.5 30.667 -21.5 50s7.16699 36.166 21.5 50.499s31.166 21.5 50.499 21.5s36 -7.16699 50 -21.5
s21 -31.166 21 -50.499zM214 816c0 -19.333 -7 -36 -21 -50s-30.667 -21 -50 -21s-36.166 7 -50.499 21s-21.5 30.667 -21.5 50s7.16699 36.166 21.5 50.499s31.166 21.5 50.499 21.5s36 -7.16699 50 -21.5s21 -31.166 21 -50.499z" />
    <glyph glyph-name="Igrave" unicode="&#xcc;" horiz-adv-x="265" 
d="M70 0v700h125v-700h-125zM91 745l-145 160h155l87 -160h-97z" />
    <glyph glyph-name="Iacute" unicode="&#xcd;" horiz-adv-x="265" 
d="M70 0v700h125v-700h-125zM173 745h-97l87 160h155z" />
    <glyph glyph-name="Icircumflex" unicode="&#xce;" horiz-adv-x="265" 
d="M70 0v700h125v-700h-125zM209 738l-77 73l-77 -73h-86l109 160h110l109 -160h-88z" />
    <glyph glyph-name="Idieresis" unicode="&#xcf;" horiz-adv-x="265" 
d="M70 0v700h125v-700h-125zM297 816c0 -19.333 -7 -36 -21 -50s-30.667 -21 -50 -21s-36.166 7 -50.499 21s-21.5 30.667 -21.5 50s7.16699 36.166 21.5 50.499s31.166 21.5 50.499 21.5s36 -7.16699 50 -21.5s21 -31.166 21 -50.499zM106 816c0 -19.333 -7 -36 -21 -50
s-30.667 -21 -50 -21s-36.166 7 -50.499 21s-21.5 30.667 -21.5 50s7.16699 36.166 21.5 50.499s31.166 21.5 50.499 21.5s36 -7.16699 50 -21.5s21 -31.166 21 -50.499z" />
    <glyph glyph-name="Eth" unicode="&#xd0;" horiz-adv-x="545" 
d="M505 351c0 -61.333 -6.33203 -114.169 -18.999 -158.502s-30.834 -80.666 -54.501 -108.999s-52 -49.333 -85 -63s-70.167 -20.5 -111.5 -20.5h-155v309h-50v112h50v279h158c42 0 79.5 -6.66699 112.5 -20s61 -34.166 84 -62.499s40.5 -64.5 52.5 -108.5
s18 -96.667 18 -158zM377.001 348.997c0 32 -2 61.999 -6 89.999s-11.167 52.333 -21.5 73s-24.5 36.834 -42.5 48.501s-41 17.5 -69 17.5h-38v-157h82v-112h-82v-187h38c28 0 51 5.83301 69 17.5s32.167 27.667 42.5 48s17.5 44.333 21.5 72s6 57.5 6 89.5z" />
    <glyph glyph-name="Ntilde" unicode="&#xd1;" horiz-adv-x="544" 
d="M359 0l-128.999 312.003c-9.33301 22 -18.833 46 -28.5 72s-17.834 49.333 -24.501 70c0 -10.667 0.166992 -22.834 0.5 -36.501l1 -42.5c0.333008 -14.667 0.5 -28.834 0.5 -42.501v-37.5v-295h-114v700h126l123 -307c4 -10.667 8.66699 -22.334 14 -35.001
s10.5 -25.667 15.5 -39l14 -38.5l11.5 -33.5c0 10.667 -0.333008 23.167 -1 37.5s-1.16699 29 -1.5 44l-1 44c-0.333008 14.333 -0.5 26.833 -0.5 37.5v290h114v-700h-120zM442.001 872.003c0 -40 -9 -71.667 -27 -95s-41.667 -35 -71 -35c-18 0 -32.5 2.16699 -43.5 6.5
s-25.167 11.5 -42.5 21.5c-13.333 8 -22.666 13 -27.999 15s-11 3 -17 3c-8 0 -14 -3.16699 -18 -9.5s-7.33301 -17.5 -10 -33.5h-77c0 40 9 71.667 27 95s41.667 35 71 35c18 0 32.5 -2.16699 43.5 -6.5s25.167 -11.5 42.5 -21.5c13.333 -8 22.666 -13 27.999 -15
s11 -3 17 -3c8 0 14 3.16699 18 9.5s7.33301 17.5 10 33.5h77z" />
    <glyph glyph-name="Ograve" unicode="&#xd2;" horiz-adv-x="545" 
d="M505 351c0 -50.667 -4.50098 -98 -13.501 -142s-23 -82.333 -42 -115s-43.167 -58.334 -72.5 -77.001s-64.333 -28 -105 -28s-75.667 9.33301 -105 28s-53.333 44.167 -72 76.5s-32.5 70.5 -41.5 114.5s-13.5 91 -13.5 141c0 50.667 4.5 98 13.5 142s23 82.333 42 115
s43.333 58.334 73 77.001s64.834 28 105.501 28s75.5 -9.33301 104.5 -28s52.833 -44.167 71.5 -76.5s32.5 -70.5 41.5 -114.5s13.5 -91 13.5 -141zM376.999 349c0 74.667 -8.16797 132.834 -24.501 174.501s-43.166 62.5 -80.499 62.5c-38 0 -64.833 -20.5 -80.5 -61.5
s-23.5 -98.833 -23.5 -173.5s8.16699 -132.834 24.5 -174.501s43.5 -62.5 81.5 -62.5c37.333 0 63.833 20.5 79.5 61.5s23.5 98.833 23.5 173.5zM226.998 745l-145 160h155l87 -160h-97z" />
    <glyph glyph-name="Oacute" unicode="&#xd3;" horiz-adv-x="545" 
d="M505 351c0 -50.667 -4.50098 -98 -13.501 -142s-23 -82.333 -42 -115s-43.167 -58.334 -72.5 -77.001s-64.333 -28 -105 -28s-75.667 9.33301 -105 28s-53.333 44.167 -72 76.5s-32.5 70.5 -41.5 114.5s-13.5 91 -13.5 141c0 50.667 4.5 98 13.5 142s23 82.333 42 115
s43.333 58.334 73 77.001s64.834 28 105.501 28s75.5 -9.33301 104.5 -28s52.833 -44.167 71.5 -76.5s32.5 -70.5 41.5 -114.5s13.5 -91 13.5 -141zM376.999 349c0 74.667 -8.16797 132.834 -24.501 174.501s-43.166 62.5 -80.499 62.5c-38 0 -64.833 -20.5 -80.5 -61.5
s-23.5 -98.833 -23.5 -173.5s8.16699 -132.834 24.5 -174.501s43.5 -62.5 81.5 -62.5c37.333 0 63.833 20.5 79.5 61.5s23.5 98.833 23.5 173.5zM300.998 745h-97l87 160h155z" />
    <glyph glyph-name="Ocircumflex" unicode="&#xd4;" horiz-adv-x="545" 
d="M505 351c0 -50.667 -4.50098 -98 -13.501 -142s-23 -82.333 -42 -115s-43.167 -58.334 -72.5 -77.001s-64.333 -28 -105 -28s-75.667 9.33301 -105 28s-53.333 44.167 -72 76.5s-32.5 70.5 -41.5 114.5s-13.5 91 -13.5 141c0 50.667 4.5 98 13.5 142s23 82.333 42 115
s43.333 58.334 73 77.001s64.834 28 105.501 28s75.5 -9.33301 104.5 -28s52.833 -44.167 71.5 -76.5s32.5 -70.5 41.5 -114.5s13.5 -91 13.5 -141zM376.999 349c0 74.667 -8.16797 132.834 -24.501 174.501s-43.166 62.5 -80.499 62.5c-38 0 -64.833 -20.5 -80.5 -61.5
s-23.5 -98.833 -23.5 -173.5s8.16699 -132.834 24.5 -174.501s43.5 -62.5 81.5 -62.5c37.333 0 63.833 20.5 79.5 61.5s23.5 98.833 23.5 173.5zM344.998 740l-77 73l-77 -73h-86l109 160h110l109 -160h-88z" />
    <glyph glyph-name="Otilde" unicode="&#xd5;" horiz-adv-x="545" 
d="M505 351c0 -50.667 -4.50098 -98 -13.501 -142s-23 -82.333 -42 -115s-43.167 -58.334 -72.5 -77.001s-64.333 -28 -105 -28s-75.667 9.33301 -105 28s-53.333 44.167 -72 76.5s-32.5 70.5 -41.5 114.5s-13.5 91 -13.5 141c0 50.667 4.5 98 13.5 142s23 82.333 42 115
s43.333 58.334 73 77.001s64.834 28 105.501 28s75.5 -9.33301 104.5 -28s52.833 -44.167 71.5 -76.5s32.5 -70.5 41.5 -114.5s13.5 -91 13.5 -141zM376.999 349c0 74.667 -8.16797 132.834 -24.501 174.501s-43.166 62.5 -80.499 62.5c-38 0 -64.833 -20.5 -80.5 -61.5
s-23.5 -98.833 -23.5 -173.5s8.16699 -132.834 24.5 -174.501s43.5 -62.5 81.5 -62.5c37.333 0 63.833 20.5 79.5 61.5s23.5 98.833 23.5 173.5zM439.998 872c0 -40 -9 -71.667 -27 -95s-41.667 -35 -71 -35c-18 0 -32.5 2.16699 -43.5 6.5s-25.167 11.5 -42.5 21.5
c-13.333 8 -22.666 13 -27.999 15s-11 3 -17 3c-8 0 -14 -3.16699 -18 -9.5s-7.33301 -17.5 -10 -33.5h-77c0 40 9 71.667 27 95s41.667 35 71 35c18 0 32.5 -2.16699 43.5 -6.5s25.167 -11.5 42.5 -21.5c13.333 -8 22.666 -13 27.999 -15s11 -3 17 -3
c8 0 14 3.16699 18 9.5s7.33301 17.5 10 33.5h77z" />
    <glyph glyph-name="Odieresis" unicode="&#xd6;" horiz-adv-x="545" 
d="M505 351c0 -50.667 -4.50098 -98 -13.501 -142s-23 -82.333 -42 -115s-43.167 -58.334 -72.5 -77.001s-64.333 -28 -105 -28s-75.667 9.33301 -105 28s-53.333 44.167 -72 76.5s-32.5 70.5 -41.5 114.5s-13.5 91 -13.5 141c0 50.667 4.5 98 13.5 142s23 82.333 42 115
s43.333 58.334 73 77.001s64.834 28 105.501 28s75.5 -9.33301 104.5 -28s52.833 -44.167 71.5 -76.5s32.5 -70.5 41.5 -114.5s13.5 -91 13.5 -141zM376.999 349c0 74.667 -8.16797 132.834 -24.501 174.501s-43.166 62.5 -80.499 62.5c-38 0 -64.833 -20.5 -80.5 -61.5
s-23.5 -98.833 -23.5 -173.5s8.16699 -132.834 24.5 -174.501s43.5 -62.5 81.5 -62.5c37.333 0 63.833 20.5 79.5 61.5s23.5 98.833 23.5 173.5zM440.998 816c0 -19.333 -7 -36 -21 -50s-30.667 -21 -50 -21s-36.166 7 -50.499 21s-21.5 30.667 -21.5 50
s7.16699 36.166 21.5 50.499s31.166 21.5 50.499 21.5s36 -7.16699 50 -21.5s21 -31.166 21 -50.499zM249.998 816c0 -19.333 -7 -36 -21 -50s-30.667 -21 -50 -21s-36.166 7 -50.499 21s-21.5 30.667 -21.5 50s7.16699 36.166 21.5 50.499s31.166 21.5 50.499 21.5
s36 -7.16699 50 -21.5s21 -31.166 21 -50.499z" />
    <glyph glyph-name="multiply" unicode="&#xd7;" 
d="M574 217c-5.33301 -3.33301 -10.333 -5 -15 -5s-8.33398 1 -11.001 3c-10.667 7.33301 -13.667 17.666 -9 30.999l14 50h-116v-114l51 14c13.333 4.66699 23.333 1.66699 30 -9c2 -2.66699 3 -6.33398 3 -11.001s-2 -9.66699 -6 -15l-130 -176l-133 176
c-3.33301 5.33301 -5 10.333 -5 15s1 8.33398 3 11.001c7.33301 10.667 17.666 13.667 30.999 9l50 -14v114h-114l14 -50c4.66699 -13.333 1.66699 -23.666 -9 -30.999c-2.66699 -2 -6.33398 -3 -11.001 -3s-9.66699 1.66699 -15 5l-176 133l176 130
c5.33301 4 10.333 6 15 6s8.33398 -1 11.001 -3c10.667 -6.66699 13.667 -16.667 9 -30l-14 -51h114v116l-50 -14c-13.333 -4.66699 -23.666 -1.66699 -30.999 9c-2 2.66699 -3 6.33398 -3 11.001s1.66699 9.66699 5 15l133 176l130 -176c4 -5.33301 6 -10.333 6 -15
s-1 -8.33398 -3 -11.001c-6.66699 -10.667 -16.667 -13.667 -30 -9l-51 14v-116h116l-14 51c-4.66699 13.333 -1.66699 23.333 9 30c2.66699 2 6.33398 3 11.001 3s9.66699 -2 15 -6l176 -130z" />
    <glyph glyph-name="Oslash" unicode="&#xd8;" horiz-adv-x="545" 
d="M505 351c0 -50.667 -4.50098 -98.002 -13.501 -142.002s-23 -82.333 -42 -115s-43.167 -58.334 -72.5 -77.001s-64.333 -28 -105 -28c-28.667 0 -55 5 -79 15l-21 -54h-109l46 122c-24 32.667 -41.5 72.834 -52.5 120.501s-16.5 99.834 -16.5 156.501
c0 50.667 4.5 98 13.5 142s23 82.333 42 115s43.333 58.334 73 77.001s64.834 28 105.501 28c28.667 0 55 -5 79 -15l22 54h109l-47 -123c23.333 -32.667 40.5 -72.667 51.5 -120s16.5 -99.333 16.5 -156zM308.999 583.998c-10.667 6 -23 8.99902 -37 8.99902
c-38.667 0 -66.5 -21.167 -83.5 -63.5s-25.5 -101.833 -25.5 -178.5c0 -24.667 0.833008 -47.667 2.5 -69s4.5 -40.666 8.5 -57.999zM381.999 348.997c0 24 -0.833008 46.5 -2.5 67.5s-4.16699 40.167 -7.5 57.5l-135 -359c12 -5.33301 24.333 -8 37 -8
c38 0 65.5 21.167 82.5 63.5s25.5 101.833 25.5 178.5z" />
    <glyph glyph-name="Ugrave" unicode="&#xd9;" horiz-adv-x="540" 
d="M478 280c0 -45.333 -3.66992 -86 -11.0029 -122s-19.166 -66.5 -35.499 -91.5s-37.666 -44.167 -63.999 -57.5s-58.833 -20 -97.5 -20c-37.333 0 -69.166 6.83301 -95.499 20.5s-47.833 33.167 -64.5 58.5s-28.834 55.833 -36.501 91.5s-11.5 75.167 -11.5 118.5v422h125
v-422c0 -60.667 6.83301 -103.334 20.5 -128.001s34.834 -37 63.501 -37c29.333 0 50.333 12.333 63 37s19 67.334 19 128.001v422h125v-420zM227.997 735l-145 160h155l87 -160h-97z" />
    <glyph glyph-name="Uacute" unicode="&#xda;" horiz-adv-x="540" 
d="M478 280c0 -45.333 -3.66992 -86 -11.0029 -122s-19.166 -66.5 -35.499 -91.5s-37.666 -44.167 -63.999 -57.5s-58.833 -20 -97.5 -20c-37.333 0 -69.166 6.83301 -95.499 20.5s-47.833 33.167 -64.5 58.5s-28.834 55.833 -36.501 91.5s-11.5 75.167 -11.5 118.5v422h125
v-422c0 -60.667 6.83301 -103.334 20.5 -128.001s34.834 -37 63.501 -37c29.333 0 50.333 12.333 63 37s19 67.334 19 128.001v422h125v-420zM301.997 735h-97l87 160h155z" />
    <glyph glyph-name="Ucircumflex" unicode="&#xdb;" horiz-adv-x="540" 
d="M478 280c0 -45.333 -3.66992 -86 -11.0029 -122s-19.166 -66.5 -35.499 -91.5s-37.666 -44.167 -63.999 -57.5s-58.833 -20 -97.5 -20c-37.333 0 -69.166 6.83301 -95.499 20.5s-47.833 33.167 -64.5 58.5s-28.834 55.833 -36.501 91.5s-11.5 75.167 -11.5 118.5v422h125
v-422c0 -60.667 6.83301 -103.334 20.5 -128.001s34.834 -37 63.501 -37c29.333 0 50.333 12.333 63 37s19 67.334 19 128.001v422h125v-420zM345.997 745l-77 73l-77 -73h-86l109 160h110l109 -160h-88z" />
    <glyph glyph-name="Udieresis" unicode="&#xdc;" horiz-adv-x="540" 
d="M478 280c0 -45.333 -3.66992 -86 -11.0029 -122s-19.166 -66.5 -35.499 -91.5s-37.666 -44.167 -63.999 -57.5s-58.833 -20 -97.5 -20c-37.333 0 -69.166 6.83301 -95.499 20.5s-47.833 33.167 -64.5 58.5s-28.834 55.833 -36.501 91.5s-11.5 75.167 -11.5 118.5v422h125
v-422c0 -60.667 6.83301 -103.334 20.5 -128.001s34.834 -37 63.501 -37c29.333 0 50.333 12.333 63 37s19 67.334 19 128.001v422h125v-420zM435.997 816c0 -19.333 -7 -36 -21 -50s-30.667 -21 -50 -21s-36.166 7 -50.499 21s-21.5 30.667 -21.5 50
s7.16699 36.166 21.5 50.499s31.166 21.5 50.499 21.5s36 -7.16699 50 -21.5s21 -31.166 21 -50.499zM244.997 816c0 -19.333 -7 -36 -21 -50s-30.667 -21 -50 -21s-36.166 7 -50.499 21s-21.5 30.667 -21.5 50s7.16699 36.166 21.5 50.499s31.166 21.5 50.499 21.5
s36 -7.16699 50 -21.5s21 -31.166 21 -50.499z" />
    <glyph glyph-name="Yacute" unicode="&#xdd;" horiz-adv-x="520" 
d="M322 264l-0.000976562 -264.002h-125v262l-180 438h138l54 -142c6 -15.333 11.667 -30.833 17 -46.5l15 -45.5l12.5 -40.5c3.66699 -12.333 6.16699 -22.5 7.5 -30.5l8 31c3.33301 12.667 7.33301 26.334 12 41.001s9.83398 29.834 15.501 45.501l16.5 45.5l54 142h136z
M294.999 739.998h-97l87 160h155z" />
    <glyph glyph-name="Thorn" unicode="&#xde;" horiz-adv-x="498" 
d="M474 367c0 -38 -6.33301 -71 -19 -99s-29.5 -51.5 -50.5 -70.5s-45.167 -33.167 -72.5 -42.5s-56 -14 -86 -14h-56v-141h-125v700h125v-110h61c33.333 0 63.666 -4.66699 90.999 -14s50.833 -23.333 70.5 -42s34.834 -42 45.501 -70s16 -60.333 16 -97zM349 365
c0 29.333 -7.33203 53.833 -21.999 73.5s-40.334 29.5 -77.001 29.5h-60v-205h62c32 0 56.167 9 72.5 27s24.5 43 24.5 75z" />
    <glyph glyph-name="germandbls" unicode="&#xdf;" horiz-adv-x="501" 
d="M464 223c0 -72.667 -17.499 -128.001 -52.499 -166.001s-90.167 -57 -165.5 -57h-15v108h12c32 0 56.833 8.66699 74.5 26s26.5 47 26.5 89c0 42.667 -10 73.167 -30 91.5s-45 27.5 -75 27.5h-8v107h9c51.333 0 77 29.667 77 89c0 26.667 -6.5 46.334 -19.5 59.001
s-30.5 19 -52.5 19c-48 0 -72 -26.667 -72 -80v-670l-118 -59v724c0 68 17.167 117.5 51.5 148.5s81.166 46.5 140.499 46.5c57.333 0 103.333 -15.333 138 -46s52 -75.334 52 -134.001c0 -38 -7.83301 -68.667 -23.5 -92s-38.167 -40.666 -67.5 -51.999
c16 -6 31 -13.667 45 -23s26.5 -21.166 37.5 -35.499s19.667 -31.333 26 -51s9.5 -42.834 9.5 -69.501z" />
    <glyph glyph-name="agrave" unicode="&#xe0;" horiz-adv-x="444" 
d="M276 0l-0.000976562 35.9961c-12 -15.333 -26.333 -27 -43 -35s-33.667 -12 -51 -12c-46 0 -83.333 16.333 -112 49s-43 77.334 -43 134.001c0 26.667 4 50.834 12 72.501s19.167 40 33.5 55s31.333 26.667 51 35s41.167 12.5 64.5 12.5s41 -1.66699 53 -5
s23.667 -8.66602 35 -15.999v40c0 18.667 -4.66699 34.167 -14 46.5s-25.666 18.5 -48.999 18.5c-22 0 -41 -2.5 -57 -7.5s-32.333 -13.167 -49 -24.5l-48 86c24 16.667 49 29.334 75 38.001s55 13 87 13c61.333 0 105.5 -14.667 132.5 -44s40.5 -73 40.5 -131v-361h-118z
M275.999 221.996c-9.33301 8 -19.1641 14.167 -29.4971 18.5s-24.5 6.5 -42.5 6.5c-16.667 0 -30.334 -6.66699 -41.001 -20s-16 -31 -16 -53c0 -25.333 5.16699 -45 15.5 -59s25.166 -21 44.499 -21c14 0 27.167 4.16699 39.5 12.5s22.166 18.833 29.499 31.5v84z
M181.001 594.996l-145 160h155l87 -160h-97z" />
    <glyph glyph-name="aacute" unicode="&#xe1;" horiz-adv-x="444" 
d="M276 0l-0.000976562 35.9961c-12 -15.333 -26.333 -27 -43 -35s-33.667 -12 -51 -12c-46 0 -83.333 16.333 -112 49s-43 77.334 -43 134.001c0 26.667 4 50.834 12 72.501s19.167 40 33.5 55s31.333 26.667 51 35s41.167 12.5 64.5 12.5s41 -1.66699 53 -5
s23.667 -8.66602 35 -15.999v40c0 18.667 -4.66699 34.167 -14 46.5s-25.666 18.5 -48.999 18.5c-22 0 -41 -2.5 -57 -7.5s-32.333 -13.167 -49 -24.5l-48 86c24 16.667 49 29.334 75 38.001s55 13 87 13c61.333 0 105.5 -14.667 132.5 -44s40.5 -73 40.5 -131v-361h-118z
M275.999 221.996c-9.33301 8 -19.1641 14.167 -29.4971 18.5s-24.5 6.5 -42.5 6.5c-16.667 0 -30.334 -6.66699 -41.001 -20s-16 -31 -16 -53c0 -25.333 5.16699 -45 15.5 -59s25.166 -21 44.499 -21c14 0 27.167 4.16699 39.5 12.5s22.166 18.833 29.499 31.5v84z
M255.001 594.996h-97l87 160h155z" />
    <glyph glyph-name="acircumflex" unicode="&#xe2;" horiz-adv-x="444" 
d="M276 0l-0.000976562 35.9961c-12 -15.333 -26.333 -27 -43 -35s-33.667 -12 -51 -12c-46 0 -83.333 16.333 -112 49s-43 77.334 -43 134.001c0 26.667 4 50.834 12 72.501s19.167 40 33.5 55s31.333 26.667 51 35s41.167 12.5 64.5 12.5s41 -1.66699 53 -5
s23.667 -8.66602 35 -15.999v40c0 18.667 -4.66699 34.167 -14 46.5s-25.666 18.5 -48.999 18.5c-22 0 -41 -2.5 -57 -7.5s-32.333 -13.167 -49 -24.5l-48 86c24 16.667 49 29.334 75 38.001s55 13 87 13c61.333 0 105.5 -14.667 132.5 -44s40.5 -73 40.5 -131v-361h-118z
M275.999 221.996c-9.33301 8 -19.1641 14.167 -29.4971 18.5s-24.5 6.5 -42.5 6.5c-16.667 0 -30.334 -6.66699 -41.001 -20s-16 -31 -16 -53c0 -25.333 5.16699 -45 15.5 -59s25.166 -21 44.499 -21c14 0 27.167 4.16699 39.5 12.5s22.166 18.833 29.499 31.5v84z
M294.001 589.996l-77 73l-77 -73h-86l109 160h110l109 -160h-88z" />
    <glyph glyph-name="atilde" unicode="&#xe3;" horiz-adv-x="444" 
d="M276 0l-0.000976562 35.9961c-12 -15.333 -26.333 -27 -43 -35s-33.667 -12 -51 -12c-46 0 -83.333 16.333 -112 49s-43 77.334 -43 134.001c0 26.667 4 50.834 12 72.501s19.167 40 33.5 55s31.333 26.667 51 35s41.167 12.5 64.5 12.5s41 -1.66699 53 -5
s23.667 -8.66602 35 -15.999v40c0 18.667 -4.66699 34.167 -14 46.5s-25.666 18.5 -48.999 18.5c-22 0 -41 -2.5 -57 -7.5s-32.333 -13.167 -49 -24.5l-48 86c24 16.667 49 29.334 75 38.001s55 13 87 13c61.333 0 105.5 -14.667 132.5 -44s40.5 -73 40.5 -131v-361h-118z
M275.999 221.996c-9.33301 8 -19.1641 14.167 -29.4971 18.5s-24.5 6.5 -42.5 6.5c-16.667 0 -30.334 -6.66699 -41.001 -20s-16 -31 -16 -53c0 -25.333 5.16699 -45 15.5 -59s25.166 -21 44.499 -21c14 0 27.167 4.16699 39.5 12.5s22.166 18.833 29.499 31.5v84z
M385.001 721.996c0 -40 -9 -71.667 -27 -95s-41.667 -35 -71 -35c-18 0 -32.5 2.16699 -43.5 6.5s-25.167 11.5 -42.5 21.5c-13.333 8 -22.666 13 -27.999 15s-11 3 -17 3c-8 0 -14 -3.16699 -18 -9.5s-7.33301 -17.5 -10 -33.5h-77c0 40 9 71.667 27 95s41.667 35 71 35
c18 0 32.5 -2.16699 43.5 -6.5s25.167 -11.5 42.5 -21.5c13.333 -8 22.666 -13 27.999 -15s11 -3 17 -3c8 0 14 3.16699 18 9.5s7.33301 17.5 10 33.5h77z" />
    <glyph glyph-name="adieresis" unicode="&#xe4;" horiz-adv-x="444" 
d="M276 0l-0.000976562 35.9961c-12 -15.333 -26.333 -27 -43 -35s-33.667 -12 -51 -12c-46 0 -83.333 16.333 -112 49s-43 77.334 -43 134.001c0 26.667 4 50.834 12 72.501s19.167 40 33.5 55s31.333 26.667 51 35s41.167 12.5 64.5 12.5s41 -1.66699 53 -5
s23.667 -8.66602 35 -15.999v40c0 18.667 -4.66699 34.167 -14 46.5s-25.666 18.5 -48.999 18.5c-22 0 -41 -2.5 -57 -7.5s-32.333 -13.167 -49 -24.5l-48 86c24 16.667 49 29.334 75 38.001s55 13 87 13c61.333 0 105.5 -14.667 132.5 -44s40.5 -73 40.5 -131v-361h-118z
M275.999 221.996c-9.33301 8 -19.1641 14.167 -29.4971 18.5s-24.5 6.5 -42.5 6.5c-16.667 0 -30.334 -6.66699 -41.001 -20s-16 -31 -16 -53c0 -25.333 5.16699 -45 15.5 -59s25.166 -21 44.499 -21c14 0 27.167 4.16699 39.5 12.5s22.166 18.833 29.499 31.5v84z
M385.001 660.996c0 -19.333 -7 -36 -21 -50s-30.667 -21 -50 -21s-36.166 7 -50.499 21s-21.5 30.667 -21.5 50s7.16699 36.166 21.5 50.499s31.166 21.5 50.499 21.5s36 -7.16699 50 -21.5s21 -31.166 21 -50.499zM194.001 660.996c0 -19.333 -7 -36 -21 -50
s-30.667 -21 -50 -21s-36.166 7 -50.499 21s-21.5 30.667 -21.5 50s7.16699 36.166 21.5 50.499s31.166 21.5 50.499 21.5s36 -7.16699 50 -21.5s21 -31.166 21 -50.499z" />
    <glyph glyph-name="aring" unicode="&#xe5;" horiz-adv-x="444" 
d="M276 0l-0.000976562 35.9961c-12 -15.333 -26.333 -27 -43 -35s-33.667 -12 -51 -12c-46 0 -83.333 16.333 -112 49s-43 77.334 -43 134.001c0 26.667 4 50.834 12 72.501s19.167 40 33.5 55s31.333 26.667 51 35s41.167 12.5 64.5 12.5s41 -1.66699 53 -5
s23.667 -8.66602 35 -15.999v40c0 18.667 -4.66699 34.167 -14 46.5s-25.666 18.5 -48.999 18.5c-22 0 -41 -2.5 -57 -7.5s-32.333 -13.167 -49 -24.5l-48 86c24 16.667 49 29.334 75 38.001s55 13 87 13c61.333 0 105.5 -14.667 132.5 -44s40.5 -73 40.5 -131v-361h-118z
M275.999 221.996c-9.33301 8 -19.1641 14.167 -29.4971 18.5s-24.5 6.5 -42.5 6.5c-16.667 0 -30.334 -6.66699 -41.001 -20s-16 -31 -16 -53c0 -25.333 5.16699 -45 15.5 -59s25.166 -21 44.499 -21c14 0 27.167 4.16699 39.5 12.5s22.166 18.833 29.499 31.5v84z
M337.001 712.996c0 -34 -11.333 -62.167 -34 -84.5s-51 -33.5 -85 -33.5s-62.333 11.167 -85 33.5s-34 50.5 -34 84.5s11.333 62.333 34 85s51 34 85 34s62.333 -11.333 85 -34s34 -51 34 -85zM270.001 712.996c0 15.333 -5 28 -15 38s-22.333 15 -37 15s-27 -5 -37 -15
s-15 -22.667 -15 -38s5 -28 15 -38s22.333 -15 37 -15s27 5 37 15s15 22.667 15 38z" />
    <glyph glyph-name="ae" unicode="&#xe6;" horiz-adv-x="691" 
d="M656 262c0 -7.33301 -0.168945 -14.6709 -0.501953 -22.0039s-0.833008 -14.666 -1.5 -21.999h-265c2.66699 -40.667 11.5 -70.334 26.5 -89.001s34.167 -28 57.5 -28c21.333 0 37.5 3.83301 48.5 11.5s22.167 19.167 33.5 34.5l84 -63
c-19.333 -32 -43.5 -55.833 -72.5 -71.5s-60.833 -23.5 -95.5 -23.5c-32 0 -59 6.66699 -81 20s-40.667 32 -56 56c-23.333 -26.667 -47 -46 -71 -58s-51 -18 -81 -18c-46 0 -83.333 16.333 -112 49s-43 77.334 -43 134.001c0 26.667 4 50.834 12 72.501s19.167 40 33.5 55
s31.333 26.667 51 35s41.167 12.5 64.5 12.5s41 -1.66699 53 -5s23.667 -8.66602 35 -15.999v40c0 18.667 -4.66699 34.167 -14 46.5s-25.666 18.5 -48.999 18.5c-22 0 -41 -2.5 -57 -7.5s-32.333 -13.167 -49 -24.5l-48 86c24 16.667 49 29.334 75 38.001s55 13 87 13
c36.667 0 63.667 -6 81 -18s31.333 -26.667 42 -44c13.333 17.333 29.5 32 48.5 44s42.833 18 71.5 18c33.333 0 62 -7.5 86 -22.5s43.833 -35.167 59.5 -60.5s27.334 -54.5 35.001 -87.5s11.5 -67.5 11.5 -103.5zM537.998 314.995c-2.66699 32 -9.5 59.167 -20.5 81.5
s-29.167 33.5 -54.5 33.5c-43.333 0 -68 -38.333 -74 -115h149zM275.998 221.995c-9.33301 8 -19.1641 14.167 -29.4971 18.5s-24.5 6.5 -42.5 6.5c-16.667 0 -30.334 -6.66699 -41.001 -20s-16 -31 -16 -53c0 -25.333 5.16699 -45 15.5 -59s25.166 -21 44.499 -21
c14 0 27.167 4.16699 39.5 12.5s22.166 18.833 29.499 31.5v84z" />
    <glyph glyph-name="ccedilla" unicode="&#xe7;" horiz-adv-x="430" 
d="M304 353c-9.33301 21.333 -19.6621 38.501 -30.9951 51.501s-25.666 19.5 -42.999 19.5c-26.667 0 -45.834 -14.5 -57.501 -43.5s-17.5 -68.167 -17.5 -117.5s6.16699 -88.666 18.5 -117.999s32.5 -44 60.5 -44c17.333 0 32.166 7.33301 44.499 22s22.833 33 31.5 55
l87 -63c-14.667 -34.667 -34.167 -63.5 -58.5 -86.5s-54.833 -35.833 -91.5 -38.5l-7 -32c9.33301 4 21.333 6 36 6c19.333 0 35.166 -5.83301 47.499 -17.5s18.5 -29.167 18.5 -52.5c0 -30 -9.83301 -52 -29.5 -66s-44.5 -21 -74.5 -21c-26 0 -47.667 3.16699 -65 9.5
s-34.333 15.166 -51 26.499l21 38c15.333 -8 28.166 -14.333 38.499 -19s22.166 -7 35.499 -7c17.333 0 29.833 3.16699 37.5 9.5s11.5 15.166 11.5 26.499c0 18.667 -8.66699 28 -26 28c-6.66699 0 -12.167 -0.666992 -16.5 -2s-8.83301 -3.66602 -13.5 -6.99902l-36 14
l17 70c-46.667 10 -84.334 37.5 -113.001 82.5s-43 106.5 -43 184.5c0 44 5 83.167 15 117.5s23.667 63.166 41 86.499s38 41 62 53s50.333 18 79 18c40.667 0 74.667 -10 102 -30s49 -49.667 65 -89z" />
    <glyph glyph-name="egrave" unicode="&#xe8;" horiz-adv-x="456" 
d="M421 262c0 -7.33301 -0.168945 -14.667 -0.501953 -22s-0.833008 -14.666 -1.5 -21.999h-265c2.66699 -40.667 11.5 -70.334 26.5 -89.001s34.167 -28 57.5 -28c21.333 0 37.5 3.83301 48.5 11.5s22.167 19.167 33.5 34.5l84 -63c-19.333 -32 -43.5 -55.833 -72.5 -71.5
s-60.833 -23.5 -95.5 -23.5c-32.667 0 -61.5 6.66699 -86.5 20s-46 32 -63 56s-29.833 52.667 -38.5 86s-13 70.333 -13 111c0 44 4.83301 83 14.5 117s23 62.667 40 86s37.333 41 61 53s49.834 18 78.501 18c33.333 0 62 -7.5 86 -22.5s43.833 -35.167 59.5 -60.5
s27.334 -54.5 35.001 -87.5s11.5 -67.5 11.5 -103.5zM302.998 314.999c-2.66699 32 -9.5 59.167 -20.5 81.5s-29.167 33.5 -54.5 33.5c-43.333 0 -68 -38.333 -74 -115h149zM187.998 594.999l-145 160h155l87 -160h-97z" />
    <glyph glyph-name="eacute" unicode="&#xe9;" horiz-adv-x="456" 
d="M421 262c0 -7.33301 -0.168945 -14.667 -0.501953 -22s-0.833008 -14.666 -1.5 -21.999h-265c2.66699 -40.667 11.5 -70.334 26.5 -89.001s34.167 -28 57.5 -28c21.333 0 37.5 3.83301 48.5 11.5s22.167 19.167 33.5 34.5l84 -63c-19.333 -32 -43.5 -55.833 -72.5 -71.5
s-60.833 -23.5 -95.5 -23.5c-32.667 0 -61.5 6.66699 -86.5 20s-46 32 -63 56s-29.833 52.667 -38.5 86s-13 70.333 -13 111c0 44 4.83301 83 14.5 117s23 62.667 40 86s37.333 41 61 53s49.834 18 78.501 18c33.333 0 62 -7.5 86 -22.5s43.833 -35.167 59.5 -60.5
s27.334 -54.5 35.001 -87.5s11.5 -67.5 11.5 -103.5zM302.998 314.999c-2.66699 32 -9.5 59.167 -20.5 81.5s-29.167 33.5 -54.5 33.5c-43.333 0 -68 -38.333 -74 -115h149zM261.998 594.999h-97l87 160h155z" />
    <glyph glyph-name="ecircumflex" unicode="&#xea;" horiz-adv-x="456" 
d="M421 262c0 -7.33301 -0.168945 -14.667 -0.501953 -22s-0.833008 -14.666 -1.5 -21.999h-265c2.66699 -40.667 11.5 -70.334 26.5 -89.001s34.167 -28 57.5 -28c21.333 0 37.5 3.83301 48.5 11.5s22.167 19.167 33.5 34.5l84 -63c-19.333 -32 -43.5 -55.833 -72.5 -71.5
s-60.833 -23.5 -95.5 -23.5c-32.667 0 -61.5 6.66699 -86.5 20s-46 32 -63 56s-29.833 52.667 -38.5 86s-13 70.333 -13 111c0 44 4.83301 83 14.5 117s23 62.667 40 86s37.333 41 61 53s49.834 18 78.501 18c33.333 0 62 -7.5 86 -22.5s43.833 -35.167 59.5 -60.5
s27.334 -54.5 35.001 -87.5s11.5 -67.5 11.5 -103.5zM302.998 314.999c-2.66699 32 -9.5 59.167 -20.5 81.5s-29.167 33.5 -54.5 33.5c-43.333 0 -68 -38.333 -74 -115h149zM300.998 584.999l-77 73l-77 -73h-86l109 160h110l109 -160h-88z" />
    <glyph glyph-name="edieresis" unicode="&#xeb;" horiz-adv-x="456" 
d="M421 262c0 -7.33301 -0.168945 -14.667 -0.501953 -22s-0.833008 -14.666 -1.5 -21.999h-265c2.66699 -40.667 11.5 -70.334 26.5 -89.001s34.167 -28 57.5 -28c21.333 0 37.5 3.83301 48.5 11.5s22.167 19.167 33.5 34.5l84 -63c-19.333 -32 -43.5 -55.833 -72.5 -71.5
s-60.833 -23.5 -95.5 -23.5c-32.667 0 -61.5 6.66699 -86.5 20s-46 32 -63 56s-29.833 52.667 -38.5 86s-13 70.333 -13 111c0 44 4.83301 83 14.5 117s23 62.667 40 86s37.333 41 61 53s49.834 18 78.501 18c33.333 0 62 -7.5 86 -22.5s43.833 -35.167 59.5 -60.5
s27.334 -54.5 35.001 -87.5s11.5 -67.5 11.5 -103.5zM302.998 314.999c-2.66699 32 -9.5 59.167 -20.5 81.5s-29.167 33.5 -54.5 33.5c-43.333 0 -68 -38.333 -74 -115h149zM391.998 660.999c0 -19.333 -7 -36 -21 -50s-30.667 -21 -50 -21s-36.166 7 -50.499 21
s-21.5 30.667 -21.5 50s7.16699 36.166 21.5 50.499s31.166 21.5 50.499 21.5s36 -7.16699 50 -21.5s21 -31.166 21 -50.499zM200.998 660.999c0 -19.333 -7 -36 -21 -50s-30.667 -21 -50 -21s-36.166 7 -50.499 21s-21.5 30.667 -21.5 50s7.16699 36.166 21.5 50.499
s31.166 21.5 50.499 21.5s36 -7.16699 50 -21.5s21 -31.166 21 -50.499z" />
    <glyph glyph-name="igrave" unicode="&#xec;" horiz-adv-x="238" 
d="M60 0v525h118v-525h-118zM77 595l-145 160h155l87 -160h-97z" />
    <glyph glyph-name="iacute" unicode="&#xed;" horiz-adv-x="238" 
d="M60 0v525h118v-525h-118zM161 595h-97l87 160h155z" />
    <glyph glyph-name="icircumflex" unicode="&#xee;" horiz-adv-x="238" 
d="M60 0v525h118v-525h-118zM195 580l-77 73l-77 -73h-86l109 160h110l109 -160h-88z" />
    <glyph glyph-name="idieresis" unicode="&#xef;" horiz-adv-x="238" 
d="M60 0v525h118v-525h-118zM284 666c0 -19.333 -7 -36 -21 -50s-30.667 -21 -50 -21s-36.166 7 -50.499 21s-21.5 30.667 -21.5 50s7.16699 36.166 21.5 50.499s31.166 21.5 50.499 21.5s36 -7.16699 50 -21.5s21 -31.166 21 -50.499zM93 666c0 -19.333 -7 -36 -21 -50
s-30.667 -21 -50 -21s-36.166 7 -50.499 21s-21.5 30.667 -21.5 50s7.16699 36.166 21.5 50.499s31.166 21.5 50.499 21.5s36 -7.16699 50 -21.5s21 -31.166 21 -50.499z" />
    <glyph glyph-name="eth" unicode="&#xf0;" horiz-adv-x="468" 
d="M433 291c0 -108 -16.3301 -185.333 -48.9971 -232s-82.667 -70 -150 -70c-29.333 0 -56.166 5.33301 -80.499 16s-45.333 26.167 -63 46.5s-31.334 45.666 -41.001 75.999s-14.5 65.5 -14.5 105.5c0 42 5.16699 78.5 15.5 109.5s24 56.667 41 77s36.667 35.5 59 45.5
s45.166 15 68.499 15c21.333 0 40.166 -3.5 56.499 -10.5s32.166 -18.833 47.499 -35.5c-8 46 -25 84.667 -51 116l-49 -47l-58 57l42 41c-18.667 8.66699 -40.334 14.667 -65.001 18v92c52.667 -5.33301 98.334 -19.333 137.001 -42l44 42l57 -58l-39 -37
c61.333 -71.333 92 -179.666 92 -324.999zM313.003 233c0 44 -6.66895 77.5 -20.002 100.5s-33.333 34.5 -60 34.5c-27.333 0 -47.166 -11.167 -59.499 -33.5s-18.5 -55.5 -18.5 -99.5c0 -89.333 26.667 -134 80 -134c26.667 0 46.334 12 59.001 36s19 56 19 96z" />
    <glyph glyph-name="ntilde" unicode="&#xf1;" horiz-adv-x="461" 
d="M293 0l0.00195312 339.999c0 32.667 -3 55.167 -9 67.5s-19.667 18.5 -41 18.5c-13.333 0 -26.5 -4.66699 -39.5 -14s-23.167 -19.333 -30.5 -30v-382h-118v525h118v-36c13.333 14 28.166 25.333 44.499 34s34.166 13 53.499 13c28 0 51 -4.16699 69 -12.5
s32.333 -20.666 43 -36.999s18 -36.5 22 -60.5s6 -51.333 6 -82v-344h-118zM399.002 721.999c0 -40 -9 -71.667 -27 -95s-41.667 -35 -71 -35c-18 0 -32.5 2.16699 -43.5 6.5s-25.167 11.5 -42.5 21.5c-13.333 8 -22.666 13 -27.999 15s-11 3 -17 3
c-8 0 -14 -3.16699 -18 -9.5s-7.33301 -17.5 -10 -33.5h-77c0 40 9 71.667 27 95s41.667 35 71 35c18 0 32.5 -2.16699 43.5 -6.5s25.167 -11.5 42.5 -21.5c13.333 -8 22.666 -13 27.999 -15s11 -3 17 -3c8 0 14 3.16699 18 9.5s7.33301 17.5 10 33.5h77z" />
    <glyph glyph-name="ograve" unicode="&#xf2;" horiz-adv-x="468" 
d="M433 263c0 -44 -4.83301 -83.166 -14.5 -117.499s-23.334 -63 -41.001 -86s-38.667 -40.5 -63 -52.5s-51.166 -18 -80.499 -18s-56.166 5.83301 -80.499 17.5s-45.333 29 -63 52s-31.334 51.5 -41.001 85.5s-14.5 73 -14.5 117s4.83301 83.167 14.5 117.5
s23.334 63.166 41.001 86.499s38.834 41 63.501 53s51.667 18 81 18s56.166 -6 80.499 -18s45.166 -29.5 62.499 -52.5s30.833 -51.5 40.5 -85.5s14.5 -73 14.5 -117zM313 261.001c0 48.667 -6.33203 87.999 -18.999 117.999s-33 45 -61 45
c-28.667 0 -48.834 -14.5 -60.501 -43.5s-17.5 -68.167 -17.5 -117.5s6.16699 -88.666 18.5 -117.999s32.833 -44 61.5 -44c14 0 26 4.16699 36 12.5s18 19.833 24 34.5s10.5 31.667 13.5 51s4.5 40 4.5 62zM189.001 595l-145 160h155l87 -160h-97z" />
    <glyph glyph-name="oacute" unicode="&#xf3;" horiz-adv-x="468" 
d="M433 263c0 -44 -4.83301 -83.166 -14.5 -117.499s-23.334 -63 -41.001 -86s-38.667 -40.5 -63 -52.5s-51.166 -18 -80.499 -18s-56.166 5.83301 -80.499 17.5s-45.333 29 -63 52s-31.334 51.5 -41.001 85.5s-14.5 73 -14.5 117s4.83301 83.167 14.5 117.5
s23.334 63.166 41.001 86.499s38.834 41 63.501 53s51.667 18 81 18s56.166 -6 80.499 -18s45.166 -29.5 62.499 -52.5s30.833 -51.5 40.5 -85.5s14.5 -73 14.5 -117zM313 261.001c0 48.667 -6.33203 87.999 -18.999 117.999s-33 45 -61 45
c-28.667 0 -48.834 -14.5 -60.501 -43.5s-17.5 -68.167 -17.5 -117.5s6.16699 -88.666 18.5 -117.999s32.833 -44 61.5 -44c14 0 26 4.16699 36 12.5s18 19.833 24 34.5s10.5 31.667 13.5 51s4.5 40 4.5 62zM263.001 595h-97l87 160h155z" />
    <glyph glyph-name="ocircumflex" unicode="&#xf4;" horiz-adv-x="468" 
d="M433 263c0 -44 -4.83301 -83.166 -14.5 -117.499s-23.334 -63 -41.001 -86s-38.667 -40.5 -63 -52.5s-51.166 -18 -80.499 -18s-56.166 5.83301 -80.499 17.5s-45.333 29 -63 52s-31.334 51.5 -41.001 85.5s-14.5 73 -14.5 117s4.83301 83.167 14.5 117.5
s23.334 63.166 41.001 86.499s38.834 41 63.501 53s51.667 18 81 18s56.166 -6 80.499 -18s45.166 -29.5 62.499 -52.5s30.833 -51.5 40.5 -85.5s14.5 -73 14.5 -117zM313 261.001c0 48.667 -6.33203 87.999 -18.999 117.999s-33 45 -61 45
c-28.667 0 -48.834 -14.5 -60.501 -43.5s-17.5 -68.167 -17.5 -117.5s6.16699 -88.666 18.5 -117.999s32.833 -44 61.5 -44c14 0 26 4.16699 36 12.5s18 19.833 24 34.5s10.5 31.667 13.5 51s4.5 40 4.5 62zM307.001 585l-77 73l-77 -73h-86l109 160h110l109 -160h-88z" />
    <glyph glyph-name="otilde" unicode="&#xf5;" horiz-adv-x="468" 
d="M433 263c0 -44 -4.83301 -83.166 -14.5 -117.499s-23.334 -63 -41.001 -86s-38.667 -40.5 -63 -52.5s-51.166 -18 -80.499 -18s-56.166 5.83301 -80.499 17.5s-45.333 29 -63 52s-31.334 51.5 -41.001 85.5s-14.5 73 -14.5 117s4.83301 83.167 14.5 117.5
s23.334 63.166 41.001 86.499s38.834 41 63.501 53s51.667 18 81 18s56.166 -6 80.499 -18s45.166 -29.5 62.499 -52.5s30.833 -51.5 40.5 -85.5s14.5 -73 14.5 -117zM313 261.001c0 48.667 -6.33203 87.999 -18.999 117.999s-33 45 -61 45
c-28.667 0 -48.834 -14.5 -60.501 -43.5s-17.5 -68.167 -17.5 -117.5s6.16699 -88.666 18.5 -117.999s32.833 -44 61.5 -44c14 0 26 4.16699 36 12.5s18 19.833 24 34.5s10.5 31.667 13.5 51s4.5 40 4.5 62zM396.001 722c0 -40 -9 -71.667 -27 -95s-41.667 -35 -71 -35
c-18 0 -32.5 2.16699 -43.5 6.5s-25.167 11.5 -42.5 21.5c-13.333 8 -22.666 13 -27.999 15s-11 3 -17 3c-8 0 -14 -3.16699 -18 -9.5s-7.33301 -17.5 -10 -33.5h-77c0 40 9 71.667 27 95s41.667 35 71 35c18 0 32.5 -2.16699 43.5 -6.5s25.167 -11.5 42.5 -21.5
c13.333 -8 22.666 -13 27.999 -15s11 -3 17 -3c8 0 14 3.16699 18 9.5s7.33301 17.5 10 33.5h77z" />
    <glyph glyph-name="odieresis" unicode="&#xf6;" horiz-adv-x="468" 
d="M433 263c0 -44 -4.83301 -83.166 -14.5 -117.499s-23.334 -63 -41.001 -86s-38.667 -40.5 -63 -52.5s-51.166 -18 -80.499 -18s-56.166 5.83301 -80.499 17.5s-45.333 29 -63 52s-31.334 51.5 -41.001 85.5s-14.5 73 -14.5 117s4.83301 83.167 14.5 117.5
s23.334 63.166 41.001 86.499s38.834 41 63.501 53s51.667 18 81 18s56.166 -6 80.499 -18s45.166 -29.5 62.499 -52.5s30.833 -51.5 40.5 -85.5s14.5 -73 14.5 -117zM313 261.001c0 48.667 -6.33203 87.999 -18.999 117.999s-33 45 -61 45
c-28.667 0 -48.834 -14.5 -60.501 -43.5s-17.5 -68.167 -17.5 -117.5s6.16699 -88.666 18.5 -117.999s32.833 -44 61.5 -44c14 0 26 4.16699 36 12.5s18 19.833 24 34.5s10.5 31.667 13.5 51s4.5 40 4.5 62zM398.001 656c0 -19.333 -7 -36 -21 -50s-30.667 -21 -50 -21
s-36.166 7 -50.499 21s-21.5 30.667 -21.5 50s7.16699 36.166 21.5 50.499s31.166 21.5 50.499 21.5s36 -7.16699 50 -21.5s21 -31.166 21 -50.499zM207.001 656c0 -19.333 -7 -36 -21 -50s-30.667 -21 -50 -21s-36.166 7 -50.499 21s-21.5 30.667 -21.5 50
s7.16699 36.166 21.5 50.499s31.166 21.5 50.499 21.5s36 -7.16699 50 -21.5s21 -31.166 21 -50.499z" />
    <glyph glyph-name="divide" unicode="&#xf7;" 
d="M574 217c-5.33301 -3.33301 -10.333 -5 -15 -5s-8.33398 1 -11.001 3c-10.667 7.33301 -13.667 17.666 -9 30.999l14 50h-116v-114l51 14c13.333 4.66699 23.333 1.66699 30 -9c2 -2.66699 3 -6.33398 3 -11.001s-2 -9.66699 -6 -15l-130 -176l-133 176
c-3.33301 5.33301 -5 10.333 -5 15s1 8.33398 3 11.001c7.33301 10.667 17.666 13.667 30.999 9l50 -14v114h-114l14 -50c4.66699 -13.333 1.66699 -23.666 -9 -30.999c-2.66699 -2 -6.33398 -3 -11.001 -3s-9.66699 1.66699 -15 5l-176 133l176 130
c5.33301 4 10.333 6 15 6s8.33398 -1 11.001 -3c10.667 -6.66699 13.667 -16.667 9 -30l-14 -51h114v116l-50 -14c-13.333 -4.66699 -23.666 -1.66699 -30.999 9c-2 2.66699 -3 6.33398 -3 11.001s1.66699 9.66699 5 15l133 176l130 -176c4 -5.33301 6 -10.333 6 -15
s-1 -8.33398 -3 -11.001c-6.66699 -10.667 -16.667 -13.667 -30 -9l-51 14v-116h116l-14 51c-4.66699 13.333 -1.66699 23.333 9 30c2.66699 2 6.33398 3 11.001 3s9.66699 -2 15 -6l176 -130z" />
    <glyph glyph-name="oslash" unicode="&#xf8;" horiz-adv-x="468" 
d="M433 263c0 -44 -4.83496 -83.165 -14.502 -117.498s-23.334 -63 -41.001 -86s-38.667 -40.5 -63 -52.5s-51.166 -18 -80.499 -18c-19.333 0 -38 2.66699 -56 8l-18 -47h-92l35 94c-21.333 22.667 -38 52 -50 88s-18 79 -18 129c0 44 4.83301 83.167 14.5 117.5
s23.334 63.166 41.001 86.499s38.834 41 63.501 53s51.667 18 81 18c18.667 0 37 -2.66699 55 -8l17 47h92l-37 -91c22.667 -23.333 40.167 -53.333 52.5 -90s18.5 -80.334 18.5 -131.001zM252.998 429.002c-6 2 -12.667 3 -20 3c-30 0 -51.167 -15.167 -63.5 -45.5
s-18.5 -71.5 -18.5 -123.5c0 -16.667 0.5 -32.167 1.5 -46.5s3.16699 -27.5 6.5 -39.5zM316.998 261.002c0 32 -2.66699 61.332 -8 87.999l-94 -253c6 -2 12.667 -3 20 -3c14.667 0 27.167 4.5 37.5 13.5s18.833 21 25.5 36s11.5 32.833 14.5 53.5s4.5 42.334 4.5 65.001z
" />
    <glyph glyph-name="ugrave" unicode="&#xf9;" horiz-adv-x="461" 
d="M288 0l-0.00195312 36.001c-13.333 -14 -28.166 -25.333 -44.499 -34s-34.166 -13 -53.499 -13c-28 0 -51 4.16699 -69 12.5s-32.333 20.666 -43 36.999s-18 36.5 -22 60.5s-6 51.333 -6 82v344h118v-340c0 -32.667 3 -55.167 9 -67.5s19.667 -18.5 41 -18.5
c13.333 0 26.5 4.66699 39.5 14s23.167 19.333 30.5 30v382h118v-525h-118zM183.998 595.001l-145 160h155l87 -160h-97z" />
    <glyph glyph-name="uacute" unicode="&#xfa;" horiz-adv-x="461" 
d="M288 0l-0.00195312 36.001c-13.333 -14 -28.166 -25.333 -44.499 -34s-34.166 -13 -53.499 -13c-28 0 -51 4.16699 -69 12.5s-32.333 20.666 -43 36.999s-18 36.5 -22 60.5s-6 51.333 -6 82v344h118v-340c0 -32.667 3 -55.167 9 -67.5s19.667 -18.5 41 -18.5
c13.333 0 26.5 4.66699 39.5 14s23.167 19.333 30.5 30v382h118v-525h-118zM257.998 595.001h-97l87 160h155z" />
    <glyph glyph-name="ucircumflex" unicode="&#xfb;" horiz-adv-x="461" 
d="M288 0l-0.00195312 36.001c-13.333 -14 -28.166 -25.333 -44.499 -34s-34.166 -13 -53.499 -13c-28 0 -51 4.16699 -69 12.5s-32.333 20.666 -43 36.999s-18 36.5 -22 60.5s-6 51.333 -6 82v344h118v-340c0 -32.667 3 -55.167 9 -67.5s19.667 -18.5 41 -18.5
c13.333 0 26.5 4.66699 39.5 14s23.167 19.333 30.5 30v382h118v-525h-118zM301.998 595.001l-77 73l-77 -73h-86l109 160h110l109 -160h-88z" />
    <glyph glyph-name="udieresis" unicode="&#xfc;" horiz-adv-x="461" 
d="M288 0l-0.00195312 36.001c-13.333 -14 -28.166 -25.333 -44.499 -34s-34.166 -13 -53.499 -13c-28 0 -51 4.16699 -69 12.5s-32.333 20.666 -43 36.999s-18 36.5 -22 60.5s-6 51.333 -6 82v344h118v-340c0 -32.667 3 -55.167 9 -67.5s19.667 -18.5 41 -18.5
c13.333 0 26.5 4.66699 39.5 14s23.167 19.333 30.5 30v382h118v-525h-118zM391.998 666.001c0 -19.333 -7 -36 -21 -50s-30.667 -21 -50 -21s-36.166 7 -50.499 21s-21.5 30.667 -21.5 50s7.16699 36.166 21.5 50.499s31.166 21.5 50.499 21.5s36 -7.16699 50 -21.5
s21 -31.166 21 -50.499zM200.998 666.001c0 -19.333 -7 -36 -21 -50s-30.667 -21 -50 -21s-36.166 7 -50.499 21s-21.5 30.667 -21.5 50s7.16699 36.166 21.5 50.499s31.166 21.5 50.499 21.5s36 -7.16699 50 -21.5s21 -31.166 21 -50.499z" />
    <glyph glyph-name="yacute" unicode="&#xfd;" horiz-adv-x="452" 
d="M232 -185h-109l53 194l-156 516h124l49 -196l11 -44c4 -16.667 7.66699 -33 11 -49l9.5 -44.5c3 -13.667 5.16699 -24.167 6.5 -31.5l6 32l9 45l10 48.5l9 42.5l44 197h123zM258 590h-97l87 160h155z" />
    <glyph glyph-name="thorn" unicode="&#xfe;" horiz-adv-x="464" 
d="M427 263c0 -40 -3.16309 -76.834 -9.49609 -110.501s-16 -62.5 -29 -86.5s-29.833 -42.833 -50.5 -56.5s-45.334 -20.5 -74.001 -20.5c-17.333 0 -34 3.66699 -50 11s-29.667 17 -41 29v-163l-118 -59v863l118 59v-240c13.333 14 28.666 25.333 45.999 34
s35.666 13 54.999 13c49.333 0 87.166 -22.167 113.499 -66.5s39.5 -113.166 39.5 -206.499zM307.004 258.999c0 58 -4.00195 100.334 -12.002 127.001s-24.333 40 -49 40c-14.667 0 -28.667 -4.66699 -42 -14s-23.666 -19.333 -30.999 -30v-238
c8 -11.333 18.333 -21.666 31 -30.999s27.334 -14 44.001 -14c10.667 0 19.667 2.66699 27 8s13.333 14.166 18 26.499s8.16699 28.666 10.5 48.999s3.5 45.833 3.5 76.5z" />
    <glyph glyph-name="ydieresis" unicode="&#xff;" horiz-adv-x="452" 
d="M232 -185h-109l53 194l-156 516h124l49 -196l11 -44c4 -16.667 7.66699 -33 11 -49l9.5 -44.5c3 -13.667 5.16699 -24.167 6.5 -31.5l6 32l9 45l10 48.5l9 42.5l44 197h123zM390 661c0 -19.333 -7 -36 -21 -50s-30.667 -21 -50 -21s-36.166 7 -50.499 21
s-21.5 30.667 -21.5 50s7.16699 36.166 21.5 50.499s31.166 21.5 50.499 21.5s36 -7.16699 50 -21.5s21 -31.166 21 -50.499zM199 661c0 -19.333 -7 -36 -21 -50s-30.667 -21 -50 -21s-36.166 7 -50.499 21s-21.5 30.667 -21.5 50s7.16699 36.166 21.5 50.499
s31.166 21.5 50.499 21.5s36 -7.16699 50 -21.5s21 -31.166 21 -50.499z" />
    <glyph glyph-name="dotlessi" unicode="&#x131;" horiz-adv-x="238" 
d="M60 0v525h118v-525h-118z" />
    <glyph glyph-name="Lslash" unicode="&#x141;" horiz-adv-x="458" 
d="M80 0v227l-45 -37v125l45 37v348h122v-259l87 69v-125l-87 -69v-194h222v-122h-344z" />
    <glyph glyph-name="lslash" unicode="&#x142;" horiz-adv-x="272" 
d="M193 311v-311h-114v228l-53 -43v125l53 42v318l114 59v-294l53 43v-125z" />
    <glyph glyph-name="OE" unicode="&#x152;" horiz-adv-x="781" 
d="M403 0l0.000976562 64.999c-15.333 -24.667 -33.666 -43.5 -54.999 -56.5s-48.333 -19.5 -81 -19.5c-38.667 0 -72.334 9.33301 -101.001 28s-52.334 44.167 -71.001 76.5s-32.5 70.5 -41.5 114.5s-13.5 91 -13.5 141c0 50.667 4.5 98 13.5 142s23 82.333 42 115
s42.833 58.334 71.5 77.001s62.667 28 102 28c34 0 61.167 -6.83301 81.5 -20.5s37.833 -32.167 52.5 -55.5v65h326v-120h-234v-148h157v-118h-157v-194h243v-120h-335zM377.001 348.999c0 74.667 -8.16797 132.834 -24.501 174.501s-43.166 62.5 -80.499 62.5
c-38 0 -64.833 -20.5 -80.5 -61.5s-23.5 -98.833 -23.5 -173.5s8.16699 -132.834 24.5 -174.501s43.5 -62.5 81.5 -62.5c37.333 0 63.833 20.5 79.5 61.5s23.5 98.833 23.5 173.5z" />
    <glyph glyph-name="oe" unicode="&#x153;" horiz-adv-x="728" 
d="M693 262c0 -7.33301 -0.170898 -14.666 -0.503906 -21.999s-0.833008 -14.666 -1.5 -21.999h-265c2.66699 -40.667 11.5 -70.334 26.5 -89.001s34.167 -28 57.5 -28c21.333 0 37.5 3.83301 48.5 11.5s22.167 19.167 33.5 34.5l84 -63
c-19.333 -32 -43.5 -55.833 -72.5 -71.5s-60.833 -23.5 -95.5 -23.5s-63 7.83301 -85 23.5s-39.667 35.167 -53 58.5c-13.333 -23.333 -31 -42.833 -53 -58.5s-49.667 -23.5 -83 -23.5c-29.333 0 -56.166 5.83301 -80.499 17.5s-45.333 29 -63 52s-31.334 51.5 -41.001 85.5
s-14.5 73 -14.5 117s4.83301 83.167 14.5 117.5s23.334 63.166 41.001 86.499s38.834 41 63.501 53s51.667 18 81 18c30.667 0 57.834 -7 81.501 -21s41.5 -33.667 53.5 -59c14 24.667 31.833 44.167 53.5 58.5s47.5 21.5 77.5 21.5c33.333 0 62 -7.5 86 -22.5
s43.833 -35.167 59.5 -60.5s27.334 -54.5 35.001 -87.5s11.5 -67.5 11.5 -103.5zM574.996 315c-2.66699 32 -9.5 59.167 -20.5 81.5s-29.167 33.5 -54.5 33.5c-43.333 0 -68 -38.333 -74 -115h149zM312.996 261c0 48.667 -6.33203 87.999 -18.999 117.999s-33 45 -61 45
c-28.667 0 -48.834 -14.5 -60.501 -43.5s-17.5 -68.167 -17.5 -117.5s6.16699 -88.666 18.5 -117.999s32.833 -44 61.5 -44c14 0 26 4.16699 36 12.5s18 19.833 24 34.5s10.5 31.667 13.5 51s4.5 40 4.5 62z" />
    <glyph glyph-name="Scaron" unicode="&#x160;" horiz-adv-x="471" 
d="M443 189c0 -28.667 -4.83398 -55.3301 -14.501 -79.9971s-23.5 -45.834 -41.5 -63.501s-40 -31.5 -66 -41.5s-55.333 -15 -88 -15c-47.333 0 -88 10.833 -122 32.5s-63 47.5 -87 77.5l85 91c21.333 -27.333 42.833 -47.5 64.5 -60.5s43.167 -19.5 64.5 -19.5
c26 0 45.5 6.83301 58.5 20.5s19.5 32.167 19.5 55.5c0 20 -7.5 38.833 -22.5 56.5s-43.167 36.834 -84.5 57.501c-26 13.333 -49.333 27 -70 41s-38.167 29.667 -52.5 47s-25.333 37 -33 59s-11.5 47.333 -11.5 76c0 26 4.66699 50.5 14 73.5s22.5 43 39.5 60
s37.667 30.333 62 40s51.166 14.5 80.499 14.5c44 0 80.5 -8.5 109.5 -25.5s56.167 -41.833 81.5 -74.5l-83 -83c-10 11.333 -19.167 21 -27.5 29s-16.666 14.5 -24.999 19.5s-17.166 8.5 -26.499 10.5s-20 3 -32 3c-20 0 -36 -5.83301 -48 -17.5s-18 -26.167 -18 -43.5
c0 -20.667 7.16699 -38.834 21.5 -54.501s40.5 -33.834 78.5 -54.501c30 -16 56 -31.5 78 -46.5s40.167 -31.333 54.5 -49s24.833 -37.334 31.5 -59.001s10 -47.167 10 -76.5zM286.999 750.004h-110l-109 160h88l77 -73l77 73h86z" />
    <glyph glyph-name="scaron" unicode="&#x161;" horiz-adv-x="414" 
d="M373 154c0 -54 -16.1641 -95 -48.4971 -123s-73.5 -42 -123.5 -42c-32.667 0 -62.334 4.66699 -89.001 14s-52.334 23.666 -77.001 42.999l42 101c43.333 -30.667 85.333 -46 126 -46c18.667 0 32.5 3.83301 41.5 11.5s13.5 18.167 13.5 31.5
c0 7.33301 -1.5 13.833 -4.5 19.5s-8.16699 11.5 -15.5 17.5s-17 12.333 -29 19s-27.333 14.334 -46 23.001c-38 18.667 -66.5 40.167 -85.5 64.5s-28.5 56.833 -28.5 97.5c0 23.333 4 44.333 12 63s19.167 34.5 33.5 47.5s31.5 23 51.5 30s41.667 10.5 65 10.5
c28 0 53.833 -4 77.5 -12s47.167 -20 70.5 -36l-41 -96c-22.667 12 -41.834 20.333 -57.501 25s-33.167 7 -52.5 7c-13.333 0 -24 -3.33301 -32 -10s-12 -15.334 -12 -26.001c0 -6 1.16699 -11.5 3.5 -16.5s6.83301 -10.167 13.5 -15.5s15.667 -11.166 27 -17.499
s26 -13.833 44 -22.5c38.667 -18.667 68.5 -40 89.5 -64s31.5 -56.667 31.5 -98zM256.003 595h-110l-109 160h88l77 -73l77 73h86z" />
    <glyph glyph-name="Ydieresis" unicode="&#x178;" horiz-adv-x="520" 
d="M322 264l-0.000976562 -264.002h-125v262l-180 438h138l54 -142c6 -15.333 11.667 -30.833 17 -46.5l15 -45.5l12.5 -40.5c3.66699 -12.333 6.16699 -22.5 7.5 -30.5l8 31c3.33301 12.667 7.33301 26.334 12 41.001s9.83398 29.834 15.501 45.501l16.5 45.5l54 142h136z
M426.999 810.998c0 -19.333 -7 -36 -21 -50s-30.667 -21 -50 -21s-36.166 7 -50.499 21s-21.5 30.667 -21.5 50s7.16699 36.166 21.5 50.499s31.166 21.5 50.499 21.5s36 -7.16699 50 -21.5s21 -31.166 21 -50.499zM235.999 810.998c0 -19.333 -7 -36 -21 -50
s-30.667 -21 -50 -21s-36.166 7 -50.499 21s-21.5 30.667 -21.5 50s7.16699 36.166 21.5 50.499s31.166 21.5 50.499 21.5s36 -7.16699 50 -21.5s21 -31.166 21 -50.499z" />
    <glyph glyph-name="Zcaron" unicode="&#x17d;" horiz-adv-x="469" 
d="M37 0v111l203 390l26.5 48l23.5 40c-12.667 -0.666992 -26.334 -1.16699 -41.001 -1.5s-30.667 -0.5 -48 -0.5h-147v113h365v-111l-201 -390l-26.5 -48l-23.5 -40c12.667 0.666992 26.334 1.16699 41.001 1.5s30.667 0.5 48 0.5h162v-113h-382zM290 745h-110l-109 160h88
l77 -73l77 73h86z" />
    <glyph glyph-name="zcaron" unicode="&#x17e;" horiz-adv-x="415" 
d="M38 0v103l139 210l39.5 59l35.5 49c-15.333 -0.666992 -32.333 -1.16699 -51 -1.5s-38.667 -0.5 -60 -0.5h-88v106h317v-103l-136 -210c-13.333 -21.333 -26.5 -41 -39.5 -59l-36.5 -49c16 0.666992 33.333 1.16699 52 1.5s38.667 0.5 60 0.5h100v-106h-332zM262 595
h-110l-109 160h88l77 -73l77 73h86z" />
    <glyph glyph-name="florin" unicode="&#x192;" horiz-adv-x="363" 
d="M333 593c-23.333 7.33301 -45.668 10.999 -67.001 10.999c-16.667 0 -29 -3.66699 -37 -11s-12 -20.666 -12 -39.999v-31h94v-109h-94v-550l-118 -59v609h-53v109h53v48c0 48.667 13 83.834 39 105.501s58 32.5 96 32.5c20.667 0 38.834 -1.33301 54.501 -4
s30.5 -6.33398 44.5 -11.001v-100z" />
    <glyph glyph-name="circumflex" unicode="&#x2c6;" horiz-adv-x="400" 
d="M276 595l-77 73l-77 -73h-86l109 160h110l109 -160h-88z" />
    <glyph glyph-name="caron" unicode="&#x2c7;" horiz-adv-x="400" 
d="M255 595h-110l-109 160h88l77 -73l77 73h86z" />
    <glyph glyph-name="breve" unicode="&#x2d8;" horiz-adv-x="400" 
d="M360 755c-6.66699 -52 -22.999 -91.667 -48.999 -119s-63 -41 -111 -41c-47.333 0 -83.833 13.667 -109.5 41s-41.834 67 -48.501 119h79c6 -23.333 14.667 -40.833 26 -52.5s30 -17.5 56 -17.5c25.333 0 43.833 5.83301 55.5 17.5s20.5 29.167 26.5 52.5h75z" />
    <glyph glyph-name="dotaccent" unicode="&#x2d9;" horiz-adv-x="400" 
d="M271 666c0 -19.333 -7 -36 -21 -50s-30.667 -21 -50 -21s-36.166 7 -50.499 21s-21.5 30.667 -21.5 50s7.16699 36.166 21.5 50.499s31.166 21.5 50.499 21.5s36 -7.16699 50 -21.5s21 -31.166 21 -50.499z" />
    <glyph glyph-name="ring" unicode="&#x2da;" horiz-adv-x="400" 
d="M319 713c0 -34 -11.333 -62.167 -34 -84.5s-51 -33.5 -85 -33.5s-62.333 11.167 -85 33.5s-34 50.5 -34 84.5s11.333 62.333 34 85s51 34 85 34s62.333 -11.333 85 -34s34 -51 34 -85zM252 713c0 15.333 -5 28 -15 38s-22.333 15 -37 15s-27 -5 -37 -15
s-15 -22.667 -15 -38s5 -28 15 -38s22.333 -15 37 -15s27 5 37 15s15 22.667 15 38z" />
    <glyph glyph-name="ogonek" unicode="&#x2db;" horiz-adv-x="400" 
d="M309 -152c-17.333 -12.667 -35.167 -22.6699 -53.5 -30.0029s-39.5 -11 -63.5 -11c-27.333 0 -49.166 7 -65.499 21s-24.5 34.667 -24.5 62c0 22 7.66699 42 23 60s34.666 34.667 57.999 50h60c-12 -12.667 -22 -23.667 -30 -33s-14.167 -17.666 -18.5 -24.999
s-7.5 -14.166 -9.5 -20.499s-3 -13.166 -3 -20.499c0 -10 2.5 -18.333 7.5 -25s12.833 -10 23.5 -10c12.667 0 24 1.5 34 4.5s22.333 8.5 37 16.5z" />
    <glyph glyph-name="tilde" unicode="&#x2dc;" horiz-adv-x="400" 
d="M367 722c0 -40 -9 -71.667 -27 -95s-41.667 -35 -71 -35c-18 0 -32.5 2.16699 -43.5 6.5s-25.167 11.5 -42.5 21.5c-13.333 8 -22.666 13 -27.999 15s-11 3 -17 3c-8 0 -14 -3.16699 -18 -9.5s-7.33301 -17.5 -10 -33.5h-77c0 40 9 71.667 27 95s41.667 35 71 35
c18 0 32.5 -2.16699 43.5 -6.5s25.167 -11.5 42.5 -21.5c13.333 -8 22.666 -13 27.999 -15s11 -3 17 -3c8 0 14 3.16699 18 9.5s7.33301 17.5 10 33.5h77z" />
    <glyph glyph-name="hungarumlaut" unicode="&#x2dd;" horiz-adv-x="400" 
d="M291 595h-94l92 160h147zM101 595h-94l92 160h147z" />
    <glyph glyph-name="pi" unicode="&#x3c0;" horiz-adv-x="646" 
d="M596 350c0 -54.667 -7 -104.167 -21 -148.5s-33.333 -82.333 -58 -114s-54 -56 -88 -73s-71 -25.5 -111 -25.5s-77 8.5 -111 25.5s-63.333 41.333 -88 73s-44 69.667 -58 114s-21 93.833 -21 148.5s7 104.167 21 148.5s33.333 82.333 58 114s54 56 88 73
s71 25.5 111 25.5s77 -8.5 111 -25.5s63.333 -41.333 88 -73s44 -69.667 58 -114s21 -93.833 21 -148.5zM535 348c0 45.333 -5.16797 86.833 -15.501 124.5s-25 69.834 -44 96.501s-41.833 47.334 -68.5 62.001s-56.334 22 -89.001 22c-33.333 0 -63.333 -7.16699 -90 -21.5
s-49.5 -34.666 -68.5 -60.999s-33.5 -58 -43.5 -95s-15 -78.167 -15 -123.5s5.16699 -86.833 15.5 -124.5s25 -69.834 44 -96.501s42 -47.334 69 -62.001s57.167 -22 90.5 -22c32.667 0 62.334 7.16699 89.001 21.5s49.334 34.666 68.001 60.999s33 58 43 95
s15 78.167 15 123.5zM451.999 421c0 -20.667 -3.5 -39.001 -10.5 -55.001s-16.333 -29.167 -28 -39.5s-25.167 -18.166 -40.5 -23.499s-31.333 -8 -48 -8h-32v-141h-70v392h105c37.333 0 67.333 -10.333 90 -31s34 -52 34 -94zM381.999 419.999
c0 16.667 -4.5 30.5 -13.5 41.5s-23.833 16.5 -44.5 16.5h-31v-115h35c18 0 31.5 5 40.5 15s13.5 24 13.5 42z" />
    <glyph glyph-name="endash" unicode="&#x2013;" horiz-adv-x="420" 
d="M45 299v128h330v-128h-330z" />
    <glyph glyph-name="emdash" unicode="&#x2014;" horiz-adv-x="550" 
d="M45 299v128h460v-128h-460z" />
    <glyph glyph-name="quoteleft" unicode="&#x2018;" horiz-adv-x="260" 
d="M185 447h-140l72 253h81z" />
    <glyph glyph-name="quoteright" unicode="&#x2019;" horiz-adv-x="260" 
d="M143 447h-81l13 253h140z" />
    <glyph glyph-name="quotesinglbase" unicode="&#x201a;" horiz-adv-x="260" 
d="M143 -106h-81l13 253h140z" />
    <glyph glyph-name="quotedblleft" unicode="&#x201c;" horiz-adv-x="485" 
d="M410 447h-140l72 253h81zM185 447h-140l72 253h81z" />
    <glyph glyph-name="quotedblright" unicode="&#x201d;" horiz-adv-x="485" 
d="M368 447h-81l13 253h140zM143 447h-81l13 253h140z" />
    <glyph glyph-name="quotedblbase" unicode="&#x201e;" horiz-adv-x="485" 
d="M368 -106h-81l13 253h140zM143 -106h-81l13 253h140z" />
    <glyph glyph-name="dagger" unicode="&#x2020;" horiz-adv-x="464" 
d="M287 368v-468h-120v468h-135v121h135v211h120v-211h145v-121h-145z" />
    <glyph glyph-name="daggerdbl" unicode="&#x2021;" horiz-adv-x="464" 
d="M287 110v-210h-120v210h-135v121h135v137h-135v121h135v211h120v-211h145v-121h-145v-137h145v-121h-145z" />
    <glyph glyph-name="bullet" unicode="&#x2022;" horiz-adv-x="404" 
d="M364 366c0 -22.667 -4.16699 -43.834 -12.5 -63.501s-19.833 -36.834 -34.5 -51.501s-31.834 -26.167 -51.501 -34.5s-40.834 -12.5 -63.501 -12.5s-43.834 4.16699 -63.501 12.5s-36.834 19.833 -51.501 34.5s-26.167 31.834 -34.5 51.501s-12.5 40.834 -12.5 63.501
s4.16699 44 12.5 64s19.833 37.333 34.5 52s31.834 26.334 51.501 35.001s40.834 13 63.501 13s43.834 -4.33301 63.501 -13s36.834 -20.334 51.501 -35.001s26.167 -32 34.5 -52s12.5 -41.333 12.5 -64z" />
    <glyph glyph-name="ellipsis" unicode="&#x2026;" horiz-adv-x="738" 
d="M698 72c0 -22.667 -8.16699 -42.167 -24.5 -58.5s-35.833 -24.5 -58.5 -24.5s-42.167 8.16699 -58.5 24.5s-24.5 35.833 -24.5 58.5s8.16699 42.167 24.5 58.5s35.833 24.5 58.5 24.5s42.167 -8.16699 58.5 -24.5s24.5 -35.833 24.5 -58.5zM452 72
c0 -22.667 -8.16699 -42.167 -24.5 -58.5s-35.833 -24.5 -58.5 -24.5s-42.167 8.16699 -58.5 24.5s-24.5 35.833 -24.5 58.5s8.16699 42.167 24.5 58.5s35.833 24.5 58.5 24.5s42.167 -8.16699 58.5 -24.5s24.5 -35.833 24.5 -58.5zM206 72
c0 -22.667 -8.16699 -42.167 -24.5 -58.5s-35.833 -24.5 -58.5 -24.5s-42.167 8.16699 -58.5 24.5s-24.5 35.833 -24.5 58.5s8.16699 42.167 24.5 58.5s35.833 24.5 58.5 24.5s42.167 -8.16699 58.5 -24.5s24.5 -35.833 24.5 -58.5z" />
    <glyph glyph-name="perthousand" unicode="&#x2030;" horiz-adv-x="1230" 
d="M346 494c0 -66.667 -13.833 -119.668 -41.5 -159.001s-67.5 -59 -119.5 -59s-91.333 19.333 -118 58s-40 91.334 -40 158.001c0 68 13.5 121.5 40.5 160.5s66.833 58.5 119.5 58.5c54 0 94 -19.5 120 -58.5s39 -91.833 39 -158.5zM301 -0.000976562h-101l359 700h101z
M1205 206.999c0 -66.667 -13.833 -119.668 -41.5 -159.001s-67.5 -59 -119.5 -59s-91.333 19.333 -118 58s-40 91.334 -40 158.001c0 68 13.5 121.5 40.5 160.5s66.833 58.5 119.5 58.5c54 0 94 -19.5 120 -58.5s39 -91.833 39 -158.5zM834 206.998
c0 -66.667 -13.833 -119.668 -41.5 -159.001s-67.5 -59 -119.5 -59s-91.333 19.333 -118 58s-40 91.334 -40 158.001c0 68 13.5 121.5 40.5 160.5s66.833 58.5 119.5 58.5c54 0 94 -19.5 120 -58.5s39 -91.833 39 -158.5zM244 491.997c0 42 -4 74 -12 96s-23.333 33 -46 33
s-37.834 -10.667 -45.501 -32s-11.5 -53 -11.5 -95s4 -74 12 -96s23.333 -33 46 -33s37.834 11.667 45.501 35s11.5 54 11.5 92zM1103 204.997c0 42 -4 74 -12 96s-23.333 33 -46 33s-37.834 -10.667 -45.501 -32s-11.5 -53 -11.5 -95s4 -74 12 -96s23.333 -33 46 -33
s37.834 11.667 45.501 35s11.5 54 11.5 92zM732 204.997c0 42 -4 74 -12 96s-23.333 33 -46 33s-37.834 -10.667 -45.501 -32s-11.5 -53 -11.5 -95s4 -74 12 -96s23.333 -33 46 -33s37.834 11.667 45.501 35s11.5 54 11.5 92z" />
    <glyph glyph-name="guilsinglleft" unicode="&#x2039;" horiz-adv-x="308" 
d="M155 0l-135 262l135 263h118l-130 -262l130 -263h-118z" />
    <glyph glyph-name="guilsinglright" unicode="&#x203a;" horiz-adv-x="308" 
d="M153 0h-118l130 262l-130 263h118l135 -262z" />
    <glyph glyph-name="fraction" unicode="&#x2044;" horiz-adv-x="420" 
d="M83 0h-135l389 700h135z" />
    <glyph glyph-name="trademark" unicode="&#x2122;" horiz-adv-x="620" 
d="M162 633v-325h-70v325h-81v67h232v-67h-81zM509 308v125.001v55.5c0 17.667 0.333008 33.167 1 46.5c-4 -13.333 -8.83301 -28.5 -14.5 -45.5l-18.5 -54.5l-47 -137l-47 137l-18.5 55c-5.66699 17.333 -10.5 32.666 -14.5 45.999c0.666992 -13.333 1 -28.833 1 -46.5
v-56.5v-125h-64v392h71l48 -147c10.667 -32 19 -60 25 -84l11 39c4 14 8.66699 29 14 45l47 147h69v-392h-63z" />
    <glyph glyph-name="Omega" unicode="&#x2126;" horiz-adv-x="408" 
d="M353 490c-7.33301 -11.333 -18.334 -14.666 -33.001 -9.99902l-57 16v-496h-118v496l-55 -16c-15.333 -4.66699 -27 -1.33398 -35 9.99902c-2 3.33301 -3 7.5 -3 12.5s1.66699 10.5 5 16.5l148 196l145 -196c4.66699 -6 6.83398 -11.5 6.50098 -16.5
s-1.5 -9.16699 -3.5 -12.5z" />
    <glyph glyph-name="partialdiff" unicode="&#x2202;" horiz-adv-x="408" 
d="M353 210c2 -3.33301 3.16699 -7.5 3.5 -12.5s-1.83398 -10.5 -6.50098 -16.5l-145 -196l-148 196c-3.33301 6 -5 11.5 -5 16.5s1 9.16699 3 12.5c8 11.333 19.667 14.666 35 9.99902l55 -16v292l-55 -16c-15.333 -4.66699 -27 -1.33398 -35 9.99902
c-2 3.33301 -3 7.5 -3 12.5s1.66699 10.5 5 16.5l148 196l145 -196c4.66699 -6 6.83398 -11.5 6.50098 -16.5s-1.5 -9.16699 -3.5 -12.5c-7.33301 -11.333 -18.333 -14.666 -33 -9.99902l-57 16v-292l57 16c14.667 4.66699 25.667 1.33398 33 -9.99902z" />
    <glyph glyph-name="Delta" unicode="&#x2206;" horiz-adv-x="580" 
d="M239 287l16 -55.001c4.66699 -15.333 1.33398 -27 -9.99902 -35c-3.33301 -2 -7.5 -3 -12.5 -3s-10.5 1.66699 -16.5 5l-196 148l196 145c6 4.66699 11.5 6.83398 16.5 6.50098s9.16699 -1.5 12.5 -3.5c11.333 -7.33301 14.666 -18.333 9.99902 -33l-16 -57h296v-118
h-296z" />
    <glyph glyph-name="product" unicode="&#x220f;" 
d="M574 217c-5.33301 -3.33301 -10.333 -5 -15 -5s-8.33398 1 -11.001 3c-10.667 7.33301 -13.667 17.666 -9 30.999l14 50h-116v-114l51 14c13.333 4.66699 23.333 1.66699 30 -9c2 -2.66699 3 -6.33398 3 -11.001s-2 -9.66699 -6 -15l-130 -176l-133 176
c-3.33301 5.33301 -5 10.333 -5 15s1 8.33398 3 11.001c7.33301 10.667 17.666 13.667 30.999 9l50 -14v114h-114l14 -50c4.66699 -13.333 1.66699 -23.666 -9 -30.999c-2.66699 -2 -6.33398 -3 -11.001 -3s-9.66699 1.66699 -15 5l-176 133l176 130
c5.33301 4 10.333 6 15 6s8.33398 -1 11.001 -3c10.667 -6.66699 13.667 -16.667 9 -30l-14 -51h114v116l-50 -14c-13.333 -4.66699 -23.666 -1.66699 -30.999 9c-2 2.66699 -3 6.33398 -3 11.001s1.66699 9.66699 5 15l133 176l130 -176c4 -5.33301 6 -10.333 6 -15
s-1 -8.33398 -3 -11.001c-6.66699 -10.667 -16.667 -13.667 -30 -9l-51 14v-116h116l-14 51c-4.66699 13.333 -1.66699 23.333 9 30c2.66699 2 6.33398 3 11.001 3s9.66699 -2 15 -6l176 -130z" />
    <glyph glyph-name="summation" unicode="&#x2211;" 
d="M574 217c-5.33301 -3.33301 -10.333 -5 -15 -5s-8.33398 1 -11.001 3c-10.667 7.33301 -13.667 17.666 -9 30.999l14 50h-116v-114l51 14c13.333 4.66699 23.333 1.66699 30 -9c2 -2.66699 3 -6.33398 3 -11.001s-2 -9.66699 -6 -15l-130 -176l-133 176
c-3.33301 5.33301 -5 10.333 -5 15s1 8.33398 3 11.001c7.33301 10.667 17.666 13.667 30.999 9l50 -14v114h-114l14 -50c4.66699 -13.333 1.66699 -23.666 -9 -30.999c-2.66699 -2 -6.33398 -3 -11.001 -3s-9.66699 1.66699 -15 5l-176 133l176 130
c5.33301 4 10.333 6 15 6s8.33398 -1 11.001 -3c10.667 -6.66699 13.667 -16.667 9 -30l-14 -51h114v116l-50 -14c-13.333 -4.66699 -23.666 -1.66699 -30.999 9c-2 2.66699 -3 6.33398 -3 11.001s1.66699 9.66699 5 15l133 176l130 -176c4 -5.33301 6 -10.333 6 -15
s-1 -8.33398 -3 -11.001c-6.66699 -10.667 -16.667 -13.667 -30 -9l-51 14v-116h116l-14 51c-4.66699 13.333 -1.66699 23.333 9 30c2.66699 2 6.33398 3 11.001 3s9.66699 -2 15 -6l176 -130z" />
    <glyph glyph-name="minus" unicode="&#x2212;" 
d="M574 217c-5.33301 -3.33301 -10.333 -5 -15 -5s-8.33398 1 -11.001 3c-10.667 7.33301 -13.667 17.666 -9 30.999l14 50h-116v-114l51 14c13.333 4.66699 23.333 1.66699 30 -9c2 -2.66699 3 -6.33398 3 -11.001s-2 -9.66699 -6 -15l-130 -176l-133 176
c-3.33301 5.33301 -5 10.333 -5 15s1 8.33398 3 11.001c7.33301 10.667 17.666 13.667 30.999 9l50 -14v114h-114l14 -50c4.66699 -13.333 1.66699 -23.666 -9 -30.999c-2.66699 -2 -6.33398 -3 -11.001 -3s-9.66699 1.66699 -15 5l-176 133l176 130
c5.33301 4 10.333 6 15 6s8.33398 -1 11.001 -3c10.667 -6.66699 13.667 -16.667 9 -30l-14 -51h114v116l-50 -14c-13.333 -4.66699 -23.666 -1.66699 -30.999 9c-2 2.66699 -3 6.33398 -3 11.001s1.66699 9.66699 5 15l133 176l130 -176c4 -5.33301 6 -10.333 6 -15
s-1 -8.33398 -3 -11.001c-6.66699 -10.667 -16.667 -13.667 -30 -9l-51 14v-116h116l-14 51c-4.66699 13.333 -1.66699 23.333 9 30c2.66699 2 6.33398 3 11.001 3s9.66699 -2 15 -6l176 -130z" />
    <glyph glyph-name="radical" unicode="&#x221a;" horiz-adv-x="524" 
d="M278 0h-132.999l-123 340h127l29 -98l18.5 -66c6.33301 -23.333 11.166 -43.333 14.499 -60c4.66699 18.667 10.5 40 17.5 64l19.5 66l138 454h123z" />
    <glyph glyph-name="infinity" unicode="&#x221e;" 
d="M574 217c-5.33301 -3.33301 -10.333 -5 -15 -5s-8.33398 1 -11.001 3c-10.667 7.33301 -13.667 17.666 -9 30.999l14 50h-116v-114l51 14c13.333 4.66699 23.333 1.66699 30 -9c2 -2.66699 3 -6.33398 3 -11.001s-2 -9.66699 -6 -15l-130 -176l-133 176
c-3.33301 5.33301 -5 10.333 -5 15s1 8.33398 3 11.001c7.33301 10.667 17.666 13.667 30.999 9l50 -14v114h-114l14 -50c4.66699 -13.333 1.66699 -23.666 -9 -30.999c-2.66699 -2 -6.33398 -3 -11.001 -3s-9.66699 1.66699 -15 5l-176 133l176 130
c5.33301 4 10.333 6 15 6s8.33398 -1 11.001 -3c10.667 -6.66699 13.667 -16.667 9 -30l-14 -51h114v116l-50 -14c-13.333 -4.66699 -23.666 -1.66699 -30.999 9c-2 2.66699 -3 6.33398 -3 11.001s1.66699 9.66699 5 15l133 176l130 -176c4 -5.33301 6 -10.333 6 -15
s-1 -8.33398 -3 -11.001c-6.66699 -10.667 -16.667 -13.667 -30 -9l-51 14v-116h116l-14 51c-4.66699 13.333 -1.66699 23.333 9 30c2.66699 2 6.33398 3 11.001 3s9.66699 -2 15 -6l176 -130z" />
    <glyph glyph-name="integral" unicode="&#x222b;" horiz-adv-x="464" 
d="M291 0l-0.00390625 36.001c-13.333 -14 -28.666 -25.333 -45.999 -34s-35.666 -13 -54.999 -13c-49.333 0 -87.166 22.167 -113.499 66.5s-39.5 113.166 -39.5 206.499c0 40 3.16699 76.833 9.5 110.5s16 62.5 29 86.5s29.833 42.833 50.5 56.5s45.334 20.5 74.001 20.5
c17.333 0 34 -3.66699 50 -11s29.667 -17 41 -29v29h118v-525h-118zM290.996 381.001c-8 11.333 -18.3311 21.665 -30.998 30.998s-27.334 14 -44.001 14c-10.667 0 -19.667 -2.66699 -27 -8s-13.333 -14.166 -18 -26.499s-8.16699 -28.666 -10.5 -48.999
s-3.5 -45.833 -3.5 -76.5c0 -58 4 -100.333 12 -127s24.333 -40 49 -40c14.667 0 28.667 4.66699 42 14s23.666 19.333 30.999 30v238z" />
    <glyph glyph-name="approxequal" unicode="&#x2248;" horiz-adv-x="408" 
d="M353 210c2 -3.33301 3.16797 -7.5 3.50098 -12.5s-1.83398 -10.5 -6.50098 -16.5l-145 -196l-148 196c-3.33301 6 -5 11.5 -5 16.5s1 9.16699 3 12.5c8 11.333 19.667 14.666 35 9.99902l55 -16v496h118v-496l57 16c14.667 4.66699 25.667 1.33398 33 -9.99902z" />
    <glyph glyph-name="notequal" unicode="&#x2260;" 
d="M574 217c-5.33301 -3.33301 -10.333 -5 -15 -5s-8.33398 1 -11.001 3c-10.667 7.33301 -13.667 17.666 -9 30.999l14 50h-116v-114l51 14c13.333 4.66699 23.333 1.66699 30 -9c2 -2.66699 3 -6.33398 3 -11.001s-2 -9.66699 -6 -15l-130 -176l-133 176
c-3.33301 5.33301 -5 10.333 -5 15s1 8.33398 3 11.001c7.33301 10.667 17.666 13.667 30.999 9l50 -14v114h-114l14 -50c4.66699 -13.333 1.66699 -23.666 -9 -30.999c-2.66699 -2 -6.33398 -3 -11.001 -3s-9.66699 1.66699 -15 5l-176 133l176 130
c5.33301 4 10.333 6 15 6s8.33398 -1 11.001 -3c10.667 -6.66699 13.667 -16.667 9 -30l-14 -51h114v116l-50 -14c-13.333 -4.66699 -23.666 -1.66699 -30.999 9c-2 2.66699 -3 6.33398 -3 11.001s1.66699 9.66699 5 15l133 176l130 -176c4 -5.33301 6 -10.333 6 -15
s-1 -8.33398 -3 -11.001c-6.66699 -10.667 -16.667 -13.667 -30 -9l-51 14v-116h116l-14 51c-4.66699 13.333 -1.66699 23.333 9 30c2.66699 2 6.33398 3 11.001 3s9.66699 -2 15 -6l176 -130z" />
    <glyph glyph-name="lessequal" unicode="&#x2264;" 
d="M574 217c-5.33301 -3.33301 -10.333 -5 -15 -5s-8.33398 1 -11.001 3c-10.667 7.33301 -13.667 17.666 -9 30.999l14 50h-116v-114l51 14c13.333 4.66699 23.333 1.66699 30 -9c2 -2.66699 3 -6.33398 3 -11.001s-2 -9.66699 -6 -15l-130 -176l-133 176
c-3.33301 5.33301 -5 10.333 -5 15s1 8.33398 3 11.001c7.33301 10.667 17.666 13.667 30.999 9l50 -14v114h-114l14 -50c4.66699 -13.333 1.66699 -23.666 -9 -30.999c-2.66699 -2 -6.33398 -3 -11.001 -3s-9.66699 1.66699 -15 5l-176 133l176 130
c5.33301 4 10.333 6 15 6s8.33398 -1 11.001 -3c10.667 -6.66699 13.667 -16.667 9 -30l-14 -51h114v116l-50 -14c-13.333 -4.66699 -23.666 -1.66699 -30.999 9c-2 2.66699 -3 6.33398 -3 11.001s1.66699 9.66699 5 15l133 176l130 -176c4 -5.33301 6 -10.333 6 -15
s-1 -8.33398 -3 -11.001c-6.66699 -10.667 -16.667 -13.667 -30 -9l-51 14v-116h116l-14 51c-4.66699 13.333 -1.66699 23.333 9 30c2.66699 2 6.33398 3 11.001 3s9.66699 -2 15 -6l176 -130z" />
    <glyph glyph-name="greaterequal" unicode="&#x2265;" 
d="M574 217c-5.33301 -3.33301 -10.333 -5 -15 -5s-8.33398 1 -11.001 3c-10.667 7.33301 -13.667 17.666 -9 30.999l14 50h-116v-114l51 14c13.333 4.66699 23.333 1.66699 30 -9c2 -2.66699 3 -6.33398 3 -11.001s-2 -9.66699 -6 -15l-130 -176l-133 176
c-3.33301 5.33301 -5 10.333 -5 15s1 8.33398 3 11.001c7.33301 10.667 17.666 13.667 30.999 9l50 -14v114h-114l14 -50c4.66699 -13.333 1.66699 -23.666 -9 -30.999c-2.66699 -2 -6.33398 -3 -11.001 -3s-9.66699 1.66699 -15 5l-176 133l176 130
c5.33301 4 10.333 6 15 6s8.33398 -1 11.001 -3c10.667 -6.66699 13.667 -16.667 9 -30l-14 -51h114v116l-50 -14c-13.333 -4.66699 -23.666 -1.66699 -30.999 9c-2 2.66699 -3 6.33398 -3 11.001s1.66699 9.66699 5 15l133 176l130 -176c4 -5.33301 6 -10.333 6 -15
s-1 -8.33398 -3 -11.001c-6.66699 -10.667 -16.667 -13.667 -30 -9l-51 14v-116h116l-14 51c-4.66699 13.333 -1.66699 23.333 9 30c2.66699 2 6.33398 3 11.001 3s9.66699 -2 15 -6l176 -130z" />
    <glyph glyph-name="lozenge" unicode="&#x25ca;" 
d="M574 217c-5.33301 -3.33301 -10.333 -5 -15 -5s-8.33398 1 -11.001 3c-10.667 7.33301 -13.667 17.666 -9 30.999l14 50h-116v-114l51 14c13.333 4.66699 23.333 1.66699 30 -9c2 -2.66699 3 -6.33398 3 -11.001s-2 -9.66699 -6 -15l-130 -176l-133 176
c-3.33301 5.33301 -5 10.333 -5 15s1 8.33398 3 11.001c7.33301 10.667 17.666 13.667 30.999 9l50 -14v114h-114l14 -50c4.66699 -13.333 1.66699 -23.666 -9 -30.999c-2.66699 -2 -6.33398 -3 -11.001 -3s-9.66699 1.66699 -15 5l-176 133l176 130
c5.33301 4 10.333 6 15 6s8.33398 -1 11.001 -3c10.667 -6.66699 13.667 -16.667 9 -30l-14 -51h114v116l-50 -14c-13.333 -4.66699 -23.666 -1.66699 -30.999 9c-2 2.66699 -3 6.33398 -3 11.001s1.66699 9.66699 5 15l133 176l130 -176c4 -5.33301 6 -10.333 6 -15
s-1 -8.33398 -3 -11.001c-6.66699 -10.667 -16.667 -13.667 -30 -9l-51 14v-116h116l-14 51c-4.66699 13.333 -1.66699 23.333 9 30c2.66699 2 6.33398 3 11.001 3s9.66699 -2 15 -6l176 -130z" />
    <glyph glyph-name="fi" unicode="&#xfb01;" horiz-adv-x="548" 
d="M504 651c0 -20.667 -7.33301 -38.334 -22 -53.001s-32.334 -22 -53.001 -22s-38.334 7.33301 -53.001 22s-22 32.334 -22 53.001s7.33301 38.334 22 53.001s32.334 22 53.001 22s38.334 -7.33301 53.001 -22s22 -32.334 22 -53.001zM300 609
c-7.33301 3.33301 -15.1699 5.83105 -23.5029 7.49805s-18.166 2.5 -29.499 2.5c-16.667 0 -28.5 -3.66699 -35.5 -11s-10.5 -20.666 -10.5 -39.999v-43h84v-112h-84v-413h-118v413h-53v112h53v63c0 24 3.33301 44.833 10 62.5s15.834 32 27.501 43s25.167 19.167 40.5 24.5
s32 8 50 8c20.667 0 37.834 -1.16699 51.501 -3.5s26.167 -6.16602 37.5 -11.499v-102zM369.996 -0.00195312v525h118v-525h-118z" />
    <glyph glyph-name="fl" unicode="&#xfb02;" horiz-adv-x="548" 
d="M370 0v670l118 59v-729h-118zM300 609c-7.33301 3.33301 -15.1699 5.83105 -23.5029 7.49805s-18.166 2.5 -29.499 2.5c-16.667 0 -28.5 -3.66699 -35.5 -11s-10.5 -20.666 -10.5 -39.999v-43h84v-112h-84v-413h-118v413h-53v112h53v63c0 24 3.33301 44.833 10 62.5
s15.834 32 27.501 43s25.167 19.167 40.5 24.5s32 8 50 8c20.667 0 37.834 -1.16699 51.501 -3.5s26.167 -6.16602 37.5 -11.499v-102z" />
    <glyph glyph-name="NUL" horiz-adv-x="0" 
 />
    <glyph glyph-name="apple" 
d="M574 217c-5.33301 -3.33301 -10.333 -5 -15 -5s-8.33398 1 -11.001 3c-10.667 7.33301 -13.667 17.666 -9 30.999l14 50h-116v-114l51 14c13.333 4.66699 23.333 1.66699 30 -9c2 -2.66699 3 -6.33398 3 -11.001s-2 -9.66699 -6 -15l-130 -176l-133 176
c-3.33301 5.33301 -5 10.333 -5 15s1 8.33398 3 11.001c7.33301 10.667 17.666 13.667 30.999 9l50 -14v114h-114l14 -50c4.66699 -13.333 1.66699 -23.666 -9 -30.999c-2.66699 -2 -6.33398 -3 -11.001 -3s-9.66699 1.66699 -15 5l-176 133l176 130
c5.33301 4 10.333 6 15 6s8.33398 -1 11.001 -3c10.667 -6.66699 13.667 -16.667 9 -30l-14 -51h114v116l-50 -14c-13.333 -4.66699 -23.666 -1.66699 -30.999 9c-2 2.66699 -3 6.33398 -3 11.001s1.66699 9.66699 5 15l133 176l130 -176c4 -5.33301 6 -10.333 6 -15
s-1 -8.33398 -3 -11.001c-6.66699 -10.667 -16.667 -13.667 -30 -9l-51 14v-116h116l-14 51c-4.66699 13.333 -1.66699 23.333 9 30c2.66699 2 6.33398 3 11.001 3s9.66699 -2 15 -6l176 -130z" />
  </font>
</defs>
</svg>
