<?xml version="1.0" encoding="UTF-8"?><svg xmlns="http://www.w3.org/2000/svg" width="100%" height="100%"><defs><font id="web" horiz-adv-x="1245"><!--



NOTICE: This font software is the valuable property 
of Webtype LLC, The Font Bureau, Webtype and/or its 
suppliers and its use by you is covered under the terms 
of the Web Font license agreement between you and Webtype 
LLC. You may ONLY use this font software with the licensed 
web site. Except as specifically permitted by the license, 
you may not copy this font software. If you have any 
questions, please contact Webtype.com. 

For more information, please visit http://www.webtype.com/store/license/?id=23

Licensed to: mazdausa.com

Serial number: SH-1162
--><font-face font-family="" units-per-em="2048" panose-1="2 0 5 3 4 0 0 2 0 4" ascent="1892" descent="-432" alphabetic="0"/><missing-glyph horiz-adv-x="676"/><glyph unicode=" " horiz-adv-x="676"/><glyph unicode="!" horiz-adv-x="717" d="M561 922L494 512H223L156 922V1434H561V922ZM571 190Q571 98 510 38T358 -23Q268 -23 207 37T145 190Q145 280 205 339T358 399Q451 399 511 340T571 190Z"/><glyph unicode="&quot;" horiz-adv-x="1270" d="M1153 1434L1073 764H797L717 1434H1153ZM553 1434L473 764H197L117 1434H553Z"/><glyph unicode="#" horiz-adv-x="1638" d="M1536 250H1321V0H948V250H690V0H317V250H102V563H317V870H102V1184H317V1434H690V1184H948V1434H1321V1184H1536V870H1321V563H1536V250ZM971 537V897H668V537H971Z"/><glyph unicode="$" horiz-adv-x="1354" d="M1266 440Q1266 261 1169 152T879 6V-205H494V2Q257 40 70 162L262 463Q350 402 471 361T682 319Q784 319 826 339T868 412Q868 453 817 481T625 543Q414 592 311 648T161 789T113 1004Q113 1166 213 1277T494 1427V1638H879V1430Q1083 1398 1249 1280L1057 979Q858 1114 657 1114Q581 1114 546 1093T510 1026Q510 987 557 962T745 905Q1037 836 1151 732T1266 440Z"/><glyph unicode="%" horiz-adv-x="2212" d="M909 1012Q909 802 794 683T483 563Q288 563 175 681T61 1008Q61 1216 176 1336T487 1456Q683 1456 796 1338T909 1012ZM1702 1434L823 0H510L1389 1434H1702ZM2150 426Q2150 216 2035 97T1724 -23Q1528 -23 1416 96T1303 422Q1303 629 1417 749T1729 870Q1926 870 2038 751T2150 426ZM608 1008Q608 1129 580 1181T485 1233Q417 1233 390 1185T362 1012Q362 889 391 838T487 786Q553 786 580 835T608 1008ZM1849 422Q1849 543 1821 595T1726 647Q1659 647 1632 599T1604 426Q1604 303 1633 252T1729 201Q1795 201 1822 250T1849 422Z"/><glyph unicode="&amp;" horiz-adv-x="1479" d="M1483 0H1034L932 117Q735 -23 485 -23Q278 -23 166 78T53 365Q53 482 129 588T352 776L340 791Q211 934 211 1071Q211 1253 344 1354T705 1456Q841 1456 953 1425T1184 1325L1022 1030Q942 1075 867 1100T700 1126Q652 1126 626 1109T600 1065Q600 1036 611 1014T647 965L954 608Q1011 702 1081 834L1380 678Q1259 475 1171 358L1483 0ZM735 340L535 567Q428 494 428 414Q428 350 467 322T584 293Q665 293 735 340Z"/><glyph unicode="'" horiz-adv-x="702" d="M575 1434L496 764H207L127 1434H575Z"/><glyph unicode="(" horiz-adv-x="881" d="M766 -68L502 -225Q302 1 211 208T119 621Q119 834 209 1042T502 1479L766 1321Q639 1126 589 970T539 631Q539 442 588 286T766 -68Z"/><glyph unicode=")" horiz-adv-x="881" d="M762 633Q762 420 672 212T379 -225L115 -68Q246 137 294 289T342 623Q342 808 294 962T115 1321L379 1479Q579 1253 670 1046T762 633Z"/><glyph unicode="*" horiz-adv-x="1126" d="M1065 813L920 565L647 788L705 442H422L477 793L205 571L61 815L410 938L61 1063L205 1311L477 1085L422 1434H705L647 1087L920 1313L1065 1067L711 940L1065 813Z"/><glyph unicode="+" horiz-adv-x="1323" d="M1210 528H848V150H475V528H113V881H475V1260H848V881H1210V528Z"/><glyph unicode="," horiz-adv-x="643" d="M565 428L369 -254H117L145 428H565Z"/><glyph unicode="-" horiz-adv-x="991" d="M852 541H139V926H852V541Z"/><glyph unicode="." horiz-adv-x="643" d="M557 213Q557 110 490 44T322 -23Q221 -23 154 44T86 213Q86 313 152 378T322 444Q425 444 491 379T557 213Z"/><glyph unicode="/" horiz-adv-x="1044" d="M1077 1618L356 -184H-33L688 1618H1077Z"/><glyph unicode="0" horiz-adv-x="1466" d="M1382 719Q1382 495 1301 327T1072 68T731 -23Q538 -23 391 66T164 322T84 715Q84 939 165 1108T395 1366T735 1456Q928 1456 1075 1367T1302 1111T1382 719ZM975 715Q975 913 911 1013T731 1114Q616 1114 554 1016T492 719Q492 521 556 420T735 319Q851 319 913 418T975 715Z"/><glyph unicode="1" horiz-adv-x="862" d="M713 0H324V987H82V1239Q220 1247 285 1290T381 1434H713V0Z"/><glyph unicode="2" horiz-adv-x="1434" d="M1280 0H109Q114 217 180 381T371 665T707 877Q783 910 818 931T867 971T881 1024Q881 1072 845 1097T721 1122Q513 1122 295 977L113 1270Q269 1369 417 1412T727 1456Q994 1456 1132 1352T1270 1053Q1270 944 1238 873T1133 743T930 623Q752 540 657 472T532 324H1280V0Z"/><glyph unicode="3" horiz-adv-x="1403" d="M1311 455Q1311 219 1151 98T682 -23Q498 -23 346 35T78 197L283 455Q477 305 690 305Q815 305 870 340T926 451Q926 526 879 557T723 588H516V897H700Q797 897 831 923T866 1018Q866 1075 820 1105T668 1135Q563 1135 479 1104T311 1012L123 1270Q252 1368 386 1412T678 1456Q968 1456 1109 1353T1251 1044Q1251 952 1207 883T1061 764Q1180 735 1245 654T1311 455Z"/><glyph unicode="4" horiz-adv-x="1518" d="M1434 246H1249V0H893V256H84V547L856 1434H1249V582H1434V246ZM899 1032Q838 942 735 819T592 652T518 575Q612 582 786 582H893V723Q893 957 899 1032Z"/><glyph unicode="5" horiz-adv-x="1456" d="M1350 500Q1350 252 1182 115T705 -23Q544 -23 395 17T92 152L254 449Q362 384 484 346T715 307Q842 307 904 351T967 489Q967 573 917 615T774 657Q698 657 639 640T510 575L170 690L219 1434H1264V1110H541L528 911Q656 975 838 975Q1082 975 1216 852T1350 500Z"/><glyph unicode="6" horiz-adv-x="1425" d="M1346 494Q1346 254 1174 116T692 -23Q408 -23 245 132T82 571Q82 762 159 931T372 1216T705 1394T1151 1456V1130Q902 1130 734 1064T471 854Q551 899 640 918T840 938Q1079 938 1212 822T1346 494ZM963 467Q963 551 899 598T721 645Q588 645 525 598T461 465Q461 382 525 337T713 291Q828 291 895 337T963 467Z"/><glyph unicode="7" horiz-adv-x="1417" d="M1286 1147Q1096 973 989 811T834 465T786 0H397Q399 357 500 625T813 1110H100V1434H1286V1147Z"/><glyph unicode="8" horiz-adv-x="1495" d="M1401 446Q1401 228 1224 103T745 -23Q445 -23 270 102T94 446Q94 551 152 635T317 762Q237 810 197 879T156 1030Q156 1228 317 1342T750 1456Q1020 1456 1179 1342T1339 1030Q1339 865 1178 766Q1285 722 1343 636T1401 446ZM958 1024Q958 1089 903 1128T745 1167Q644 1167 591 1129T537 1024Q537 959 593 923T750 887Q847 887 902 921T958 1024ZM1020 451Q1020 530 946 575T745 621Q619 621 547 577T475 451Q475 372 549 326T750 279Q878 279 949 325T1020 451Z"/><glyph unicode="9" horiz-adv-x="1425" d="M1343 862Q1343 599 1207 392T834 81T274 -23V303Q525 303 692 370T954 580Q874 534 785 515T586 496Q347 496 214 612T80 940Q80 1182 254 1319T733 1456Q1018 1456 1180 1301T1343 862ZM965 969Q965 1052 900 1097T713 1143Q597 1143 530 1096T463 967Q463 883 526 836T705 788Q838 788 901 836T965 969Z"/><glyph unicode=":" horiz-adv-x="643" d="M551 872Q551 774 486 709T322 643Q223 643 158 708T92 872Q92 969 157 1033T322 1098Q420 1098 485 1034T551 872ZM551 207Q551 110 486 44T322 -23Q222 -23 157 43T92 207Q92 304 156 368T322 432Q422 432 486 368T551 207Z"/><glyph unicode=";" horiz-adv-x="643" d="M551 872Q551 774 486 709T322 643Q223 643 158 707T92 872Q92 971 155 1034T322 1098Q422 1098 486 1034T551 872ZM532 418L340 -248H96L123 418H532Z"/><glyph unicode="&lt;" horiz-adv-x="1055" d="M930 -23L117 582V852L930 1456V977L530 721L930 465V-23Z"/><glyph unicode="=" horiz-adv-x="1323" d="M1159 799H164V1171H1159V799ZM1159 238H164V610H1159V238Z"/><glyph unicode="&gt;" horiz-adv-x="1055" d="M938 582L125 -23V457L524 713L125 969V1456L938 852V582Z"/><glyph unicode="?" horiz-adv-x="1233" d="M1169 1063Q1169 947 1112 870T915 725Q829 684 792 634T754 512H387Q387 656 447 742T653 897Q717 928 748 954T780 1024Q780 1122 621 1122Q428 1122 225 987L43 1280Q316 1456 627 1456Q887 1456 1028 1355T1169 1063ZM780 190Q780 98 719 38T567 -23Q477 -23 416 37T354 190Q354 280 414 339T567 399Q660 399 720 340T780 190Z"/><glyph unicode="@" horiz-adv-x="1712" d="M1595 737Q1595 313 1294 313Q1147 313 1063 414Q992 367 917 342T745 317Q625 317 559 390T492 588Q492 710 568 777T774 844Q893 844 969 805V860Q969 911 937 931T838 952Q723 952 606 899L539 1063Q691 1135 877 1135Q1033 1135 1112 1062T1192 844V588Q1192 523 1217 488T1305 453Q1383 453 1413 523T1444 739Q1444 898 1368 1030T1156 1236T856 1311Q687 1311 553 1236T343 1024T268 719Q268 547 342 411T552 199T856 123Q1004 123 1116 178L1174 45Q1012 -23 856 -23Q650 -23 479 75T213 344T117 717Q117 921 215 1092T482 1359T856 1456Q1059 1456 1228 1361T1496 1099T1595 737ZM969 535V657Q905 686 823 686Q768 686 739 662T709 592Q709 550 736 523T823 496Q853 496 896 507T969 535Z"/><glyph unicode="A" horiz-adv-x="1561" d="M1501 0H1071L993 252H563L485 0H59L580 1434H981L1501 0ZM897 567Q799 911 778 1020Q767 966 753 907T659 567H897Z"/><glyph unicode="B" horiz-adv-x="1468" d="M1372 463Q1372 238 1235 119T834 0H145V1434H838Q1090 1434 1214 1343T1339 1061Q1339 966 1302 902T1167 780Q1372 691 1372 463ZM950 1008Q950 1120 825 1120H526V895H825Q950 895 950 1008ZM983 455Q983 518 948 555T842 592H526V313H840Q913 313 948 353T983 455Z"/><glyph unicode="C" horiz-adv-x="1405" d="M1335 348Q1237 155 1090 66T739 -23Q539 -23 391 68T165 327T86 717Q86 939 167 1106T397 1365T741 1456Q900 1456 1011 1414T1197 1284T1331 1034L971 893Q923 1018 872 1064T739 1110Q625 1110 564 1008T502 717Q502 531 564 428T743 324Q822 324 875 364T999 526L1335 348Z"/><glyph unicode="D" horiz-adv-x="1479" d="M1384 725Q1384 347 1202 174T610 0H145V1434H647Q1031 1434 1207 1261T1384 725ZM977 719Q977 924 901 1009T645 1094H547V340H633Q825 340 901 425T977 719Z"/><glyph unicode="E" horiz-adv-x="1366" d="M1257 0H145V1434H1243V1100H539V909H963V580H539V334H1257V0Z"/><glyph unicode="F" horiz-adv-x="1348" d="M1280 1096H541V897H989V561H541V0H145V1434H1280V1096Z"/><glyph unicode="G" horiz-adv-x="1477" d="M1389 612Q1389 307 1225 142T748 -23Q548 -23 398 66T167 323T86 717Q86 938 166 1105T398 1364T754 1456Q919 1456 1030 1417T1217 1296T1354 1055L993 913Q949 1025 894 1067T752 1110Q502 1110 502 717Q502 508 569 411T778 313Q887 313 945 357T1018 489H758V786H1389V612Z"/><glyph unicode="H" horiz-adv-x="1548" d="M1403 0H997V565H551V0H145V1434H551V911H997V1434H1403V0Z"/><glyph unicode="I" horiz-adv-x="717" d="M561 0H156V1434H561V0Z"/><glyph unicode="J" horiz-adv-x="1413" d="M1274 584Q1274 291 1120 134T672 -23Q415 -23 263 97T47 473L436 575Q477 436 531 382T678 328Q774 328 821 389T868 553V1434H1274V584Z"/><glyph unicode="K" horiz-adv-x="1503" d="M1468 0H997L698 610L551 432V0H145V1434H551V1266Q551 1069 545 911Q574 959 647 1059T936 1434H1419L987 928L1468 0Z"/><glyph unicode="L" horiz-adv-x="1260" d="M1182 0H145V1434H547V346H1182V0Z"/><glyph unicode="M" horiz-adv-x="1729" d="M1583 0H1210V342Q1210 572 1219 723Q1194 661 1149 559T864 -49Q718 258 637 432T510 723Q518 589 518 342V0H145V1434H510L686 1051Q845 698 866 618Q908 755 1047 1051L1223 1434H1583V0Z"/><glyph unicode="N" horiz-adv-x="1548" d="M1403 0H1079L737 473Q690 537 615 651T514 809Q526 737 526 438V0H145V1434H496L811 1010Q854 953 933 835T1034 672Q1022 744 1022 1042V1434H1403V0Z"/><glyph unicode="O" horiz-adv-x="1499" d="M1413 719Q1413 492 1332 324T1099 67T748 -23Q548 -23 398 65T167 320T86 715Q86 942 167 1110T401 1367T752 1456Q952 1456 1102 1368T1332 1113T1413 719ZM1001 715Q1001 910 935 1010T748 1110Q627 1110 563 1012T498 719Q498 524 564 424T752 324Q872 324 936 422T1001 715Z"/><glyph unicode="P" horiz-adv-x="1391" d="M1321 958Q1321 465 735 465H537V0H145V1434H762Q1321 1434 1321 958ZM926 952Q926 1110 752 1110H537V788H745Q842 788 884 829T926 952Z"/><glyph unicode="Q" horiz-adv-x="1499" d="M1413 719Q1413 409 1229 199L1346 47L1077 -129L973 18Q862 -23 748 -23Q548 -23 398 65T167 320T86 715Q86 942 167 1110T401 1367T752 1456Q952 1456 1102 1368T1332 1113T1413 719ZM1018 715Q1018 898 946 1004T748 1110Q627 1110 563 1012T498 719Q498 515 563 409T752 303H770L647 465L911 637L999 510Q1018 590 1018 715Z"/><glyph unicode="R" horiz-adv-x="1466" d="M1374 0H930L696 483H537V0H145V1434H786Q1068 1434 1207 1316T1346 967Q1346 666 1087 547L1374 0ZM950 956Q950 1034 905 1072T776 1110H537V797H770Q867 797 908 838T950 956Z"/><glyph unicode="S" horiz-adv-x="1391" d="M1286 440Q1286 215 1133 96T694 -23Q535 -23 375 23T90 152L283 463Q372 401 492 360T702 319Q807 319 848 340T889 412Q889 453 838 481T645 543Q434 592 331 648T181 789T133 1004Q133 1138 202 1241T401 1400T698 1456Q866 1456 1005 1417T1270 1290L1077 979Q878 1114 678 1114Q601 1114 566 1093T530 1026Q530 987 577 963T766 905Q1056 836 1171 732T1286 440Z"/><glyph unicode="T" horiz-adv-x="1372" d="M1286 1087H885V0H487V1087H86V1434H1286V1087Z"/><glyph unicode="U" horiz-adv-x="1532" d="M1395 612Q1395 307 1232 142T762 -23Q457 -23 297 141T137 612V1434H543V612Q543 480 597 404T768 328Q989 328 989 612V1434H1395V612Z"/><glyph unicode="V" horiz-adv-x="1507" d="M1448 1434L954 0H553L59 1434H506L610 1049Q657 875 700 693T756 442Q774 538 820 731T1006 1434H1448Z"/><glyph unicode="W" horiz-adv-x="1896" d="M1819 1434L1477 0H1110L1044 311Q1017 434 985 625T946 905Q939 816 908 630T848 311L782 0H420L78 1434H487Q560 986 582 827T612 571Q620 658 648 820T768 1434H1133Q1230 957 1254 813T1288 571Q1298 675 1319 833T1413 1434H1819Z"/><glyph unicode="X" horiz-adv-x="1499" d="M1440 0H979L883 166Q789 329 745 430Q727 387 701 336T510 0H59L528 725L76 1434H537Q633 1264 687 1169T754 1032Q777 1085 812 1149T973 1434H1423L971 733L1440 0Z"/><glyph unicode="Y" horiz-adv-x="1528" d="M1495 1434L965 535V0H563V528L33 1434H492Q655 1112 700 1010T766 846Q778 883 800 937T855 1063T1040 1434H1495Z"/><glyph unicode="Z" horiz-adv-x="1454" d="M1311 0H135V285L555 797Q693 960 838 1116Q712 1110 412 1110H176V1434H1307V1149L887 637Q773 499 604 317Q751 324 1030 324H1311V0Z"/><glyph unicode="[" horiz-adv-x="948" d="M786 -225H162V1434H786V1133H532V76H786V-225Z"/><glyph unicode="\" horiz-adv-x="1044" d="M1077 -184H688L-33 1618H356L1077 -184Z"/><glyph unicode="]" horiz-adv-x="948" d="M786 -225H162V76H416V1133H162V1434H786V-225Z"/><glyph unicode="^" horiz-adv-x="1270" d="M1219 741H834L633 1116L432 741H51L471 1434H799L1219 741Z"/><glyph unicode="_" horiz-adv-x="1024" d="M1024 -406H0V-125H1024V-406Z"/><glyph unicode="`" horiz-adv-x="1024" d="M770 1219H508L186 1546H623L770 1219Z"/><glyph unicode="a" horiz-adv-x="1143" d="M1036 0H688V72Q565 -23 426 -23Q262 -23 170 75T78 348Q78 513 181 605T465 698Q587 698 688 653V707Q688 778 650 806T537 834Q450 834 383 816T238 756L141 999Q345 1098 604 1098Q817 1098 926 998T1036 698V0ZM688 291V438Q619 469 530 469Q416 469 416 354Q416 304 443 271T530 238Q577 238 619 253T688 291Z"/><glyph unicode="b" horiz-adv-x="1171" d="M1096 541Q1096 261 1001 119T723 -23Q664 -23 608 -2T483 72V0H115V1346L483 1493V999Q554 1055 611 1076T737 1098Q909 1098 1002 954T1096 541ZM731 528Q731 670 706 732T614 795Q549 795 483 743V332Q512 309 542 295T616 281Q682 281 706 340T731 528Z"/><glyph unicode="c" horiz-adv-x="1065" d="M1008 233Q913 94 816 36T575 -23Q334 -23 203 125T72 541Q72 805 207 951T584 1098Q719 1098 818 1040T997 852L743 659Q699 742 664 770T578 799Q436 799 436 535Q436 276 588 276Q641 276 682 308T774 416L1008 233Z"/><glyph unicode="d" horiz-adv-x="1171" d="M1057 0H686V76Q618 20 559 -1T432 -23Q261 -23 169 121T76 535Q76 812 169 955T446 1098Q505 1098 561 1077T686 1004V1346L1057 1493V0ZM686 332V743Q658 766 628 780T555 795Q490 795 464 739T438 547Q438 402 464 342T557 281Q624 281 686 332Z"/><glyph unicode="e" horiz-adv-x="1114" d="M1042 504V464L1040 432H410Q419 342 468 301T592 260Q663 260 725 277T870 336L1012 100Q800 -23 573 -23Q339 -23 206 128T72 537Q72 798 203 948T563 1098Q795 1098 918 945T1042 504ZM717 662Q701 754 664 789T553 825Q428 825 410 662H717Z"/><glyph unicode="f" horiz-adv-x="784" d="M725 1204Q677 1227 618 1227Q576 1227 561 1212T545 1159V1075H711V786H551V0H188V786H74V1075H188V1180Q188 1344 261 1415T492 1487Q640 1487 725 1442V1204Z"/><glyph unicode="g" horiz-adv-x="1171" d="M1057 162Q1057 -15 1002 -126T829 -301T496 -395L360 -182Q503 -159 567 -134T659 -68T686 49V86Q612 29 555 9T432 -12Q257 -12 167 129T76 535Q76 812 169 955T446 1098Q505 1098 561 1077T686 1004V1075H1057V162ZM686 332V743Q658 766 628 780T555 795Q490 795 464 739T438 547Q438 402 464 342T557 281Q624 281 686 332Z"/><glyph unicode="h" horiz-adv-x="1208" d="M1102 0H731V610Q731 704 702 745T608 786Q541 786 512 745T483 614V0H115V1346L483 1493V1004Q549 1054 612 1076T754 1098Q930 1098 1016 984T1102 657V0Z"/><glyph unicode="i" horiz-adv-x="618" d="M524 1335Q524 1253 466 1203T309 1153Q213 1153 156 1204T98 1335Q98 1412 156 1462T309 1513Q404 1513 464 1464T524 1335ZM494 0H125V1075H494V0Z"/><glyph unicode="j" horiz-adv-x="618" d="M524 1335Q524 1253 466 1203T309 1153Q213 1153 156 1204T98 1335Q98 1412 156 1462T309 1513Q404 1513 464 1464T524 1335ZM494 102Q494 -137 386 -250T10 -395L-113 -141Q23 -123 74 -76T125 82V1075H494V102Z"/><glyph unicode="k" horiz-adv-x="1176" d="M1139 0H741L580 449L483 326V0H115V1346L483 1493V1055Q483 900 477 750Q519 829 711 1075H1130L852 752L1139 0Z"/><glyph unicode="l" horiz-adv-x="618" d="M494 0H125V1346L494 1493V0Z"/><glyph unicode="m" horiz-adv-x="1802" d="M1696 0H1325V610Q1325 704 1298 745T1208 786Q1143 786 1117 744T1090 614V0H721V610Q721 705 693 745T602 786Q537 786 510 745T483 614V0H115V1075H483V1004Q598 1098 739 1098Q839 1098 910 1068T1036 977Q1115 1042 1188 1070T1350 1098Q1696 1098 1696 657V0Z"/><glyph unicode="n" horiz-adv-x="1208" d="M1102 0H731V610Q731 704 702 745T608 786Q541 786 512 745T483 614V0H115V1075H483V1004Q549 1054 612 1076T754 1098Q930 1098 1016 984T1102 657V0Z"/><glyph unicode="o" horiz-adv-x="1165" d="M1094 539Q1094 274 957 126T582 -23Q344 -23 208 126T72 539Q72 714 134 840T312 1032T582 1098Q819 1098 956 951T1094 539ZM727 539Q727 676 691 737T582 799Q509 799 473 738T436 539Q436 276 582 276Q727 276 727 539Z"/><glyph unicode="p" horiz-adv-x="1171" d="M1096 541Q1096 261 1001 119T723 -23Q664 -23 608 -2T483 72V-248L115 -395V1075H483V999Q554 1055 611 1076T737 1098Q909 1098 1002 954T1096 541ZM731 528Q731 670 706 732T614 795Q549 795 483 743V332Q512 309 542 295T616 281Q682 281 706 340T731 528Z"/><glyph unicode="q" horiz-adv-x="1171" d="M1057 -248L686 -395V76Q618 20 559 -1T432 -23Q261 -23 169 121T76 535Q76 812 169 955T446 1098Q505 1098 561 1077T686 1004V1075H1057V-248ZM686 332V743Q658 766 628 780T555 795Q490 795 464 739T438 547Q438 402 464 342T557 281Q624 281 686 332Z"/><glyph unicode="r" horiz-adv-x="918" d="M887 1053L801 670Q718 760 629 760Q555 760 519 719T483 586V0H115V1075H483V997Q586 1098 713 1098Q815 1098 887 1053Z"/><glyph unicode="s" horiz-adv-x="1071" d="M981 340Q981 162 867 70T537 -23Q312 -23 88 66L174 344Q270 302 371 276T545 250Q599 250 621 262T643 299Q643 326 626 340T557 367Q360 419 273 465T149 574T111 745Q111 917 224 1007T549 1098Q657 1098 749 1081T963 1020L881 735Q676 825 539 825Q485 825 467 814T449 778Q449 751 468 738T555 705Q740 655 823 610T944 501T981 340Z"/><glyph unicode="t" horiz-adv-x="922" d="M821 348L774 35Q654 -23 508 -23Q361 -23 292 58T223 319V786H59V1075H223V1348L582 1493V1075H815V786H582V397Q582 339 602 315T674 291Q711 291 744 305T821 348Z"/><glyph unicode="u" horiz-adv-x="1208" d="M1094 0H723V72Q661 22 597 0T455 -23Q278 -23 192 91T106 418V1075H477V465Q477 373 505 331T600 289Q665 289 694 330T723 461V1075H1094V0Z"/><glyph unicode="v" horiz-adv-x="1169" d="M1139 1075L766 0H403L31 1075H422L518 680Q566 499 584 358Q593 428 613 519T750 1075H1139Z"/><glyph unicode="w" horiz-adv-x="1518" d="M1483 1075L1180 0H881Q822 287 792 455T756 657L741 574Q725 482 703 365T629 0H338L35 1075H391L422 915Q443 805 479 561L492 477Q548 803 575 920L610 1075H913Q986 732 1030 477Q1047 602 1130 1075H1483Z"/><glyph unicode="x" horiz-adv-x="1176" d="M1147 0H745Q616 239 580 324Q520 192 412 0H31L397 561L72 1075H473L513 996Q574 876 596 809Q605 834 617 861T723 1075H1106L776 578L1147 0Z"/><glyph unicode="y" horiz-adv-x="1208" d="M1178 1075L657 -379H305L440 -45L31 1075H422L524 692Q588 451 606 309Q629 459 690 696L791 1075H1178Z"/><glyph unicode="z" horiz-adv-x="1157" d="M1040 0H106V256L342 512Q433 611 606 784Q406 776 330 776H131V1075H1040V819Q756 510 706 458T541 291Q741 299 817 299H1040V0Z"/><glyph unicode="{" horiz-adv-x="1044" d="M934 -225Q604 -225 446 -120T287 203V356Q287 403 257 430T166 457H96V764H166Q226 764 256 790T287 864V1016Q287 1233 446 1338T934 1444V1206Q799 1191 747 1140T694 961V911Q694 813 672 755T605 665T436 610Q560 588 605 556T672 465T694 307V258Q694 168 716 122T789 49T934 12V-225Z"/><glyph unicode="|" horiz-adv-x="664" d="M514 -379H150V1638H514V-379Z"/><glyph unicode="}" horiz-adv-x="1044" d="M948 455H879Q758 455 758 354V203Q758 -14 599 -119T111 -225V12Q249 29 299 80T350 258V307Q350 406 372 464T438 554T608 608Q484 630 439 662T372 753T350 911V961Q350 1087 299 1139T111 1206V1444Q438 1444 598 1339T758 1016V862Q758 762 879 762H948V455Z"/><glyph unicode="~" horiz-adv-x="1192" d="M1100 895Q1017 694 944 616T774 537Q740 537 717 541T672 556T590 602Q515 647 487 660T440 674Q408 674 385 647T315 526L92 625Q175 826 248 904T418 983Q450 983 473 979T517 965T602 918Q675 873 704 860T752 846Q781 846 800 866T877 993L1100 895Z"/><glyph unicode=" " horiz-adv-x="338"/><glyph unicode="¡" horiz-adv-x="717" d="M571 1243Q571 1153 511 1094T358 1034Q265 1034 205 1093T145 1243Q145 1335 206 1395T358 1456Q448 1456 509 1396T571 1243ZM561 0H156V512L223 922H494L561 512V0Z"/><glyph unicode="¢" horiz-adv-x="1065" d="M1008 424Q943 329 879 272T735 190V-23H379V199Q232 251 152 386T72 731Q72 931 151 1067T379 1255V1456H735V1268Q822 1240 884 1182T997 1042L743 850Q697 935 662 962T578 989Q436 989 436 725Q436 467 588 467Q642 467 685 501T774 606L1008 424Z"/><glyph unicode="£" horiz-adv-x="1421" d="M1329 1298L1161 1010Q1062 1076 968 1104T768 1133Q682 1133 644 1102T606 1024Q606 978 637 930Q679 862 700 807H1014V530H719Q694 400 612 303H1296V0H166V240Q250 300 294 367T354 530H166V807H322L279 887Q217 994 217 1090Q217 1267 362 1361T772 1456Q1091 1456 1329 1298Z"/><glyph unicode="¤" horiz-adv-x="1152" d="M1056 392L940 284L740 500Q668 452 572 452Q480 452 408 500L208 284L92 392L300 608Q272 648 262 686T252 780Q252 883 300 952L92 1168L208 1276L408 1060Q480 1108 572 1108Q668 1108 740 1060L944 1276L1060 1156L852 952Q880 912 890 872T900 780Q900 684 848 608L1056 392ZM748 780Q748 860 698 910T572 960Q496 960 448 910T400 780Q400 700 450 652T572 604Q652 604 700 652T748 780Z"/><glyph unicode="¥" horiz-adv-x="1487" d="M1454 1434L934 524V489H1262V193H934V0H553V193H225V489H553V518L33 1434H492Q642 1115 682 1016T745 846Q765 911 804 1007T999 1434H1454Z"/><glyph unicode="¦" horiz-adv-x="640" d="M216 788V1636H424V788H216ZM216 -412V440H424V-412H216Z"/><glyph unicode="§" horiz-adv-x="1479" d="M1366 535Q1366 431 1316 345T1157 184Q1190 120 1190 18Q1190 -145 1070 -240T731 -336Q602 -336 469 -301T250 -211L371 68Q452 21 550 -9T750 -39Q809 -39 828 -27T848 6Q848 41 814 62T680 117Q408 205 303 262T155 389T113 586Q113 690 162 775T319 936Q289 1001 289 1102Q289 1265 409 1360T748 1456Q877 1456 1009 1421T1229 1331L1108 1053Q919 1159 729 1159Q676 1159 654 1149T631 1114Q631 1088 647 1072T701 1040T799 1004Q1060 919 1170 861T1323 733T1366 535ZM1004 504Q1004 546 981 570T901 619T733 680Q614 717 549 750Q512 722 494 691T475 616Q475 574 498 550T579 500T745 440Q854 407 930 371Q967 399 985 429T1004 504Z"/><glyph unicode="¨" horiz-adv-x="1024" d="M938 1405Q938 1335 883 1282T758 1229Q685 1229 629 1281T573 1405Q573 1479 628 1532T758 1585Q830 1585 884 1532T938 1405ZM451 1405Q451 1335 396 1282T268 1229Q196 1229 141 1282T86 1405Q86 1477 139 1531T268 1585Q343 1585 397 1532T451 1405Z"/><glyph unicode="©" horiz-adv-x="1712" d="M1595 717Q1595 515 1502 346T1237 77T856 -23Q652 -23 482 73T215 340T117 717Q117 923 214 1093T481 1359T856 1456Q1062 1456 1232 1359T1498 1092T1595 717ZM1444 717Q1444 888 1369 1023T1158 1235T856 1311Q689 1311 553 1235T343 1023T268 717Q268 545 343 409T553 198T856 123Q1024 123 1159 198T1369 409T1444 717ZM1192 518Q1132 407 1051 359T858 311Q686 311 589 423T492 725Q492 913 592 1026T858 1139Q990 1139 1066 1087T1190 903L987 823Q957 900 930 923T858 946Q794 946 760 890T725 725Q725 619 761 563T860 506Q904 506 934 527T1004 618L1192 518Z"/><glyph unicode="ª" horiz-adv-x="1024" d="M887 565H604V625Q504 549 393 549Q262 549 187 627T111 848Q111 982 194 1057T424 1133Q518 1133 604 1096V1139Q604 1196 574 1218T481 1241Q408 1241 353 1226T240 1178L162 1376Q330 1456 537 1456Q708 1456 797 1375T887 1133V565ZM604 801V922Q549 946 477 946Q385 946 385 854Q385 758 477 758Q514 758 549 771T604 801Z"/><glyph unicode="«" horiz-adv-x="1421" d="M1337 0H938L678 537L938 1075H1337L1069 539L1337 0ZM721 0H322L61 537L322 1075H721L453 539L721 0Z"/><glyph unicode="¬" horiz-adv-x="1536" d="M1116 352V728H212V920H1296V352H1116Z"/><glyph unicode="­" horiz-adv-x="991" d="M852 541H139V926H852V541Z"/><glyph unicode="®" horiz-adv-x="1712" d="M1595 717Q1595 515 1502 346T1237 77T856 -23Q652 -23 482 73T215 340T117 717Q117 923 214 1093T481 1359T856 1456Q1062 1456 1232 1359T1498 1092T1595 717ZM1444 717Q1444 888 1369 1023T1158 1235T856 1311Q689 1311 553 1235T343 1023T268 717Q268 545 343 409T553 198T856 123Q1024 123 1159 198T1369 409T1444 717ZM1235 334H987L856 604H766V334H547V1137H907Q1221 1137 1221 874Q1221 708 1075 639L1235 334ZM999 868Q999 954 901 954H766V780H897Q953 780 976 802T999 868Z"/><glyph unicode="¯" horiz-adv-x="1024" d="M846 1249H178V1485H846V1249Z"/><glyph unicode="°" horiz-adv-x="1077" d="M985 1012Q985 887 927 784T766 622T539 563Q415 563 311 622T150 784T92 1012Q92 1135 150 1237T312 1397T539 1456Q662 1456 765 1398T927 1238T985 1012ZM723 1012Q723 1101 673 1154T539 1208Q455 1208 405 1154T354 1012Q354 922 404 867T539 811Q623 811 673 866T723 1012Z"/><glyph unicode="±" horiz-adv-x="1536" d="M672 352V764H200V936H672V1352H864V936H1340V764H864V352H672ZM204 24V216H1336V24H204Z"/><glyph unicode="²" horiz-adv-x="896" d="M56 628V768L400 1108Q472 1176 512 1230T552 1352Q552 1404 506 1436T400 1468Q292 1468 172 1348L64 1456Q124 1520 220 1570T428 1620Q568 1620 658 1540T748 1344Q748 1236 658 1134T492 976L268 788H776V628H56Z"/><glyph unicode="³" horiz-adv-x="896" d="M48 732L152 864Q269 776 424 776Q524 776 572 818T620 928Q620 1004 552 1040T384 1076H312V1204H372Q472 1204 530 1242T588 1336Q588 1400 536 1428T412 1456Q332 1456 272 1430T176 1384L88 1516Q251 1620 448 1620Q596 1620 684 1556T772 1376Q772 1193 548 1148Q664 1136 738 1080T812 904Q812 764 700 688T432 612Q196 612 48 732Z"/><glyph unicode="´" horiz-adv-x="1024" d="M838 1546L516 1219H254L401 1546H838Z"/><glyph unicode="µ" horiz-adv-x="1408" d="M252 -424Q196 -424 168 -392T140 -280Q140 -124 156 100Q172 300 172 328L176 356V1176H368V320Q368 228 450 176T628 124Q760 124 858 190T1008 380V1176H1200V308L1220 0H1056L1020 176Q952 68 836 14T572 -40Q520 -40 444 -14T324 60Q324 -28 352 -112T380 -264Q380 -424 252 -424Z"/><glyph unicode="¶" horiz-adv-x="1483" d="M1321 -379H1036V1194H915V-379H631V535H541Q407 535 300 591T135 750T76 985Q76 1117 135 1219T302 1378T541 1434H1321V-379Z"/><glyph unicode="·" horiz-adv-x="643" d="M557 752Q557 649 490 583T322 516Q219 516 153 583T86 752Q86 852 152 917T322 983Q425 983 491 918T557 752Z"/><glyph unicode="¸" horiz-adv-x="1024" d="M758 -217Q758 -301 700 -348T530 -395Q382 -395 229 -322L268 -227Q375 -276 475 -276Q569 -276 569 -221Q569 -198 557 -186T524 -174Q489 -174 449 -203L371 -150L412 0H537L512 -86Q546 -68 598 -68Q675 -68 716 -108T758 -217Z"/><glyph unicode="¹" horiz-adv-x="768" d="M324 628V1424L144 1384V1528L392 1636H508V628H324Z"/><glyph unicode="º" horiz-adv-x="1028" d="M928 1004Q928 792 818 671T514 549Q321 549 211 670T100 1004Q100 1216 210 1336T514 1456Q708 1456 818 1336T928 1004ZM633 1004Q633 1115 603 1164T514 1214Q455 1214 425 1165T395 1004Q395 791 514 791Q633 791 633 1004Z"/><glyph unicode="»" horiz-adv-x="1421" d="M1360 539L1100 0H700L969 537L700 1075H1100L1360 539ZM743 539L483 0H84L352 537L84 1075H483L743 539Z"/><glyph unicode="¼" horiz-adv-x="1920" d="M368 0L1340 1524H1520L548 0H368ZM292 628V1424L112 1384V1528L360 1636H476V628H292ZM1540 0V220H1060V360L1512 980H1724V376H1844V220H1724V0H1540ZM1260 368H1540V768L1260 368Z"/><glyph unicode="½" horiz-adv-x="1920" d="M276 0L1248 1524H1428L456 0H276ZM268 628V1424L88 1384V1528L336 1636H452V628H268ZM1136 0V140L1480 480Q1552 548 1592 602T1632 724Q1632 776 1586 808T1480 840Q1372 840 1252 720L1144 828Q1204 892 1300 942T1508 992Q1648 992 1738 912T1828 716Q1828 608 1738 506T1572 348L1348 160H1856V0H1136Z"/><glyph unicode="¾" horiz-adv-x="1920" d="M440 0L1412 1524H1592L620 0H440ZM48 732L152 864Q269 776 424 776Q524 776 572 818T620 928Q620 1004 552 1040T384 1076H312V1204H372Q472 1204 530 1242T588 1336Q588 1400 536 1428T412 1456Q332 1456 272 1430T176 1384L88 1516Q251 1620 448 1620Q596 1620 684 1556T772 1376Q772 1193 548 1148Q664 1136 738 1080T812 904Q812 764 700 688T432 612Q196 612 48 732ZM1564 0V220H1084V360L1536 980H1748V376H1868V220H1748V0H1564ZM1284 368H1564V768L1284 368Z"/><glyph unicode="¿" horiz-adv-x="1233" d="M879 1243Q879 1153 819 1094T666 1034Q573 1034 513 1093T453 1243Q453 1335 514 1395T666 1456Q756 1456 817 1396T879 1243ZM1190 154Q1062 72 920 25T606 -23Q344 -23 204 80T63 371Q63 487 120 564T317 709Q404 751 441 800T479 922H846Q846 782 787 695T580 537Q509 504 481 477T453 410Q453 311 612 311Q806 311 1008 446L1190 154Z"/><glyph unicode="À" horiz-adv-x="1561" d="M1501 0H1071L993 252H563L485 0H59L580 1434H981L1501 0ZM897 567Q799 911 778 1020Q767 966 753 907T659 567H897ZM930 1526H668L346 1853H783L930 1526Z"/><glyph unicode="Á" horiz-adv-x="1561" d="M1501 0H1071L993 252H563L485 0H59L580 1434H981L1501 0ZM897 567Q799 911 778 1020Q767 966 753 907T659 567H897ZM1213 1853L891 1526H629L776 1853H1213Z"/><glyph unicode="Â" horiz-adv-x="1561" d="M1501 0H1071L993 252H563L485 0H59L580 1434H981L1501 0ZM897 567Q799 911 778 1020Q767 966 753 907T659 567H897ZM1194 1563H948L778 1694L608 1563H366L635 1890H925L1194 1563Z"/><glyph unicode="Ã" horiz-adv-x="1561" d="M1501 0H1071L993 252H563L485 0H59L580 1434H981L1501 0ZM897 567Q799 911 778 1020Q767 966 753 907T659 567H897ZM1212 1841Q1212 1699 1139 1609T944 1519Q894 1519 854 1529T762 1571Q717 1597 689 1613T637 1630Q603 1630 586 1605T561 1526H350Q350 1668 423 1757T618 1847Q671 1847 713 1836T801 1796Q846 1770 874 1754T925 1737Q960 1737 977 1763T1001 1841H1212Z"/><glyph unicode="Ä" horiz-adv-x="1561" d="M1501 0H1071L993 252H563L485 0H59L580 1434H981L1501 0ZM897 567Q799 911 778 1020Q767 966 753 907T659 567H897ZM1208 1712Q1208 1642 1153 1589T1028 1536Q955 1536 899 1588T843 1712Q843 1786 898 1839T1028 1892Q1100 1892 1154 1839T1208 1712ZM721 1712Q721 1642 666 1589T538 1536Q466 1536 411 1589T356 1712Q356 1784 409 1838T538 1892Q613 1892 667 1839T721 1712Z"/><glyph unicode="Å" horiz-adv-x="1561" d="M1501 0H1071L993 252H563L485 0H59L547 1346Q489 1424 489 1518Q489 1638 573 1720T780 1802Q903 1802 987 1720T1071 1518Q1071 1418 1014 1346L1501 0ZM893 1518Q893 1573 863 1606T780 1640Q728 1640 698 1607T668 1518Q668 1462 698 1430T780 1397Q833 1397 863 1429T893 1518ZM897 567Q799 911 778 1020Q767 966 753 907T659 567H897Z"/><glyph unicode="Æ" horiz-adv-x="2193" d="M2085 0H1049V156H553L457 0H29L991 1434H2071V1100H1407V909H1790V580H1407V334H2085V0ZM1053 1008Q1030 955 984 872T739 455H1049V690L1053 1008Z"/><glyph unicode="Ç" horiz-adv-x="1405" d="M1335 348Q1239 162 1098 73T768 -23L750 -86Q784 -68 836 -68Q913 -68 954 -108T995 -217Q995 -301 937 -348T768 -395Q620 -395 467 -322L506 -227Q613 -276 713 -276Q807 -276 807 -221Q807 -198 795 -186T762 -174Q728 -174 686 -203L608 -150L645 -16Q385 14 236 211T86 717Q86 939 167 1106T397 1365T741 1456Q900 1456 1011 1414T1197 1284T1331 1034L971 893Q923 1018 872 1064T739 1110Q625 1110 564 1008T502 717Q502 531 564 428T743 324Q822 324 875 364T999 526L1335 348Z"/><glyph unicode="È" horiz-adv-x="1366" d="M1257 0H145V1434H1243V1100H539V909H963V580H539V334H1257V0ZM858 1526H596L274 1853H711L858 1526Z"/><glyph unicode="É" horiz-adv-x="1366" d="M1257 0H145V1434H1243V1100H539V909H963V580H539V334H1257V0ZM1104 1853L782 1526H520L667 1853H1104Z"/><glyph unicode="Ê" horiz-adv-x="1366" d="M1257 0H145V1434H1243V1100H539V909H963V580H539V334H1257V0ZM1114 1526H868L698 1657L528 1526H286L555 1853H845L1114 1526Z"/><glyph unicode="Ë" horiz-adv-x="1366" d="M1257 0H145V1434H1243V1100H539V909H963V580H539V334H1257V0ZM1124 1712Q1124 1642 1069 1589T944 1536Q871 1536 815 1588T759 1712Q759 1786 814 1839T944 1892Q1016 1892 1070 1839T1124 1712ZM637 1712Q637 1642 582 1589T454 1536Q382 1536 327 1589T272 1712Q272 1784 325 1838T454 1892Q529 1892 583 1839T637 1712Z"/><glyph unicode="Ì" horiz-adv-x="717" d="M561 0H156V1434H561V0ZM509 1526H247L-75 1853H362L509 1526Z"/><glyph unicode="Í" horiz-adv-x="717" d="M561 0H156V1434H561V0ZM802 1853L480 1526H218L365 1853H802Z"/><glyph unicode="Î" horiz-adv-x="717" d="M561 0H156V1434H561V0ZM773 1495H527L357 1626L187 1495H-55L214 1822H504L773 1495Z"/><glyph unicode="Ï" horiz-adv-x="717" d="M561 0H156V1434H561V0ZM785 1686Q785 1616 730 1563T605 1510Q532 1510 476 1562T420 1686Q420 1760 475 1813T605 1866Q677 1866 731 1813T785 1686ZM298 1686Q298 1616 243 1563T115 1510Q43 1510 -12 1563T-67 1686Q-67 1758 -14 1812T115 1866Q190 1866 244 1813T298 1686Z"/><glyph unicode="Ð" horiz-adv-x="1520" d="M1425 725Q1425 347 1243 174T651 0H186V584H61V891H186V1434H688Q1072 1434 1248 1261T1425 725ZM1018 719Q1018 924 942 1009T686 1094H567V891H748V584H567V340H674Q866 340 942 425T1018 719Z"/><glyph unicode="Ñ" horiz-adv-x="1548" d="M1403 0H1079L737 473Q690 537 615 651T514 809Q526 737 526 438V0H145V1434H496L811 1010Q854 953 933 835T1034 672Q1022 744 1022 1042V1434H1403V0ZM1212 1835Q1212 1693 1139 1603T944 1513Q894 1513 854 1523T762 1565Q717 1591 689 1607T637 1624Q603 1624 586 1599T561 1520H350Q350 1662 423 1751T618 1841Q671 1841 713 1830T801 1790Q846 1764 874 1748T925 1731Q960 1731 977 1757T1001 1835H1212Z"/><glyph unicode="Ò" horiz-adv-x="1499" d="M1413 719Q1413 492 1332 324T1099 67T748 -23Q548 -23 398 65T167 320T86 715Q86 942 167 1110T401 1367T752 1456Q952 1456 1102 1368T1332 1113T1413 719ZM1001 715Q1001 910 935 1010T748 1110Q627 1110 563 1012T498 719Q498 524 564 424T752 324Q872 324 936 422T1001 715ZM885 1526H623L301 1853H738L885 1526Z"/><glyph unicode="Ó" horiz-adv-x="1499" d="M1413 719Q1413 492 1332 324T1099 67T748 -23Q548 -23 398 65T167 320T86 715Q86 942 167 1110T401 1367T752 1456Q952 1456 1102 1368T1332 1113T1413 719ZM1001 715Q1001 910 935 1010T748 1110Q627 1110 563 1012T498 719Q498 524 564 424T752 324Q872 324 936 422T1001 715ZM1178 1853L856 1526H594L741 1853H1178Z"/><glyph unicode="Ô" horiz-adv-x="1499" d="M1413 719Q1413 492 1332 324T1099 67T748 -23Q548 -23 398 65T167 320T86 715Q86 942 167 1110T401 1367T752 1456Q952 1456 1102 1368T1332 1113T1413 719ZM1001 715Q1001 910 935 1010T748 1110Q627 1110 563 1012T498 719Q498 524 564 424T752 324Q872 324 936 422T1001 715ZM1164 1516H918L748 1647L578 1516H336L605 1843H895L1164 1516Z"/><glyph unicode="Õ" horiz-adv-x="1499" d="M1413 719Q1413 492 1332 324T1099 67T748 -23Q548 -23 398 65T167 320T86 715Q86 942 167 1110T401 1367T752 1456Q952 1456 1102 1368T1332 1113T1413 719ZM1001 715Q1001 910 935 1010T748 1110Q627 1110 563 1012T498 719Q498 524 564 424T752 324Q872 324 936 422T1001 715ZM1169 1841Q1169 1699 1096 1609T901 1519Q851 1519 811 1529T719 1571Q674 1597 646 1613T594 1630Q560 1630 543 1605T518 1526H307Q307 1668 380 1757T575 1847Q628 1847 670 1836T758 1796Q803 1770 831 1754T882 1737Q917 1737 934 1763T958 1841H1169Z"/><glyph unicode="Ö" horiz-adv-x="1499" d="M1413 719Q1413 492 1332 324T1099 67T748 -23Q548 -23 398 65T167 320T86 715Q86 942 167 1110T401 1367T752 1456Q952 1456 1102 1368T1332 1113T1413 719ZM1001 715Q1001 910 935 1010T748 1110Q627 1110 563 1012T498 719Q498 524 564 424T752 324Q872 324 936 422T1001 715ZM1176 1712Q1176 1642 1121 1589T996 1536Q923 1536 867 1588T811 1712Q811 1786 866 1839T996 1892Q1068 1892 1122 1839T1176 1712ZM689 1712Q689 1642 634 1589T506 1536Q434 1536 379 1589T324 1712Q324 1784 377 1838T506 1892Q581 1892 635 1839T689 1712Z"/><glyph unicode="×" horiz-adv-x="1536" d="M472 376L352 492L648 792L352 1088L480 1212L768 912L1068 1204L1184 1088L892 792L1184 492L1068 376L768 668L472 376Z"/><glyph unicode="Ø" horiz-adv-x="1499" d="M1444 1536L1262 1229Q1413 1034 1413 719Q1413 492 1332 324T1099 67T748 -23Q641 -23 539 6L475 -102H49L233 211Q86 399 86 715Q86 942 167 1110T401 1367T752 1456Q865 1456 954 1430L1018 1536H1444ZM1001 715Q1001 910 935 1010T748 1110Q627 1110 563 1012T498 719Q498 524 564 424T752 324Q872 324 936 422T1001 715Z"/><glyph unicode="Ù" horiz-adv-x="1532" d="M1395 612Q1395 307 1232 142T762 -23Q457 -23 297 141T137 612V1434H543V612Q543 480 597 404T768 328Q989 328 989 612V1434H1395V612ZM917 1495H655L333 1822H770L917 1495Z"/><glyph unicode="Ú" horiz-adv-x="1532" d="M1395 612Q1395 307 1232 142T762 -23Q457 -23 297 141T137 612V1434H543V612Q543 480 597 404T768 328Q989 328 989 612V1434H1395V612ZM1200 1822L878 1495H616L763 1822H1200Z"/><glyph unicode="Û" horiz-adv-x="1532" d="M1395 612Q1395 307 1232 142T762 -23Q457 -23 297 141T137 612V1434H543V612Q543 480 597 404T768 328Q989 328 989 612V1434H1395V612ZM1180 1526H934L764 1657L594 1526H352L621 1853H911L1180 1526Z"/><glyph unicode="Ü" horiz-adv-x="1532" d="M1395 612Q1395 307 1232 142T762 -23Q457 -23 297 141T137 612V1434H543V612Q543 480 597 404T768 328Q989 328 989 612V1434H1395V612ZM1192 1712Q1192 1642 1137 1589T1012 1536Q939 1536 883 1588T827 1712Q827 1786 882 1839T1012 1892Q1084 1892 1138 1839T1192 1712ZM705 1712Q705 1642 650 1589T522 1536Q450 1536 395 1589T340 1712Q340 1784 393 1838T522 1892Q597 1892 651 1839T705 1712Z"/><glyph unicode="Ý" horiz-adv-x="1528" d="M1495 1434L965 535V0H563V528L33 1434H492Q655 1112 700 1010T766 846Q778 883 800 937T855 1063T1040 1434H1495ZM1211 1849L889 1522H627L774 1849H1211Z"/><glyph unicode="Þ" horiz-adv-x="1391" d="M1321 745Q1321 252 735 252H537V0H145V1434H537V1221H762Q1321 1221 1321 745ZM926 739Q926 897 752 897H537V575H745Q842 575 884 616T926 739Z"/><glyph unicode="ß" horiz-adv-x="1231" d="M1159 479Q1159 0 625 0H594V289H625Q797 289 797 473Q797 574 748 615T606 657H594V936H606Q659 936 680 965T702 1047Q702 1121 676 1154T590 1188Q531 1188 507 1146T483 1016V-248L115 -395V1006Q115 1239 236 1363T590 1487Q804 1487 926 1387T1049 1108Q1049 1014 1011 946T877 823Q1011 794 1085 704T1159 479Z"/><glyph unicode="à" horiz-adv-x="1143" d="M1036 0H688V72Q565 -23 426 -23Q262 -23 170 75T78 348Q78 513 181 605T465 698Q587 698 688 653V707Q688 778 650 806T537 834Q450 834 383 816T238 756L141 999Q345 1098 604 1098Q817 1098 926 998T1036 698V0ZM688 291V438Q619 469 530 469Q416 469 416 354Q416 304 443 271T530 238Q577 238 619 253T688 291ZM772 1219H510L188 1546H625L772 1219Z"/><glyph unicode="á" horiz-adv-x="1143" d="M1036 0H688V72Q565 -23 426 -23Q262 -23 170 75T78 348Q78 513 181 605T465 698Q587 698 688 653V707Q688 778 650 806T537 834Q450 834 383 816T238 756L141 999Q345 1098 604 1098Q817 1098 926 998T1036 698V0ZM688 291V438Q619 469 530 469Q416 469 416 354Q416 304 443 271T530 238Q577 238 619 253T688 291ZM973 1546L651 1219H389L536 1546H973Z"/><glyph unicode="â" horiz-adv-x="1143" d="M1036 0H688V72Q565 -23 426 -23Q262 -23 170 75T78 348Q78 513 181 605T465 698Q587 698 688 653V707Q688 778 650 806T537 834Q450 834 383 816T238 756L141 999Q345 1098 604 1098Q817 1098 926 998T1036 698V0ZM688 291V438Q619 469 530 469Q416 469 416 354Q416 304 443 271T530 238Q577 238 619 253T688 291ZM987 1466H741L571 1597L401 1466H159L428 1793H718L987 1466Z"/><glyph unicode="ã" horiz-adv-x="1143" d="M1036 0H688V72Q565 -23 426 -23Q262 -23 170 75T78 348Q78 513 181 605T465 698Q587 698 688 653V707Q688 778 650 806T537 834Q450 834 383 816T238 756L141 999Q345 1098 604 1098Q817 1098 926 998T1036 698V0ZM688 291V438Q619 469 530 469Q416 469 416 354Q416 304 443 271T530 238Q577 238 619 253T688 291ZM1012 1534Q1012 1392 939 1302T744 1212Q694 1212 654 1222T562 1264Q517 1290 489 1306T437 1323Q403 1323 386 1298T361 1219H150Q150 1361 223 1450T418 1540Q471 1540 513 1529T601 1489Q646 1463 674 1447T725 1430Q760 1430 777 1456T801 1534H1012Z"/><glyph unicode="ä" horiz-adv-x="1143" d="M1036 0H688V72Q565 -23 426 -23Q262 -23 170 75T78 348Q78 513 181 605T465 698Q587 698 688 653V707Q688 778 650 806T537 834Q450 834 383 816T238 756L141 999Q345 1098 604 1098Q817 1098 926 998T1036 698V0ZM688 291V438Q619 469 530 469Q416 469 416 354Q416 304 443 271T530 238Q577 238 619 253T688 291ZM995 1652Q995 1582 940 1529T815 1476Q742 1476 686 1528T630 1652Q630 1726 685 1779T815 1832Q887 1832 941 1779T995 1652ZM508 1652Q508 1582 453 1529T325 1476Q253 1476 198 1529T143 1652Q143 1724 196 1778T325 1832Q400 1832 454 1779T508 1652Z"/><glyph unicode="å" horiz-adv-x="1143" d="M1036 0H688V72Q565 -23 426 -23Q262 -23 170 75T78 348Q78 513 181 605T465 698Q587 698 688 653V707Q688 778 650 806T537 834Q450 834 383 816T238 756L141 999Q345 1098 604 1098Q817 1098 926 998T1036 698V0ZM688 291V438Q619 469 530 469Q416 469 416 354Q416 304 443 271T530 238Q577 238 619 253T688 291ZM866 1501Q866 1380 782 1300T575 1219Q453 1219 369 1299T284 1501Q284 1623 369 1704T575 1786Q695 1786 780 1705T866 1501ZM688 1501Q688 1557 658 1590T575 1624Q522 1624 492 1591T462 1501Q462 1445 492 1413T575 1380Q628 1380 658 1412T688 1501Z"/><glyph unicode="æ" horiz-adv-x="1735" d="M1663 504V464L1661 432H1030Q1039 342 1088 301T1212 260Q1288 260 1353 278T1491 336L1632 100Q1420 -23 1194 -23Q969 -23 862 131Q712 -23 467 -23Q78 -23 78 348Q78 513 181 605T465 698Q587 698 688 653V707Q688 778 650 806T537 834Q450 834 383 816T238 756L141 999Q345 1098 594 1098Q810 1098 893 967Q999 1098 1194 1098Q1418 1098 1540 943T1663 504ZM1337 662Q1321 756 1283 790T1174 825Q1048 825 1030 662H1337ZM688 291V438Q619 469 530 469Q416 469 416 354Q416 304 443 271T530 238Q577 238 619 253T688 291Z"/><glyph unicode="ç" horiz-adv-x="1065" d="M1008 233Q920 100 824 41T590 -23L571 -86Q607 -68 657 -68Q735 -68 776 -108T817 -217Q817 -301 759 -348T590 -395Q442 -395 289 -322L328 -227Q435 -276 535 -276Q629 -276 629 -221Q629 -198 617 -186T584 -174Q548 -174 508 -203L430 -150L467 -14Q276 18 174 161T72 541Q72 805 207 951T584 1098Q719 1098 818 1040T997 852L743 659Q699 742 664 770T578 799Q436 799 436 535Q436 276 588 276Q641 276 682 308T774 416L1008 233Z"/><glyph unicode="è" horiz-adv-x="1114" d="M1042 504V464L1040 432H410Q419 342 468 301T592 260Q663 260 725 277T870 336L1012 100Q800 -23 573 -23Q339 -23 206 128T72 537Q72 798 203 948T563 1098Q795 1098 918 945T1042 504ZM717 662Q701 754 664 789T553 825Q428 825 410 662H717ZM978 1219H716L394 1546H831L978 1219Z"/><glyph unicode="é" horiz-adv-x="1114" d="M1042 504V464L1040 432H410Q419 342 468 301T592 260Q663 260 725 277T870 336L1012 100Q800 -23 573 -23Q339 -23 206 128T72 537Q72 798 203 948T563 1098Q795 1098 918 945T1042 504ZM717 662Q701 754 664 789T553 825Q428 825 410 662H717ZM994 1546L672 1219H410L557 1546H994Z"/><glyph unicode="ê" horiz-adv-x="1114" d="M1042 504V464L1040 432H410Q419 342 468 301T592 260Q663 260 725 277T870 336L1012 100Q800 -23 573 -23Q339 -23 206 128T72 537Q72 798 203 948T563 1098Q795 1098 918 945T1042 504ZM717 662Q701 754 664 789T553 825Q428 825 410 662H717ZM979 1456H733L563 1587L393 1456H151L420 1783H710L979 1456Z"/><glyph unicode="ë" horiz-adv-x="1114" d="M1042 504V464L1040 432H410Q419 342 468 301T592 260Q663 260 725 277T870 336L1012 100Q800 -23 573 -23Q339 -23 206 128T72 537Q72 798 203 948T563 1098Q795 1098 918 945T1042 504ZM717 662Q701 754 664 789T553 825Q428 825 410 662H717ZM993 1652Q993 1582 938 1529T813 1476Q740 1476 684 1528T628 1652Q628 1726 683 1779T813 1832Q885 1832 939 1779T993 1652ZM506 1652Q506 1582 451 1529T323 1476Q251 1476 196 1529T141 1652Q141 1724 194 1778T323 1832Q398 1832 452 1779T506 1652Z"/><glyph unicode="ì" horiz-adv-x="618" d="M494 0H125V1075H494V0ZM478 1219H216L-106 1546H331L478 1219Z"/><glyph unicode="í" horiz-adv-x="618" d="M494 0H125V1075H494V0ZM991 1546L669 1219H407L554 1546H991Z"/><glyph unicode="î" horiz-adv-x="618" d="M494 0H125V1075H494V0ZM724 1189H478L308 1320L138 1189H-104L165 1516H455L724 1189Z"/><glyph unicode="ï" horiz-adv-x="618" d="M494 0H125V1075H494V0ZM736 1386Q736 1316 681 1263T556 1210Q483 1210 427 1262T371 1386Q371 1460 426 1513T556 1566Q628 1566 682 1513T736 1386ZM249 1386Q249 1316 194 1263T66 1210Q-6 1210 -61 1263T-116 1386Q-116 1458 -63 1512T66 1566Q141 1566 195 1513T249 1386Z"/><glyph unicode="ð" horiz-adv-x="1165" d="M1094 547Q1094 366 1032 238T854 44T582 -23Q440 -23 322 38T138 210T72 467Q72 599 126 706T282 879T500 944Q600 944 665 924T780 856Q757 973 662 1063L580 977L432 1098L498 1165Q411 1202 301 1208V1456Q526 1456 692 1368L778 1456L926 1335L848 1255Q970 1137 1032 957T1094 547ZM727 467Q727 558 691 606T582 655Q511 655 474 607T436 467Q436 370 476 323T582 276Q647 276 687 323T727 467Z"/><glyph unicode="ñ" horiz-adv-x="1208" d="M1102 0H731V610Q731 704 702 745T608 786Q541 786 512 745T483 614V0H115V1075H483V1004Q549 1054 612 1076T754 1098Q930 1098 1016 984T1102 657V0ZM1055 1534Q1055 1392 982 1302T787 1212Q737 1212 697 1222T605 1264Q560 1290 532 1306T480 1323Q446 1323 429 1298T404 1219H193Q193 1361 266 1450T461 1540Q514 1540 556 1529T644 1489Q689 1463 717 1447T768 1430Q803 1430 820 1456T844 1534H1055Z"/><glyph unicode="ò" horiz-adv-x="1165" d="M1094 539Q1094 274 957 126T582 -23Q344 -23 208 126T72 539Q72 714 134 840T312 1032T582 1098Q819 1098 956 951T1094 539ZM727 539Q727 676 691 737T582 799Q509 799 473 738T436 539Q436 276 582 276Q727 276 727 539ZM980 1219H718L396 1546H833L980 1219Z"/><glyph unicode="ó" horiz-adv-x="1165" d="M1094 539Q1094 274 957 126T582 -23Q344 -23 208 126T72 539Q72 714 134 840T312 1032T582 1098Q819 1098 956 951T1094 539ZM727 539Q727 676 691 737T582 799Q509 799 473 738T436 539Q436 276 582 276Q727 276 727 539ZM1016 1546L694 1219H432L579 1546H1016Z"/><glyph unicode="ô" horiz-adv-x="1165" d="M1094 539Q1094 274 957 126T582 -23Q344 -23 208 126T72 539Q72 714 134 840T312 1032T582 1098Q819 1098 956 951T1094 539ZM727 539Q727 676 691 737T582 799Q509 799 473 738T436 539Q436 276 582 276Q727 276 727 539ZM996 1456H750L580 1587L410 1456H168L437 1783H727L996 1456Z"/><glyph unicode="õ" horiz-adv-x="1165" d="M1094 539Q1094 274 957 126T582 -23Q344 -23 208 126T72 539Q72 714 134 840T312 1032T582 1098Q819 1098 956 951T1094 539ZM727 539Q727 676 691 737T582 799Q509 799 473 738T436 539Q436 276 582 276Q727 276 727 539ZM1014 1534Q1014 1392 941 1302T746 1212Q696 1212 656 1222T564 1264Q519 1290 491 1306T439 1323Q405 1323 388 1298T363 1219H152Q152 1361 225 1450T420 1540Q473 1540 515 1529T603 1489Q648 1463 676 1447T727 1430Q762 1430 779 1456T803 1534H1014Z"/><glyph unicode="ö" horiz-adv-x="1165" d="M1094 539Q1094 274 957 126T582 -23Q344 -23 208 126T72 539Q72 714 134 840T312 1032T582 1098Q819 1098 956 951T1094 539ZM727 539Q727 676 691 737T582 799Q509 799 473 738T436 539Q436 276 582 276Q727 276 727 539ZM1008 1642Q1008 1572 953 1519T828 1466Q755 1466 699 1518T643 1642Q643 1716 698 1769T828 1822Q900 1822 954 1769T1008 1642ZM521 1642Q521 1572 466 1519T338 1466Q266 1466 211 1519T156 1642Q156 1714 209 1768T338 1822Q413 1822 467 1769T521 1642Z"/><glyph unicode="÷" horiz-adv-x="1536" d="M208 684V896H1328V684H208ZM768 228Q704 228 656 276T608 388Q608 452 650 500T768 548Q840 548 884 500T928 388Q928 324 880 276T768 228ZM768 1028Q704 1028 656 1076T608 1188Q608 1252 650 1300T768 1348Q840 1348 884 1300T928 1188Q928 1124 880 1076T768 1028Z"/><glyph unicode="ø" horiz-adv-x="1165" d="M1126 1178L977 926Q1094 782 1094 539Q1094 274 957 126T582 -23Q496 -23 426 -2L367 -102H33L184 154Q72 301 72 539Q72 714 134 840T312 1032T582 1098Q664 1098 733 1079L793 1178H1126ZM727 539Q727 676 691 737T582 799Q509 799 473 738T436 539Q436 276 582 276Q727 276 727 539Z"/><glyph unicode="ù" horiz-adv-x="1208" d="M1094 0H723V72Q661 22 597 0T455 -23Q278 -23 192 91T106 418V1075H477V465Q477 373 505 331T600 289Q665 289 694 330T723 461V1075H1094V0ZM1015 1219H753L431 1546H868L1015 1219Z"/><glyph unicode="ú" horiz-adv-x="1208" d="M1094 0H723V72Q661 22 597 0T455 -23Q278 -23 192 91T106 418V1075H477V465Q477 373 505 331T600 289Q665 289 694 330T723 461V1075H1094V0ZM1031 1546L709 1219H447L594 1546H1031Z"/><glyph unicode="û" horiz-adv-x="1208" d="M1094 0H723V72Q661 22 597 0T455 -23Q278 -23 192 91T106 418V1075H477V465Q477 373 505 331T600 289Q665 289 694 330T723 461V1075H1094V0ZM1020 1219H774L604 1350L434 1219H192L461 1546H751L1020 1219Z"/><glyph unicode="ü" horiz-adv-x="1208" d="M1094 0H723V72Q661 22 597 0T455 -23Q278 -23 192 91T106 418V1075H477V465Q477 373 505 331T600 289Q665 289 694 330T723 461V1075H1094V0ZM1032 1405Q1032 1335 977 1282T852 1229Q779 1229 723 1281T667 1405Q667 1479 722 1532T852 1585Q924 1585 978 1532T1032 1405ZM545 1405Q545 1335 490 1282T362 1229Q290 1229 235 1282T180 1405Q180 1477 233 1531T362 1585Q437 1585 491 1532T545 1405Z"/><glyph unicode="ý" horiz-adv-x="1208" d="M1178 1075L657 -379H305L440 -45L31 1075H422L524 692Q588 451 606 309Q629 459 690 696L791 1075H1178ZM1063 1527L741 1200H479L626 1527H1063Z"/><glyph unicode="þ" horiz-adv-x="1171" d="M1096 541Q1096 261 1001 119T723 -23Q664 -23 608 -2T483 72V-248L115 -395V1346L483 1493V999Q554 1055 611 1076T737 1098Q909 1098 1002 954T1096 541ZM731 528Q731 670 706 732T614 795Q549 795 483 743V332Q512 309 542 295T616 281Q682 281 706 340T731 528Z"/><glyph unicode="ÿ" horiz-adv-x="1208" d="M1178 1075L657 -379H305L440 -45L31 1075H422L524 692Q588 451 606 309Q629 459 690 696L791 1075H1178ZM1030 1642Q1030 1572 975 1519T850 1466Q777 1466 721 1518T665 1642Q665 1716 720 1769T850 1822Q922 1822 976 1769T1030 1642ZM543 1642Q543 1572 488 1519T360 1466Q288 1466 233 1519T178 1642Q178 1714 231 1768T360 1822Q435 1822 489 1769T543 1642Z"/><glyph unicode="ı" horiz-adv-x="618" d="M494 0H125V1075H494V0Z"/><glyph unicode="Ł" horiz-adv-x="1300" d="M1223 0H186V471L72 395V739L186 815V1434H578V1020L778 1147V803L578 676V346H1223V0Z"/><glyph unicode="ł" horiz-adv-x="700" d="M655 709L528 637V0H172V479L45 408V752L172 823V1346L528 1493V981L655 1053V709Z"/><glyph unicode="Œ" horiz-adv-x="2177" d="M2068 0H1090V133Q1033 55 938 16T727 -23Q537 -23 391 67T166 325T86 715Q86 938 167 1107T396 1366T731 1456Q977 1456 1090 1300V1434H2054V1100H1370V909H1774V580H1370V334H2068V0ZM1001 715Q1001 910 935 1010T748 1110Q627 1110 563 1012T498 719Q498 524 564 424T752 324Q872 324 936 422T1001 715Z"/><glyph unicode="œ" horiz-adv-x="1765" d="M1694 504V464L1692 432H1061Q1070 342 1119 301T1243 260Q1313 260 1377 277T1522 336L1663 100Q1451 -23 1235 -23Q1121 -23 1042 12T899 133Q831 51 752 14T571 -23Q422 -23 309 44T134 239T72 539Q72 711 133 837T307 1031T571 1098Q800 1098 905 946Q1019 1098 1225 1098Q1449 1098 1571 942T1694 504ZM1368 662Q1352 756 1314 790T1204 825Q1079 825 1061 662H1368ZM727 539Q727 676 691 737T582 799Q509 799 473 738T436 539Q436 276 582 276Q727 276 727 539Z"/><glyph unicode="Š" horiz-adv-x="1391" d="M1286 440Q1286 215 1133 96T694 -23Q535 -23 375 23T90 152L283 463Q372 401 492 360T702 319Q807 319 848 340T889 412Q889 453 838 481T645 543Q434 592 331 648T181 789T133 1004Q133 1138 202 1241T401 1400T698 1456Q866 1456 1005 1417T1270 1290L1077 979Q878 1114 678 1114Q601 1114 566 1093T530 1026Q530 987 577 963T766 905Q1056 836 1171 732T1286 440ZM1116 1857L847 1530H557L288 1857H534L704 1726L874 1857H1116Z"/><glyph unicode="š" horiz-adv-x="1071" d="M981 340Q981 162 867 70T537 -23Q312 -23 88 66L174 344Q270 302 371 276T545 250Q599 250 621 262T643 299Q643 326 626 340T557 367Q360 419 273 465T149 574T111 745Q111 917 224 1007T549 1098Q657 1098 749 1081T963 1020L881 735Q676 825 539 825Q485 825 467 814T449 778Q449 751 468 738T555 705Q740 655 823 610T944 501T981 340ZM944 1546L675 1219H385L116 1546H362L532 1415L702 1546H944Z"/><glyph unicode="Ÿ" horiz-adv-x="1528" d="M1495 1434L965 535V0H563V528L33 1434H492Q655 1112 700 1010T766 846Q778 883 800 937T855 1063T1040 1434H1495ZM1190 1702Q1190 1632 1135 1579T1010 1526Q937 1526 881 1578T825 1702Q825 1776 880 1829T1010 1882Q1082 1882 1136 1829T1190 1702ZM703 1702Q703 1632 648 1579T520 1526Q448 1526 393 1579T338 1702Q338 1774 391 1828T520 1882Q595 1882 649 1829T703 1702Z"/><glyph unicode="Ž" horiz-adv-x="1454" d="M1311 0H135V285L555 797Q693 960 838 1116Q712 1110 412 1110H176V1434H1307V1149L887 637Q773 499 604 317Q751 324 1030 324H1311V0ZM1147 1853L878 1526H588L319 1853H565L735 1722L905 1853H1147Z"/><glyph unicode="ž" horiz-adv-x="1157" d="M1040 0H106V256L342 512Q433 611 606 784Q406 776 330 776H131V1075H1040V819Q756 510 706 458T541 291Q741 299 817 299H1040V0ZM1004 1546L735 1219H445L176 1546H422L592 1415L762 1546H1004Z"/><glyph unicode="ƒ" horiz-adv-x="887" d="M786 1174Q740 1196 666 1196Q618 1196 602 1181T586 1128V1075H762V786H592V-250L229 -395V786H104V1075H229V1149Q229 1312 303 1384T543 1456Q701 1456 786 1411V1174Z"/><glyph unicode="ˆ" horiz-adv-x="1024" d="M926 1219H680L510 1350L340 1219H98L367 1546H657L926 1219Z"/><glyph unicode="ˇ" horiz-adv-x="1024" d="M926 1546L657 1219H367L98 1546H344L514 1415L684 1546H926Z"/><glyph unicode="˘" horiz-adv-x="1024" d="M907 1546Q873 1377 776 1298T510 1219Q345 1219 249 1298T117 1546H332Q370 1421 514 1421Q654 1421 692 1546H907Z"/><glyph unicode="˙" horiz-adv-x="1024" d="M705 1405Q705 1332 647 1276T512 1219Q438 1219 379 1275T319 1405Q319 1484 378 1539T512 1595Q590 1595 647 1539T705 1405Z"/><glyph unicode="˚" horiz-adv-x="1024" d="M803 1501Q803 1380 719 1300T512 1219Q390 1219 306 1299T221 1501Q221 1623 306 1704T512 1786Q632 1786 717 1705T803 1501ZM625 1501Q625 1557 595 1590T512 1624Q459 1624 429 1591T399 1501Q399 1445 429 1413T512 1380Q565 1380 595 1412T625 1501Z"/><glyph unicode="˛" horiz-adv-x="1024" d="M791 -303Q656 -395 502 -395Q407 -395 350 -350T293 -236Q293 -181 330 -119T436 0H561Q529 -68 517 -111T504 -197Q504 -223 525 -241T582 -260Q657 -260 756 -217L791 -303Z"/><glyph unicode="˜" horiz-adv-x="1024" d="M946 1534Q946 1392 873 1302T678 1212Q628 1212 588 1222T496 1264Q451 1290 423 1306T371 1323Q337 1323 320 1298T295 1219H84Q84 1361 157 1450T352 1540Q405 1540 447 1529T535 1489Q580 1463 608 1447T659 1430Q694 1430 711 1456T735 1534H946Z"/><glyph unicode="˝" horiz-adv-x="1024" d="M1044 1546L743 1219H492L649 1546H1044ZM584 1546L283 1219H31L188 1546H584Z"/><glyph unicode="̄" horiz-adv-x="1024" d="M846 1249H178V1485H846V1249Z"/><glyph unicode="Δ" horiz-adv-x="1536" d="M76 0L652 1536H884L1456 0H76ZM352 148H1164L752 1256L352 148Z"/><glyph unicode="Ω" horiz-adv-x="1664" d="M832 1376Q644 1376 510 1234T376 836Q376 592 464 432T724 180V0H88V196H536Q416 240 304 406T192 848Q192 1112 358 1330T832 1548Q1140 1548 1306 1338T1472 848Q1472 572 1360 406T1128 196H1576V0H940V180Q1112 272 1200 432T1288 836Q1288 1044 1162 1210T832 1376Z"/><glyph unicode="μ" horiz-adv-x="1408" d="M252 -424Q196 -424 168 -392T140 -280Q140 -124 156 100Q172 300 172 328L176 356V1176H368V320Q368 228 450 176T628 124Q760 124 858 190T1008 380V1176H1200V308L1220 0H1056L1020 176Q952 68 836 14T572 -40Q520 -40 444 -14T324 60Q324 -28 352 -112T380 -264Q380 -424 252 -424Z"/><glyph unicode="π" horiz-adv-x="1408" d="M296 0V1028H12V1176H1316V1028H996V344Q996 228 1042 184T1152 140Q1200 140 1232 142T1296 156V28Q1248 4 1206 -6T1088 -16Q960 -16 886 64T812 336V1028H484V0H296Z"/><glyph unicode="–" horiz-adv-x="1139" d="M999 549H139V918H999V549Z"/><glyph unicode="—" horiz-adv-x="1343" d="M1204 549H139V918H1204V549Z"/><glyph unicode="‘" horiz-adv-x="664" d="M532 1434L504 782H84L281 1434H532Z"/><glyph unicode="’" horiz-adv-x="664" d="M580 1434L383 782H131L160 1434H580Z"/><glyph unicode="‚" horiz-adv-x="664" d="M573 428L377 -223H125L154 428H573Z"/><glyph unicode="“" d="M1114 1434L1085 782H666L862 1434H1114ZM532 1434L504 782H84L281 1434H532Z"/><glyph unicode="”" d="M1161 1434L965 782H713L741 1434H1161ZM580 1434L383 782H131L160 1434H580Z"/><glyph unicode="„" d="M1155 428L958 -223H707L735 428H1155ZM573 428L377 -223H125L154 428H573Z"/><glyph unicode="†" horiz-adv-x="1217" d="M1104 715H791V-205H426V715H113V1053H426V1434H791V1053H1104V715Z"/><glyph unicode="‡" horiz-adv-x="1217" d="M1104 176H784V-205H432V176H113V494H432V735H113V1053H432V1434H784V1053H1104V735H784V494H1104V176Z"/><glyph unicode="•" horiz-adv-x="1206" d="M1073 750Q1073 622 1012 514T842 344T602 281Q473 281 364 343T194 514T133 750Q133 878 194 987T365 1159T602 1223Q731 1223 840 1160T1011 988T1073 750Z"/><glyph unicode="…" horiz-adv-x="1929" d="M1843 213Q1843 110 1776 44T1608 -23Q1507 -23 1440 44T1372 213Q1372 311 1438 377T1608 444Q1711 444 1777 379T1843 213ZM1200 213Q1200 110 1133 44T965 -23Q864 -23 797 44T729 213Q729 313 795 378T965 444Q1068 444 1134 379T1200 213ZM557 213Q557 110 490 44T322 -23Q221 -23 154 44T86 213Q86 313 152 378T322 444Q425 444 491 379T557 213Z"/><glyph unicode="‰" horiz-adv-x="3144" d="M909 1012Q909 802 794 683T483 563Q288 563 175 681T61 1008Q61 1216 176 1336T487 1456Q683 1456 796 1338T909 1012ZM1702 1434L823 0H510L1389 1434H1702ZM3103 426Q3103 216 2987 97T2677 -23Q2482 -23 2369 95T2255 422Q2255 629 2369 749T2681 870Q2877 870 2990 752T3103 426ZM2150 426Q2150 216 2035 97T1724 -23Q1528 -23 1416 96T1303 422Q1303 629 1417 749T1729 870Q1926 870 2038 751T2150 426ZM608 1008Q608 1129 580 1181T485 1233Q417 1233 390 1185T362 1012Q362 889 391 838T487 786Q553 786 580 835T608 1008ZM2802 422Q2802 543 2774 595T2679 647Q2611 647 2584 599T2556 426Q2556 303 2585 252T2681 201Q2747 201 2774 249T2802 422ZM1849 422Q1849 543 1821 595T1726 647Q1659 647 1632 599T1604 426Q1604 303 1633 252T1729 201Q1795 201 1822 250T1849 422Z"/><glyph unicode="‹" horiz-adv-x="805" d="M721 0H322L61 537L322 1075H721L453 539L721 0Z"/><glyph unicode="›" horiz-adv-x="805" d="M743 539L483 0H84L352 537L84 1075H483L743 539Z"/><glyph unicode="⁄" horiz-adv-x="1077" d="M1210 1434L311 0H-133L766 1434H1210Z"/><glyph unicode="€" horiz-adv-x="1384" d="M473 758V691L475 666H864V471H508Q572 301 748 301Q805 301 846 317T922 371T1018 510L1333 348Q1145 -23 727 -23Q529 -23 384 67T161 325T84 717Q84 940 163 1108T388 1366T729 1456Q886 1456 993 1415T1174 1287T1309 1034L987 909Q948 1010 918 1051T845 1112T743 1133Q563 1133 504 952H864V758H473Z"/><glyph unicode="℗" horiz-adv-x="1712" d="M1595 717Q1595 515 1502 346T1237 77T856 -23Q652 -23 482 73T215 340T117 717Q117 923 214 1093T481 1359T856 1456Q1062 1456 1232 1359T1498 1092T1595 717ZM1444 717Q1444 888 1369 1023T1158 1235T856 1311Q689 1311 553 1235T343 1023T268 717Q268 545 343 409T553 198T856 123Q1024 123 1159 198T1369 409T1444 717ZM1235 852Q1235 575 907 575H797V315H578V1118H924Q1235 1118 1235 852ZM1014 848Q1014 936 918 936H797V756H913Q1014 756 1014 848Z"/><glyph unicode="™" horiz-adv-x="1718" d="M721 1241H498V631H274V1241H49V1434H721V1241ZM1653 631H1444V823Q1444 975 1448 1036L1356 825L1249 604Q1086 950 1051 1036Q1055 975 1055 823V631H848V1434H1051Q1202 1105 1222 1057T1251 977Q1260 1009 1283 1065T1450 1434H1653V631Z"/><glyph unicode="Ω" horiz-adv-x="1664" d="M832 1376Q644 1376 510 1234T376 836Q376 592 464 432T724 180V0H88V196H536Q416 240 304 406T192 848Q192 1112 358 1330T832 1548Q1140 1548 1306 1338T1472 848Q1472 572 1360 406T1128 196H1576V0H940V180Q1112 272 1200 432T1288 836Q1288 1044 1162 1210T832 1376Z"/><glyph unicode="∂" horiz-adv-x="1280" d="M476 -32Q276 -32 166 80T56 360Q56 580 214 750T604 920Q700 920 802 886T964 816Q976 900 976 984Q976 1172 908 1278T720 1384Q592 1384 518 1356T368 1280L324 1444Q400 1488 492 1518T720 1548Q956 1548 1064 1394T1172 968Q1172 552 968 260T476 -32ZM488 128Q831 128 944 684Q912 716 824 748T648 780Q456 780 360 654T264 372Q264 264 318 196T488 128Z"/><glyph unicode="∆" horiz-adv-x="1536" d="M76 0L652 1536H884L1456 0H76ZM352 148H1164L752 1256L352 148Z"/><glyph unicode="∏" horiz-adv-x="1536" d="M332 0V1348H80V1524H1456V1348H1212V0H1004V1356H540V0H332Z"/><glyph unicode="∑" horiz-adv-x="1152" d="M1084 1524V1344H332L796 784L304 188H1080V0H40V172L560 788L68 1380V1524H1084Z"/><glyph unicode="−" horiz-adv-x="1536" d="M200 692V888H1336V692H200Z"/><glyph unicode="∕" horiz-adv-x="1077" d="M1210 1434L311 0H-133L766 1434H1210Z"/><glyph unicode="∙" horiz-adv-x="643" d="M557 752Q557 649 490 583T322 516Q219 516 153 583T86 752Q86 852 152 917T322 983Q425 983 491 918T557 752Z"/><glyph unicode="√" horiz-adv-x="1446" d="M1372 1434L834 0H455L78 696H467Q606 401 631 293Q645 392 711 596L977 1434H1372Z"/><glyph unicode="∞" horiz-adv-x="1536" d="M468 1216Q616 1216 706 1134T848 840Q856 660 920 608T1072 556Q1156 556 1218 626T1280 816Q1280 916 1234 988T1080 1060Q972 1060 920 968T836 752Q796 596 688 496T440 396Q284 396 190 508T96 808Q96 984 208 1100T468 1216ZM1072 396Q924 396 840 482T712 764Q672 924 614 986T472 1048Q376 1048 316 982T256 792Q256 668 302 610T448 552Q540 552 608 624T716 864Q764 1044 860 1130T1100 1216Q1248 1216 1346 1112T1444 820Q1444 640 1340 518T1072 396Z"/><glyph unicode="∫" horiz-adv-x="1152" d="M-8 -392L56 -260Q116 -280 164 -280Q212 -280 242 -246T288 -112L516 1224Q572 1544 880 1544Q972 1544 1042 1522T1152 1476L1088 1304Q969 1380 868 1380Q776 1380 730 1322T672 1188L448 -224Q428 -332 350 -382T176 -432Q116 -432 66 -420T-8 -392Z"/><glyph unicode="≈" horiz-adv-x="1536" d="M236 400Q228 444 228 480Q228 580 288 652T476 724Q576 724 650 696T788 642T912 598T1020 580Q1096 580 1128 610T1160 684L1156 716H1300Q1308 672 1308 636Q1308 536 1248 464T1060 392Q960 392 886 418T748 470T624 512T516 528Q440 528 408 500T376 432L380 400H236ZM236 860Q228 904 228 940Q228 1040 288 1112T476 1184Q576 1184 650 1156T788 1102T912 1058T1020 1040Q1096 1040 1128 1070T1160 1144L1156 1176H1300Q1308 1132 1308 1096Q1308 996 1248 924T1060 852Q960 852 886 878T748 930T624 972T516 988Q440 988 408 960T376 892L380 860H236Z"/><glyph unicode="≠" horiz-adv-x="1536" d="M212 404V604H1328V404H212ZM212 976V1176H1328V976H212ZM548 188H372L996 1356H1168L548 188Z"/><glyph unicode="≤" horiz-adv-x="1536" d="M1348 236L208 708V872L1348 1344V1128L448 792L1348 452V236ZM212 24V216H1348V24H212Z"/><glyph unicode="≥" horiz-adv-x="1536" d="M212 236V452L1112 792L212 1128V1344L1352 872V708L212 236ZM212 24V216H1348V24H212Z"/><glyph unicode="◊" horiz-adv-x="1152" d="M472 -48L68 756L472 1560H656L1084 756L656 -48H472ZM556 152L876 768L572 1356L252 740L556 152Z"/><glyph unicode="" horiz-adv-x="1692" d="M1661 725L1335 444Q1307 421 1282 421Q1261 421 1245 437T1228 479Q1228 493 1249 592H979V360Q1075 382 1091 382Q1117 382 1133 365T1150 329Q1150 304 1126 274L846 -51L565 274Q542 303 542 328Q542 348 558 365T601 382Q617 382 713 360V592H442Q464 496 464 480Q464 453 447 437T410 421Q385 421 356 444L31 725L356 1006Q385 1029 410 1029Q430 1029 447 1013T464 970Q464 954 442 858H713V1073Q614 1052 599 1052Q574 1052 558 1068T542 1106Q542 1130 565 1159L846 1485L1126 1159Q1150 1129 1150 1105Q1150 1085 1135 1069T1093 1052Q1078 1052 979 1073V858H1249Q1228 957 1228 972Q1228 997 1244 1013T1282 1029Q1307 1029 1335 1006L1661 725Z"/><glyph unicode="ﬁ" horiz-adv-x="1393" d="M1298 1335Q1298 1253 1240 1203T1083 1153Q989 1153 931 1203T872 1335Q872 1414 932 1463T1083 1513Q1178 1513 1238 1464T1298 1335ZM725 1204Q677 1227 618 1227Q576 1227 561 1212T545 1159V1075H711V786H551V0H188V786H74V1075H188V1180Q188 1344 261 1415T492 1487Q640 1487 725 1442V1204ZM1268 0H899V1075H1268V0Z"/><glyph unicode="ﬂ" horiz-adv-x="1393" d="M1268 0H899V1346L1268 1493V0ZM725 1204Q677 1227 618 1227Q576 1227 561 1212T545 1159V1075H711V786H551V0H188V786H74V1075H188V1180Q188 1344 261 1415T492 1487Q640 1487 725 1442V1204Z"/></font>
</defs>
</svg>
