<?xml version="1.0" encoding="UTF-8"?><svg xmlns="http://www.w3.org/2000/svg" width="100%" height="100%"><defs><font id="web" horiz-adv-x="1017"><!--



NOTICE: This font software is the valuable property 
of Webtype LLC, The Font Bureau, Webtype and/or its 
suppliers and its use by you is covered under the terms 
of the Web Font license agreement between you and Webtype 
LLC. You may ONLY use this font software with the licensed 
web site. Except as specifically permitted by the license, 
you may not copy this font software. If you have any 
questions, please contact Webtype.com. 

For more information, please visit http://www.webtype.com/store/license/?id=23

Licensed to: mazdausa.com

Serial number: SH-1163
--><font-face font-family="" units-per-em="2048" panose-1="2 0 5 6 4 0 0 2 0 4" ascent="1966" descent="-492" alphabetic="0"/><missing-glyph horiz-adv-x="530"/><glyph unicode=" " horiz-adv-x="530"/><glyph unicode="!" horiz-adv-x="559" d="M446 842L393 446H166L111 842V1434H446V842ZM463 160Q463 121 450 88T412 30T353 -9T279 -23Q239 -23 205 -9T147 29T108 87T94 160Q94 200 108 233T146 291T205 328T279 342Q319 342 353 329T411 291T449 234T463 160Z"/><glyph unicode="&quot;" horiz-adv-x="1053" d="M958 1434L891 764H657L588 1434H958ZM463 1434L395 764H162L92 1434H463Z"/><glyph unicode="#" horiz-adv-x="1294" d="M1217 279H1053V0H745V279H549V0H242V279H78V543H242V891H78V1155H242V1434H549V1155H745V1434H1053V1155H1217V891H1053V543H1217V279ZM758 530V903H537V530H758Z"/><glyph unicode="$" horiz-adv-x="1061" d="M985 399Q985 322 964 259T904 146T811 63T690 10V-170H362V6Q312 19 270 40T189 91T117 157T49 238L272 438Q345 352 409 308T526 264Q580 264 614 292T649 379Q649 409 643 434T618 482T562 529T465 580Q358 627 284 672T164 771T97 889T76 1038Q76 1107 95 1168T151 1280T241 1366T362 1423V1604H690V1425Q734 1413 771 1394T843 1349T908 1291T971 1219L743 1016Q706 1060 678 1089T624 1136T571 1161T510 1169Q485 1169 466 1161T434 1138T415 1106T408 1067Q408 1038 416 1015T444 971T500 930T590 885Q698 837 773 789T896 685T964 559T985 399Z"/><glyph unicode="%" horiz-adv-x="1855" d="M760 1012Q760 902 735 818T662 678T550 592T403 563Q322 563 258 591T148 676T78 815T53 1008Q53 1117 78 1201T149 1341T261 1427T408 1456Q489 1456 554 1428T664 1344T735 1205T760 1012ZM1444 1434L690 0H412L1165 1434H1444ZM1802 426Q1802 316 1777 232T1705 92T1593 6T1446 -23Q1365 -23 1301 5T1191 90T1121 229T1096 422Q1096 532 1121 615T1192 755T1304 841T1450 870Q1531 870 1596 842T1706 758T1777 619T1802 426ZM489 1008Q489 1076 485 1121T470 1192T444 1230T406 1241Q383 1241 367 1231T342 1195T328 1125T324 1012Q324 943 328 898T343 827T369 789T408 778Q431 778 446 788T471 824T485 894T489 1008ZM1532 422Q1532 490 1527 535T1512 606T1486 644T1448 655Q1425 655 1409 645T1384 609T1370 539T1366 426Q1366 358 1371 313T1386 242T1412 204T1450 193Q1473 193 1488 203T1514 239T1528 309T1532 422Z"/><glyph unicode="&amp;" horiz-adv-x="1130" d="M1133 0H782L717 104Q682 67 647 43T573 4T494 -17T408 -23Q224 -23 133 75T41 356Q41 480 106 591T279 801L242 858Q200 922 174 983T147 1116Q147 1199 176 1262T257 1369T382 1434T541 1456Q613 1456 668 1445T768 1412T852 1359T932 1286L743 1053Q699 1095 669 1119T617 1156T575 1172T535 1176Q500 1176 484 1155T467 1112Q467 1078 477 1047T510 981L723 645Q742 688 760 737T801 842L1059 739Q1014 628 974 538T895 373L1133 0ZM571 332L426 563Q388 523 369 483T350 389Q350 323 373 286T453 248Q484 248 511 266T571 332Z"/><glyph unicode="'" horiz-adv-x="578" d="M479 1434L410 764H166L98 1434H479Z"/><glyph unicode="(" horiz-adv-x="696" d="M631 -94L408 -225Q335 -135 274 -41T170 156T102 373T78 618Q78 753 102 869T169 1090T274 1288T408 1473L631 1341Q580 1257 543 1173T481 1001T446 820T434 627Q434 524 445 430T481 247T542 74T631 -94Z"/><glyph unicode=")" horiz-adv-x="696" d="M616 627Q616 492 592 376T525 157T421 -41T287 -225L63 -94Q115 -10 153 74T215 246T250 426T262 618Q262 722 251 816T215 999T153 1172T63 1341L287 1473Q360 1382 420 1288T524 1091T592 873T616 627Z"/><glyph unicode="*" horiz-adv-x="963" d="M915 911L780 682L559 877L614 586H348L401 879L180 686L45 911L336 1010L45 1110L180 1337L401 1143L348 1434H614L559 1145L780 1339L915 1112L623 1012L915 911Z"/><glyph unicode="+" horiz-adv-x="1049" d="M971 557H682V242H367V557H78V852H367V1167H682V852H971V557Z"/><glyph unicode="," horiz-adv-x="535" d="M465 354L291 -240H88L119 354H465Z"/><glyph unicode="-" horiz-adv-x="760" d="M659 580H98V903H659V580Z"/><glyph unicode="." horiz-adv-x="535" d="M465 174Q465 131 451 95T410 33T347 -8T268 -23Q225 -23 189 -9T127 32T85 95T70 174Q70 217 85 253T126 314T189 354T268 369Q311 369 347 355T409 315T450 253T465 174Z"/><glyph unicode="/" horiz-adv-x="809" d="M840 1618L295 -184H-31L514 1618H840Z"/><glyph unicode="0" horiz-adv-x="1120" d="M1057 719Q1057 533 1023 394T925 162T767 23T557 -23Q440 -23 349 22T194 160T97 390T63 715Q63 901 97 1040T195 1271T352 1410T561 1456Q678 1456 770 1410T926 1272T1023 1042T1057 719ZM713 715Q713 846 704 932T675 1070T627 1142T559 1163Q521 1163 493 1143T445 1073T417 936T408 719Q408 587 417 501T446 363T494 291T561 270Q600 270 628 290T675 361T703 498T713 715Z"/><glyph unicode="1" horiz-adv-x="682" d="M571 0H236V1051H47V1262Q102 1266 142 1277T211 1309T258 1360T289 1434H571V0Z"/><glyph unicode="2" horiz-adv-x="1085" d="M985 0H74Q78 170 107 294T191 515T322 687T502 838Q545 870 574 897T622 948T647 998T655 1053Q655 1104 626 1136T551 1169Q519 1169 491 1163T434 1140T373 1091T301 1010L78 1194Q125 1257 173 1306T279 1388T403 1438T555 1456Q658 1456 737 1429T870 1353T951 1235T979 1081Q979 1019 967 965T926 859T848 758T727 655Q646 596 592 547T505 455T454 370T430 285H985V0Z"/><glyph unicode="3" horiz-adv-x="1073" d="M999 428Q999 315 966 231T869 90T717 5T516 -23Q435 -23 369 -5T247 48T142 135T49 252L283 428Q336 342 392 301T520 260Q594 260 633 302T672 424Q672 477 662 513T629 571T572 604T489 614H369V887H492Q573 887 605 926T637 1040Q637 1102 606 1140T514 1178Q451 1178 400 1143T291 1032L76 1217Q114 1268 158 1312T256 1388T376 1438T524 1456Q627 1456 709 1432T848 1360T935 1244T965 1083Q965 1019 951 969T913 881T856 814T786 768Q826 756 864 731T933 665T981 566T999 428Z"/><glyph unicode="4" horiz-adv-x="1124" d="M1073 276H946V0H651V283H49V518L625 1434H946V553H1073V276ZM662 1032Q640 978 608 913T537 784L510 741Q472 679 442 634T383 549Q423 552 469 552T567 553H653V739Q653 770 653 808T655 887T657 965T662 1032Z"/><glyph unicode="5" horiz-adv-x="1106" d="M1028 494Q1028 371 996 275T901 113T745 12T528 -23Q454 -23 390 -6T269 42T162 120T66 223L283 426Q349 344 408 302T537 260Q626 260 664 314T702 485Q702 600 667 653T557 707Q526 707 503 701T460 684T423 656T389 616L111 688L150 1434H969V1151H426L414 922Q435 935 455 946T501 966T559 978T637 983Q729 983 801 952T924 860T1001 707T1028 494Z"/><glyph unicode="6" horiz-adv-x="1085" d="M1026 471Q1026 352 992 260T894 105T739 10T532 -23Q426 -23 340 11T192 113T97 283T63 520Q63 692 105 848T238 1130T468 1342T805 1462L887 1202Q785 1179 705 1144T565 1062T462 959T391 840Q439 877 499 898T647 920Q732 920 802 893T921 811T998 671T1026 471ZM700 449Q700 558 661 607T547 657Q463 657 425 608T387 446Q387 344 424 297T543 250Q615 250 657 295T700 449Z"/><glyph unicode="7" horiz-adv-x="1067" d="M983 1169Q900 1072 840 982T738 804T669 626T628 439T608 233T602 0H274Q275 165 292 317T348 612T452 888T614 1149H61V1434H983V1169Z"/><glyph unicode="8" horiz-adv-x="1120" d="M1053 436Q1053 325 1019 239T920 95T763 7T557 -23Q444 -23 353 7T199 96T101 240T66 436Q66 507 81 561T122 656T180 725T244 774Q215 794 190 821T146 883T115 961T104 1055Q104 1145 137 1218T230 1345T374 1427T561 1456Q667 1456 751 1427T894 1344T984 1217T1016 1055Q1016 1004 1005 963T975 887T930 827T874 778Q907 758 939 729T997 658T1037 562T1053 436ZM696 1044Q696 1120 663 1159T559 1198Q487 1198 456 1161T424 1049Q424 983 456 940T561 897Q633 897 664 938T696 1044ZM729 442Q729 545 685 592T557 639Q473 639 432 592T391 444Q391 339 434 294T561 248Q644 248 686 293T729 442Z"/><glyph unicode="9" horiz-adv-x="1085" d="M1020 913Q1020 741 978 585T846 304T616 91T281 -29L199 231Q301 254 381 290T521 372T623 475T692 594Q645 557 586 536T438 514Q352 514 282 541T162 623T85 762T57 963Q57 1082 91 1174T190 1328T347 1423T553 1456Q658 1456 744 1422T892 1320T986 1150T1020 913ZM698 987Q698 1089 660 1136T541 1184Q505 1184 477 1173T428 1138T396 1077T385 985Q385 876 423 826T537 776Q620 776 659 825T698 987Z"/><glyph unicode=":" horiz-adv-x="535" d="M461 907Q461 865 447 830T407 768T346 728T268 713Q226 713 191 727T129 768T89 829T74 907Q74 949 88 984T129 1045T190 1084T268 1098Q310 1098 345 1084T406 1045T446 985T461 907ZM461 170Q461 128 447 93T407 32T346 -8T268 -23Q226 -23 191 -9T129 31T89 92T74 170Q74 212 88 247T129 308T190 348T268 362Q310 362 345 348T406 309T446 248T461 170Z"/><glyph unicode=";" horiz-adv-x="535" d="M461 907Q461 865 447 830T407 768T346 728T268 713Q225 713 190 727T129 768T89 829T74 907Q74 949 88 984T128 1045T189 1084T268 1098Q310 1098 345 1084T406 1045T446 985T461 907ZM440 348L270 -238H72L100 348H440Z"/><glyph unicode="&lt;" horiz-adv-x="803" d="M709 61L82 580V840L709 1360V946L393 713L709 481V61Z"/><glyph unicode="=" horiz-adv-x="1075" d="M950 788H125V1104H950V788ZM950 305H125V621H950V305Z"/><glyph unicode="&gt;" horiz-adv-x="803" d="M721 580L94 61V475L410 707L94 940V1360L721 840V580Z"/><glyph unicode="?" horiz-adv-x="961" d="M915 1085Q915 1026 903 978T868 887T809 806T727 729Q689 698 664 669T623 606T601 534T594 446H291Q291 524 301 584T333 694T393 786T485 872Q541 917 566 961T592 1059Q592 1107 562 1138T485 1169Q453 1169 425 1160T368 1131T313 1082T254 1014L31 1208Q77 1268 126 1314T230 1391T351 1439T494 1456Q594 1456 672 1429T805 1352T887 1235T915 1085ZM625 160Q625 121 612 88T574 30T515 -9T440 -23Q400 -23 367 -9T309 29T270 87T256 160Q256 200 270 233T308 291T366 328T440 342Q481 342 515 329T573 291T611 234T625 160Z"/><glyph unicode="@" horiz-adv-x="1350" d="M1270 737Q1270 620 1253 540T1205 409T1127 337T1022 315Q947 315 900 340T823 403Q769 360 714 337T590 313Q493 313 439 382T385 584Q385 649 400 698T444 781T513 831T602 848Q650 848 685 840T752 811V885Q752 936 730 955T655 975Q612 975 572 965T483 926L420 1067Q477 1101 544 1122T688 1143Q816 1143 877 1080T938 891V569Q938 504 957 472T1024 440Q1052 440 1073 454T1107 503T1126 595T1133 739Q1133 875 1100 984T1005 1169T860 1286T676 1327Q568 1327 483 1284T338 1161T248 969T217 719Q217 575 249 462T342 269T487 148T678 106Q737 106 791 122T891 164L948 49Q886 15 818 -4T676 -23Q545 -23 436 30T247 179T124 412T80 717Q80 880 122 1016T243 1250T431 1402T676 1456Q810 1456 919 1401T1107 1249T1227 1021T1270 737ZM752 512V670Q730 682 706 687T653 692Q612 692 591 670T569 586Q569 530 589 505T653 479Q679 479 706 489T752 512Z"/><glyph unicode="A" horiz-adv-x="1165" d="M1128 0H776L723 266H440L389 0H37L408 1434H760L1128 0ZM666 545L657 592Q633 734 612 851T580 1067Q570 968 550 851T504 590L496 545H666Z"/><glyph unicode="B" horiz-adv-x="1120" d="M1055 440Q1055 336 1028 254T946 116T806 30T608 0H104V1434H616Q828 1434 930 1339T1032 1055Q1032 996 1021 951T987 871T935 809T866 762Q910 742 945 714T1004 646T1042 556T1055 440ZM698 1024Q698 1098 671 1132T584 1167H432V874H588Q698 874 698 1024ZM719 434Q719 527 687 569T592 612H432V266H596Q656 266 687 307T719 434Z"/><glyph unicode="C" horiz-adv-x="1098" d="M1040 397Q1016 299 980 222T889 90T756 6T571 -23Q320 -23 193 165T66 715Q66 901 100 1040T200 1272T360 1410T575 1456Q688 1456 766 1425T898 1336T983 1196T1036 1010L705 920Q696 980 686 1025T662 1100T626 1145T573 1161Q532 1161 503 1138T456 1062T429 925T420 719Q420 595 428 510T456 372T505 296T578 272Q608 272 628 284T665 323T695 395T723 506L1040 397Z"/><glyph unicode="D" horiz-adv-x="1143" d="M1073 727Q1073 533 1037 396T927 170T745 41T489 0H104V1434H520Q659 1434 763 1393T936 1265T1039 1045T1073 727ZM723 721Q723 852 712 935T676 1066T609 1131T508 1149H446V283H500Q560 283 602 300T671 366T710 499T723 721Z"/><glyph unicode="E" horiz-adv-x="1030" d="M958 0H104V1434H944V1141H444V895H770V604H444V293H958V0Z"/><glyph unicode="F" horiz-adv-x="1016" d="M965 1139H446V889H784V596H446V0H104V1434H965V1139Z"/><glyph unicode="G" horiz-adv-x="1141" d="M1071 543Q1071 412 1041 308T949 130T794 17T575 -23Q454 -23 360 22T200 160T100 391T66 717Q66 896 98 1034T194 1265T355 1407T582 1456Q695 1456 773 1427T905 1343T992 1209T1049 1028L721 934Q709 992 698 1035T672 1106T634 1147T580 1161Q535 1161 504 1138T455 1063T428 926T420 717Q420 584 430 497T461 359T515 287T596 266Q679 266 713 313T748 446V506H582V768H1071V543Z"/><glyph unicode="H" horiz-adv-x="1190" d="M1085 0H739V600H451V0H104V1434H451V899H739V1434H1085V0Z"/><glyph unicode="I" horiz-adv-x="569" d="M457 0H111V1434H457V0Z"/><glyph unicode="J" horiz-adv-x="1087" d="M987 492Q987 244 870 111T512 -23Q396 -23 313 9T172 100T81 241T31 424L360 502Q372 446 384 404T413 333T456 289T518 274Q581 274 611 320T641 457V1434H987V492Z"/><glyph unicode="K" horiz-adv-x="1151" d="M1126 0H743L537 602L451 477V0H104V1434H451V1266Q451 1167 450 1077T444 905Q460 945 482 992T530 1089T580 1187T629 1278L713 1434H1100L793 913L1126 0Z"/><glyph unicode="L" horiz-adv-x="948" d="M895 0H104V1434H449V299H895V0Z"/><glyph unicode="M" horiz-adv-x="1356" d="M1249 0H940V317Q940 433 941 536T948 733Q937 691 922 638T888 529T851 417T813 313L678 -45L543 313Q525 361 506 416T469 528T435 638T408 733Q411 643 413 538T416 317V0H104V1434H416L543 1081Q566 1017 587 955T626 835T657 728T678 641Q685 678 698 727T730 833T769 953T815 1083L940 1434H1249V0Z"/><glyph unicode="N" horiz-adv-x="1192" d="M1085 0H811L600 412Q570 470 542 527T489 635T445 730T416 805Q419 774 421 727T424 626T425 514T426 406V0H104V1434H403L586 1106Q617 1050 646 992T701 879T746 780T776 705Q773 734 771 782T767 888T765 1004T764 1112V1434H1085V0Z"/><glyph unicode="O" horiz-adv-x="1157" d="M1092 719Q1092 529 1057 390T955 159T792 22T575 -23Q455 -23 360 21T200 156T101 386T66 715Q66 905 101 1044T202 1275T363 1411T580 1456Q700 1456 795 1412T956 1277T1057 1047T1092 719ZM739 715Q739 845 729 931T698 1068T648 1140T578 1161Q537 1161 507 1141T457 1070T428 934T418 719Q418 589 428 503T459 366T509 293T580 272Q620 272 649 292T699 363T729 499T739 715Z"/><glyph unicode="P" horiz-adv-x="1077" d="M1032 987Q1032 859 998 771T901 626T752 545T563 520H440V0H104V1434H588Q684 1434 765 1411T906 1335T998 1197T1032 987ZM692 979Q692 1074 661 1114T557 1155H440V799H551Q625 799 658 840T692 979Z"/><glyph unicode="Q" horiz-adv-x="1157" d="M1098 113L911 -68L809 41Q756 10 699 -6T575 -23Q455 -23 360 21T200 156T101 386T66 715Q66 905 101 1044T202 1275T363 1411T580 1456Q700 1456 795 1412T956 1277T1057 1047T1092 719Q1092 566 1064 444T985 229L1098 113ZM739 715Q739 845 729 931T698 1068T648 1140T578 1161Q537 1161 507 1141T457 1070T428 934T418 719Q418 572 428 482T459 343T509 278T580 262H598L494 373L678 553L735 492Q737 537 738 591T739 715Z"/><glyph unicode="R" horiz-adv-x="1128" d="M1065 0H700L532 549H440V0H104V1434H600Q697 1434 778 1411T919 1336T1011 1201T1044 997Q1044 857 994 765T856 621L1065 0ZM705 987Q705 1077 676 1119T575 1161H440V811H569Q644 811 674 854T705 987Z"/><glyph unicode="S" horiz-adv-x="1061" d="M995 399Q995 298 960 220T863 87T715 5T530 -23Q446 -23 379 -6T256 43T152 121T59 227L293 438Q365 352 424 308T537 264Q591 264 625 292T659 379Q659 409 653 434T628 482T572 529T475 580Q368 627 294 672T174 771T107 889T86 1038Q86 1126 117 1202T205 1334T345 1423T530 1456Q613 1456 677 1441T794 1398T891 1327T981 1229L743 1016Q706 1060 680 1089T629 1136T579 1161T520 1169Q496 1169 477 1161T445 1138T425 1106T418 1067Q418 1038 426 1015T454 971T510 930T600 885Q708 837 783 789T906 685T974 559T995 399Z"/><glyph unicode="T" horiz-adv-x="1030" d="M977 1135H686V0H344V1135H53V1434H977V1135Z"/><glyph unicode="U" horiz-adv-x="1180" d="M1079 502Q1079 366 1045 267T947 104T792 8T586 -23Q475 -23 385 8T231 103T133 264T98 494V1434H444V483Q444 380 479 327T592 274Q667 274 700 327T733 483V1434H1079V502Z"/><glyph unicode="V" horiz-adv-x="1133" d="M1094 1434L737 0H395L37 1434H401L477 1014Q490 943 504 860T531 696T554 539T569 410Q574 464 584 539T606 695T631 860T657 1014L731 1434H1094Z"/><glyph unicode="W" horiz-adv-x="1473" d="M1423 1434L1176 0H858L813 283Q800 364 787 447T764 608T746 751T735 864Q732 817 725 751T707 609T684 449T657 283L610 0H297L49 1434H383L416 1171Q424 1104 432 1027T449 871T463 715T473 569Q478 636 487 713T506 869T528 1025T549 1169L588 1434H885L926 1169Q936 1102 947 1025T969 869T987 713T1001 569Q1005 637 1011 714T1026 870T1042 1026T1059 1171L1090 1434H1423Z"/><glyph unicode="X" horiz-adv-x="1124" d="M1087 0H715L657 156Q626 241 601 318T559 461Q544 395 518 318T459 156L399 0H37L373 731L49 1434H422L469 1311Q501 1226 525 1151T565 1010Q581 1076 606 1151T664 1311L711 1434H1073L750 739L1087 0Z"/><glyph unicode="Y" horiz-adv-x="1153" d="M1133 1434L750 555V0H406V549L20 1434H399L465 1243Q505 1125 536 1018T580 829Q591 911 622 1018T694 1243L760 1434H1133Z"/><glyph unicode="Z" horiz-adv-x="1067" d="M975 0H86V258L410 836Q432 876 457 921T508 1009T555 1089T594 1153Q565 1152 530 1152T456 1151T378 1150T301 1149H115V1434H973V1176L649 600Q626 558 601 513T550 424T503 344T465 281Q494 282 529 282T603 283T680 284T756 285H975V0Z"/><glyph unicode="[" horiz-adv-x="756" d="M643 -207H113V1434H643V1167H432V59H643V-207Z"/><glyph unicode="\" horiz-adv-x="809" d="M840 -184H514L-31 1618H295L840 -184Z"/><glyph unicode="]" horiz-adv-x="756" d="M641 -207H111V59H322V1167H111V1434H641V-207Z"/><glyph unicode="^" horiz-adv-x="973" d="M924 762H596L485 1124L375 762H49L344 1434H627L924 762Z"/><glyph unicode="_" horiz-adv-x="762" d="M762 -381H0V-131H762V-381Z"/><glyph unicode="`" horiz-adv-x="850" d="M645 1208H424L133 1536H498L645 1208Z"/><glyph unicode="a" horiz-adv-x="926" d="M848 0H539V61Q495 23 445 0T332 -23Q198 -23 126 66T53 340Q53 517 136 605T369 694Q426 694 466 685T539 659V743Q539 802 513 826T430 850Q367 850 310 831T186 768L96 987Q177 1037 273 1067T481 1098Q670 1098 759 1013T848 756V0ZM539 246V459Q517 470 493 475T432 481Q390 481 369 450T348 344Q348 276 368 244T434 211Q466 211 493 220T539 246Z"/><glyph unicode="b" horiz-adv-x="948" d="M891 543Q891 397 872 291T814 114T720 11T592 -23Q530 -23 484 2T399 59V0H84V1370L399 1493V1012Q419 1030 440 1046T486 1073T538 1091T600 1098Q668 1098 722 1065T813 962T871 789T891 543ZM578 535Q578 632 573 690T556 779T528 821T489 831Q462 831 441 822T399 795V283Q418 266 439 255T492 244Q513 244 529 253T556 294T572 382T578 535Z"/><glyph unicode="c" horiz-adv-x="879" d="M836 293Q807 212 772 153T692 54T592 -4T467 -23Q372 -23 296 9T166 110T84 284T55 535Q55 1098 473 1098Q548 1098 605 1076T704 1012T777 914T829 786L580 668Q569 714 559 746T536 797T507 825T469 834Q442 834 423 819T392 768T375 676T369 535Q369 452 375 396T393 306T426 257T475 242Q494 242 510 250T540 277T569 330T600 414L836 293Z"/><glyph unicode="d" horiz-adv-x="948" d="M864 0H549V63Q511 26 463 2T348 -23Q211 -23 134 113T57 532Q57 678 76 785T134 961T228 1064T356 1098Q418 1098 465 1073T549 1016V1370L864 1493V0ZM549 281V793Q530 810 509 820T457 831Q435 831 419 822T393 782T377 694T371 541Q371 444 376 386T392 296T419 254T459 244Q487 244 508 254T549 281Z"/><glyph unicode="e" horiz-adv-x="909" d="M854 446H350Q353 381 363 339T388 271T426 236T475 225Q499 225 520 230T561 250T603 287T649 346L836 199Q802 149 765 108T683 38T584 -7T461 -23Q360 -23 284 15T157 125T81 300T55 532Q55 810 160 954T461 1098Q651 1098 752 955T854 522V446ZM567 653Q564 709 557 748T536 812T502 848T455 860Q431 860 413 850T382 816T362 752T350 653H567Z"/><glyph unicode="f" horiz-adv-x="637" d="M610 1227Q590 1235 568 1239T520 1243Q483 1243 468 1227T453 1174V1075H590V815H455V0H145V815H51V1075H145V1208Q145 1281 164 1334T218 1421T302 1471T414 1487Q482 1487 529 1480T610 1458V1227Z"/><glyph unicode="g" horiz-adv-x="948" d="M864 113Q864 -17 835 -105T745 -252T587 -343T358 -395L264 -188Q352 -174 408 -158T495 -116T537 -54T549 41V68Q511 30 463 6T348 -18Q280 -18 226 15T135 116T77 287T57 532Q57 678 76 785T134 961T228 1064T356 1098Q418 1098 465 1073T549 1016V1075H864V113ZM549 281V793Q530 810 509 820T457 831Q435 831 419 822T393 782T377 694T371 541Q371 444 376 386T392 296T419 254T459 244Q487 244 508 254T549 281Z"/><glyph unicode="h" horiz-adv-x="969" d="M891 0H575V707Q575 827 498 827Q467 827 444 816T399 786V0H84V1370L399 1493V1014Q420 1032 442 1047T491 1073T548 1091T618 1098Q752 1098 821 1016T891 762V0Z"/><glyph unicode="i" horiz-adv-x="496" d="M426 1339Q426 1302 413 1272T377 1221T321 1188T248 1176Q209 1176 176 1187T120 1220T83 1272T70 1339Q70 1375 83 1404T119 1455T176 1487T248 1499Q288 1499 320 1488T376 1455T413 1405T426 1339ZM406 0H90V1075H406V0Z"/><glyph unicode="j" horiz-adv-x="496" d="M426 1339Q426 1302 413 1272T377 1221T321 1188T248 1176Q209 1176 176 1187T120 1220T83 1272T70 1339Q70 1375 83 1404T119 1455T176 1487T248 1499Q288 1499 320 1488T376 1455T413 1405T426 1339ZM406 35Q406 -79 382 -155T306 -279T174 -353T-18 -395L-98 -170Q-42 -160 -6 -148T52 -115T81 -65T90 10V1075H406V35Z"/><glyph unicode="k" horiz-adv-x="946" d="M920 0H590L463 459L399 352V0H84V1370L399 1493V999Q399 967 399 930T397 856T394 783T391 719Q403 743 418 774T452 840T490 915T532 993L578 1075H913L692 741L920 0Z"/><glyph unicode="l" horiz-adv-x="496" d="M406 0H90V1370L406 1493V0Z"/><glyph unicode="m" horiz-adv-x="1446" d="M1368 0H1053V707Q1053 827 979 827Q951 827 928 816T883 786V0H569V707Q569 827 496 827Q468 827 445 816T399 786V0H84V1075H399V1014Q437 1048 487 1073T612 1098Q656 1098 690 1092T753 1073T804 1041T848 997Q898 1042 956 1070T1098 1098Q1235 1098 1301 1017T1368 762V0Z"/><glyph unicode="n" horiz-adv-x="969" d="M891 0H575V707Q575 827 498 827Q467 827 444 816T399 786V0H84V1075H399V1014Q420 1032 442 1047T491 1073T548 1091T618 1098Q752 1098 821 1016T891 762V0Z"/><glyph unicode="o" horiz-adv-x="944" d="M889 541Q889 263 781 120T469 -23Q371 -23 295 12T165 118T83 293T55 535Q55 808 161 953T473 1098Q572 1098 649 1063T780 957T861 783T889 541ZM575 537Q575 623 569 680T551 771T519 820T471 834Q443 834 424 820T392 771T375 680T369 541Q369 457 374 400T392 308T424 257T473 242Q500 242 519 257T551 307T569 398T575 537Z"/><glyph unicode="p" horiz-adv-x="948" d="M891 543Q891 397 872 291T814 114T720 11T592 -23Q530 -23 484 2T399 59V-272L84 -395V1075H399V1012Q419 1030 440 1046T486 1073T538 1091T600 1098Q668 1098 722 1065T813 962T871 789T891 543ZM578 535Q578 632 573 690T556 779T528 821T489 831Q462 831 441 822T399 795V283Q418 266 439 255T492 244Q513 244 529 253T556 294T572 382T578 535Z"/><glyph unicode="q" horiz-adv-x="948" d="M864 -272L549 -395V63Q511 26 463 2T348 -23Q211 -23 134 113T57 532Q57 678 76 785T134 961T228 1064T356 1098Q418 1098 465 1073T549 1016V1075H864V-272ZM549 281V793Q530 810 509 820T457 831Q435 831 419 822T393 782T377 694T371 541Q371 444 376 386T392 296T419 254T459 244Q487 244 508 254T549 281Z"/><glyph unicode="r" horiz-adv-x="735" d="M711 1069L655 739Q624 768 593 785T518 803Q470 803 440 780T399 698V0H84V1075H399V1010Q437 1050 480 1074T580 1098Q628 1098 657 1090T711 1069Z"/><glyph unicode="s" horiz-adv-x="866" d="M805 309Q805 228 778 166T700 62T580 -1T426 -23Q370 -23 322 -14T230 12T142 56T53 117L205 340Q248 306 280 284T338 250T385 232T428 227Q463 227 487 245T512 299Q512 317 509 331T494 357T462 381T406 408Q312 446 250 482T151 561T99 654T84 774Q84 847 107 907T175 1009T286 1075T440 1098Q498 1098 545 1089T634 1064T714 1023T793 969L641 745Q603 776 575 796T523 828T480 843T440 848Q405 848 389 831T373 788Q373 770 376 756T392 730T426 706T485 678Q575 641 636 604T734 524T788 429T805 309Z"/><glyph unicode="t" horiz-adv-x="725" d="M659 295L625 20Q578 0 527 -11T414 -23Q289 -23 226 45T162 264V815H43V1075H162V1372L469 1493V1075H651V815H469V344Q469 295 487 275T541 254Q573 254 599 263T659 295Z"/><glyph unicode="u" horiz-adv-x="969" d="M885 0H569V61Q528 26 477 2T348 -23Q214 -23 146 59T78 313V1075H393V369Q393 248 471 248Q502 248 525 259T569 289V1075H885V0Z"/><glyph unicode="v" horiz-adv-x="940" d="M918 1075L627 0H311L23 1075H352L406 801Q416 750 425 691T443 570T458 445T469 326Q473 383 480 445T496 570T515 691T535 801L588 1075H918Z"/><glyph unicode="w" horiz-adv-x="1266" d="M1237 1075L1016 0H733L700 184Q689 245 679 313T660 449T643 577T631 686Q625 638 618 577T601 449T582 313T559 182L526 0H250L29 1075H326L346 924Q350 893 355 851T365 763T375 668T385 574T393 490T399 424Q402 451 407 490T418 574T431 667T445 762T458 851T471 924L498 1075H772L799 924Q804 892 811 850T824 761T838 666T851 573T862 490T870 424Q872 451 876 489T884 573T894 666T904 761T915 850T924 924L942 1075H1237Z"/><glyph unicode="x" horiz-adv-x="942" d="M922 0H588L549 102Q529 155 506 215T465 330Q448 276 427 216T385 102L346 0H20L305 555L47 1075H381L397 1032Q425 960 444 896T475 778Q488 832 507 896T553 1032L569 1075H895L635 567L922 0Z"/><glyph unicode="y" horiz-adv-x="961" d="M938 1075L530 -379H225L340 -31L23 1075H352L406 807Q420 733 432 666T454 537T470 417T481 301Q486 358 492 416T508 536T530 666T557 809L610 1075H938Z"/><glyph unicode="z" horiz-adv-x="893" d="M813 0H70V233L291 573Q345 657 386 717T459 819Q437 818 410 817T354 815T295 814T238 813H96V1075H813V842L594 502Q541 421 499 360T424 256Q445 257 472 258T528 260T587 261T645 262H813V0Z"/><glyph unicode="{" horiz-adv-x="823" d="M750 -225Q609 -225 510 -200T347 -125T255 1T225 176V358Q225 424 196 451T115 479H55V745H115Q166 745 195 773T225 868V1049Q225 1149 254 1224T347 1349T509 1424T750 1450V1219Q693 1213 657 1200T600 1163T571 1106T563 1022V924Q563 843 551 789T514 701T450 647T356 614Q411 599 450 579T514 525T551 436T563 301V203Q563 154 571 120T599 62T656 26T750 6V-225Z"/><glyph unicode="|" horiz-adv-x="543" d="M428 -379H115V1638H428V-379Z"/><glyph unicode="}" horiz-adv-x="823" d="M768 479H709Q658 479 628 451T598 356V176Q598 76 569 1T477 -124T315 -200T74 -225V6Q131 12 167 25T223 62T252 119T260 203V301Q260 382 272 435T309 523T373 578T467 612Q413 626 374 646T309 700T272 789T260 924V1022Q260 1071 252 1105T224 1163T167 1199T74 1219V1450Q215 1450 314 1425T477 1349T569 1224T598 1049V868Q598 800 628 773T709 745H768V479Z"/><glyph unicode="~" horiz-adv-x="979" d="M920 895Q891 806 861 744T798 644T726 588T639 571Q607 571 584 576T541 591T502 614T459 645Q417 674 396 685T358 696Q347 696 338 693T319 676T297 636T266 563L59 633Q88 722 118 783T181 882T253 937T340 954Q372 954 395 949T439 935T478 912T520 883Q563 852 583 842T621 831Q632 831 641 834T660 851T682 891T713 963L920 895Z"/><glyph unicode=" " horiz-adv-x="266"/><glyph unicode="¡" horiz-adv-x="559" d="M465 1274Q465 1234 451 1201T413 1143T355 1106T281 1092Q240 1092 206 1105T148 1143T110 1200T96 1274Q96 1313 109 1346T147 1404T206 1442T281 1456Q321 1456 354 1442T412 1404T451 1347T465 1274ZM449 0H113V592L166 987H393L449 592V0Z"/><glyph unicode="¢" horiz-adv-x="879" d="M836 483Q794 368 741 297T612 195V-23H303V197Q186 244 121 374T55 725Q55 1160 303 1257V1456H612V1264Q695 1230 746 1156T829 977L580 858Q569 904 559 936T536 987T507 1015T469 1024Q442 1024 423 1009T392 958T375 866T369 725Q369 643 375 587T393 497T426 447T475 432Q494 432 510 440T540 467T569 520T600 604L836 483Z"/><glyph unicode="£" horiz-adv-x="1090" d="M1022 1182L807 1022Q780 1067 753 1097T698 1144T639 1169T573 1176Q513 1176 489 1148T465 1065Q465 1030 473 997T496 936Q513 902 528 865T555 788H795V543H567Q562 500 553 464T531 396T502 335T465 274H999V0H106V244Q137 278 163 310T208 377T240 452T258 543H117V788H233Q224 813 214 837T190 887Q169 930 153 980T137 1090Q137 1169 164 1236T245 1352T383 1428T578 1456Q729 1456 840 1387T1022 1182Z"/><glyph unicode="¤" horiz-adv-x="1152" d="M1056 392L940 284L740 500Q668 452 572 452Q480 452 408 500L208 284L92 392L300 608Q272 648 262 686T252 780Q252 828 262 870T300 952L92 1168L208 1276L408 1060Q480 1108 572 1108Q668 1108 740 1060L944 1276L1060 1156L852 952Q880 912 890 872T900 780Q900 684 848 608L1056 392ZM748 780Q748 860 698 910T572 960Q496 960 448 910T400 780Q400 700 450 652T572 604Q652 604 700 652T748 780Z"/><glyph unicode="¥" horiz-adv-x="1133" d="M1112 1434L731 541V475H981V205H731V0H403V205H154V475H403V532L20 1434H399L465 1243Q507 1124 532 1019T569 829Q582 913 608 1019T674 1243L739 1434H1112Z"/><glyph unicode="¦" horiz-adv-x="640" d="M216 788V1636H424V788H216ZM216 -412V440H424V-412H216Z"/><glyph unicode="§" horiz-adv-x="1159" d="M1071 543Q1071 438 1029 359T913 217Q939 175 954 127T969 16Q969 -56 945 -120T873 -232T750 -308T573 -336Q502 -336 439 -319T323 -268T230 -187T164 -78L354 78Q402 7 459 -31T586 -70Q633 -70 650 -50T668 4Q668 23 663 41T642 77T597 113T520 152Q404 200 322 240T188 327T111 433T86 578Q86 682 129 760T244 901Q218 944 204 993T190 1104Q190 1176 213 1240T285 1352T409 1428T586 1456Q656 1456 719 1439T835 1388T928 1307T993 1198L803 1042Q756 1114 700 1152T573 1190Q524 1190 508 1170T492 1116Q492 1097 497 1079T517 1042T560 1006T637 969Q753 921 835 880T969 793T1046 687T1071 543ZM760 510Q760 540 750 564T714 611T647 654T543 700Q514 711 489 718T444 737Q421 709 409 679T397 610Q397 580 407 556T443 509T511 466T616 420Q644 409 668 402T715 383Q738 411 749 441T760 510Z"/><glyph unicode="¨" horiz-adv-x="850" d="M793 1368Q793 1336 780 1307T745 1256T693 1221T631 1208Q598 1208 569 1221T517 1256T482 1307T469 1368Q469 1401 482 1430T517 1481T568 1515T631 1528Q663 1528 692 1516T744 1481T780 1430T793 1368ZM381 1368Q381 1336 368 1307T333 1256T281 1221T219 1208Q186 1208 157 1221T105 1256T70 1307T57 1368Q57 1401 70 1430T105 1481T156 1515T219 1528Q251 1528 280 1516T332 1481T368 1430T381 1368Z"/><glyph unicode="©" horiz-adv-x="1350" d="M1270 717Q1270 556 1228 420T1107 186T919 32T674 -23Q539 -23 430 32T243 185T123 420T80 717Q80 878 122 1013T242 1247T429 1401T674 1456Q809 1456 919 1401T1107 1248T1227 1014T1270 717ZM1133 717Q1133 852 1102 964T1011 1157T867 1282T674 1327Q567 1327 483 1283T339 1157T249 964T217 717Q217 582 248 470T339 276T482 151T674 106Q782 106 867 150T1011 276T1101 469T1133 717ZM940 543Q926 487 906 443T854 369T780 322T676 305Q532 305 461 410T389 721Q389 933 465 1037T676 1141Q740 1141 784 1123T859 1072T907 992T938 887L758 838Q744 910 729 942T676 975Q652 975 636 962T609 919T595 841T590 723Q590 653 594 605T609 527T637 484T678 471Q695 471 707 477T730 498T750 539T768 604L940 543Z"/><glyph unicode="ª" horiz-adv-x="834" d="M729 571H479V621Q445 590 404 573T311 555Q205 555 147 627T88 846Q88 989 154 1061T342 1133Q388 1133 420 1125T479 1102V1171Q479 1218 459 1236T391 1255Q341 1255 296 1240T195 1190L123 1368Q188 1406 266 1431T436 1456Q586 1456 657 1388T729 1180V571ZM479 770V942Q462 950 442 955T393 961Q359 961 343 936T326 850Q326 794 341 768T395 741Q420 741 442 749T479 770Z"/><glyph unicode="«" horiz-adv-x="1171" d="M1102 0H778L545 537L778 1075H1102L870 539L1102 0ZM600 0H276L43 537L276 1075H600L369 539L600 0Z"/><glyph unicode="¬" horiz-adv-x="1536" d="M1116 352V728H212V920H1296V352H1116Z"/><glyph unicode="­" horiz-adv-x="760" d="M659 580H98V903H659V580Z"/><glyph unicode="®" horiz-adv-x="1350" d="M1270 717Q1270 556 1228 420T1107 186T919 32T674 -23Q539 -23 430 32T243 185T123 420T80 717Q80 878 122 1013T242 1247T429 1401T674 1456Q809 1456 919 1401T1107 1248T1227 1014T1270 717ZM1133 717Q1133 852 1102 964T1011 1157T867 1282T674 1327Q567 1327 483 1283T339 1157T249 964T217 717Q217 582 248 470T339 276T482 151T674 106Q782 106 867 150T1011 276T1101 469T1133 717ZM971 330H764L670 641H618V330H428V1141H709Q763 1141 809 1128T889 1085T942 1009T961 895Q961 814 933 763T854 680L971 330ZM768 889Q768 940 752 963T694 987H618V788H690Q734 788 751 813T768 889Z"/><glyph unicode="¯" horiz-adv-x="850" d="M727 1239H121V1452H727V1239Z"/><glyph unicode="°" horiz-adv-x="905" d="M834 1073Q834 989 805 919T725 796T604 715T453 686Q372 686 302 715T181 796T101 918T72 1073Q72 1155 101 1225T181 1346T302 1427T453 1456Q534 1456 604 1427T725 1347T805 1225T834 1073ZM612 1073Q612 1112 601 1144T568 1199T518 1234T453 1247Q418 1247 389 1235T338 1200T305 1145T293 1073Q293 1032 305 1000T338 944T388 908T453 895Q488 895 517 907T568 943T600 999T612 1073Z"/><glyph unicode="±" horiz-adv-x="1536" d="M672 352V764H200V936H672V1352H864V936H1340V764H864V352H672ZM204 24V216H1336V24H204Z"/><glyph unicode="²" horiz-adv-x="896" d="M56 628V768L400 1108Q472 1176 512 1230T552 1352Q552 1404 506 1436T400 1468Q336 1468 276 1430T172 1348L64 1456Q124 1520 220 1570T428 1620Q568 1620 658 1540T748 1344Q748 1236 658 1134T492 976L268 788H776V628H56Z"/><glyph unicode="³" horiz-adv-x="896" d="M48 732L152 864Q216 816 284 796T424 776Q524 776 572 818T620 928Q620 1004 552 1040T384 1076H312V1204H372Q472 1204 530 1242T588 1336Q588 1400 536 1428T412 1456Q332 1456 272 1430T176 1384L88 1516Q176 1572 268 1596T448 1620Q596 1620 684 1556T772 1376Q772 1276 710 1222T548 1148Q664 1136 738 1080T812 904Q812 764 700 688T432 612Q300 612 206 646T48 732Z"/><glyph unicode="´" horiz-adv-x="850" d="M715 1536L424 1208H203L350 1536H715Z"/><glyph unicode="µ" horiz-adv-x="1408" d="M252 -424Q196 -424 168 -392T140 -280Q140 -200 144 -106T156 100Q164 200 168 256T172 328Q176 348 176 356T176 368V1176H368V320Q368 228 450 176T628 124Q760 124 858 190T1008 380V1176H1200V308L1220 0H1056L1020 176Q952 68 836 14T572 -40Q520 -40 444 -14T324 60Q324 -28 352 -112T380 -264Q380 -424 252 -424Z"/><glyph unicode="¶" horiz-adv-x="1253" d="M1128 -379H885V1225H774V-379H530V580H473Q388 580 313 607T183 689T95 823T63 1008Q63 1112 96 1191T187 1325T321 1406T483 1434H1128V-379Z"/><glyph unicode="·" horiz-adv-x="535" d="M465 752Q465 710 451 674T410 611T347 570T268 555Q225 555 189 570T127 611T85 673T70 752Q70 795 85 830T126 891T189 931T268 946Q311 946 347 932T409 892T450 831T465 752Z"/><glyph unicode="¸" horiz-adv-x="850" d="M645 -225Q645 -309 588 -352T430 -395Q358 -395 295 -376T180 -328L221 -244Q271 -268 311 -279T391 -291Q429 -291 453 -274T477 -227Q477 -201 463 -189T428 -176Q409 -176 393 -183T360 -201L287 -152L336 0H444L416 -92Q430 -84 453 -79T502 -74Q564 -74 604 -114T645 -225Z"/><glyph unicode="¹" horiz-adv-x="768" d="M324 628V1424L144 1384V1528L392 1636H508V628H324Z"/><glyph unicode="º" horiz-adv-x="840" d="M756 1008Q756 784 669 670T418 555Q260 555 172 669T84 1004Q84 1224 169 1340T422 1456Q580 1456 668 1343T756 1008ZM504 1006Q504 1074 499 1120T484 1193T457 1233T420 1245Q397 1245 382 1233T356 1193T341 1120T336 1008Q336 940 340 894T355 820T381 779T420 766Q442 766 458 778T484 819T499 893T504 1006Z"/><glyph unicode="»" horiz-adv-x="1171" d="M1126 539L895 0H569L801 537L569 1075H895L1126 539ZM625 539L393 0H68L299 537L68 1075H393L625 539Z"/><glyph unicode="¼" horiz-adv-x="1920" d="M368 0L1340 1524H1520L548 0H368ZM292 628V1424L112 1384V1528L360 1636H476V628H292ZM1540 0V220H1060V360L1512 980H1724V376H1844V220H1724V0H1540ZM1260 368H1540V768L1260 368Z"/><glyph unicode="½" horiz-adv-x="1920" d="M276 0L1248 1524H1428L456 0H276ZM268 628V1424L88 1384V1528L336 1636H452V628H268ZM1136 0V140L1480 480Q1552 548 1592 602T1632 724Q1632 776 1586 808T1480 840Q1416 840 1356 802T1252 720L1144 828Q1204 892 1300 942T1508 992Q1648 992 1738 912T1828 716Q1828 608 1738 506T1572 348L1348 160H1856V0H1136Z"/><glyph unicode="¾" horiz-adv-x="1920" d="M440 0L1412 1524H1592L620 0H440ZM48 732L152 864Q216 816 284 796T424 776Q524 776 572 818T620 928Q620 1004 552 1040T384 1076H312V1204H372Q472 1204 530 1242T588 1336Q588 1400 536 1428T412 1456Q332 1456 272 1430T176 1384L88 1516Q176 1572 268 1596T448 1620Q596 1620 684 1556T772 1376Q772 1276 710 1222T548 1148Q664 1136 738 1080T812 904Q812 764 700 688T432 612Q300 612 206 646T48 732ZM1564 0V220H1084V360L1536 980H1748V376H1868V220H1748V0H1564ZM1284 368H1564V768L1284 368Z"/><glyph unicode="¿" horiz-adv-x="961" d="M705 1274Q705 1234 691 1201T653 1143T594 1106T520 1092Q479 1092 446 1105T388 1143T350 1200T336 1274Q336 1313 349 1346T387 1404T445 1442T520 1456Q560 1456 594 1442T652 1404T691 1347T705 1274ZM930 225Q884 165 835 119T731 42T610 -6T467 -23Q366 -23 288 4T155 81T73 198T45 348Q45 407 57 456T92 547T151 628T233 705Q271 735 296 764T338 827T360 899T367 987H670Q670 909 660 849T627 740T567 647T475 561Q419 516 394 472T369 375Q369 327 399 296T475 264Q507 264 536 273T592 302T648 351T707 420L930 225Z"/><glyph unicode="À" horiz-adv-x="1165" d="M1128 0H776L723 266H440L389 0H37L408 1434H760L1128 0ZM666 545L657 592Q633 734 612 851T580 1067Q570 968 550 851T504 590L496 545H666ZM708 1515H487L196 1843H561L708 1515Z"/><glyph unicode="Á" horiz-adv-x="1165" d="M1128 0H776L723 266H440L389 0H37L408 1434H760L1128 0ZM666 545L657 592Q633 734 612 851T580 1067Q570 968 550 851T504 590L496 545H666ZM967 1843L676 1515H455L602 1843H967Z"/><glyph unicode="Â" horiz-adv-x="1165" d="M1128 0H776L723 266H440L389 0H37L408 1434H760L1128 0ZM666 545L657 592Q633 734 612 851T580 1067Q570 968 550 851T504 590L496 545H666ZM926 1527H711L580 1662L451 1527H240L463 1855H703L926 1527Z"/><glyph unicode="Ã" horiz-adv-x="1165" d="M1128 0H776L723 266H440L389 0H37L408 1434H760L1128 0ZM666 545L657 592Q633 734 612 851T580 1067Q570 968 550 851T504 590L496 545H666ZM957 1808Q957 1736 941 1681T894 1587T823 1529T731 1509Q705 1509 684 1512T642 1522T601 1539T559 1564Q528 1584 507 1598T465 1612Q436 1612 423 1590T404 1515H211Q211 1588 227 1644T274 1737T345 1794T437 1814Q463 1814 484 1811T526 1801T566 1784T609 1759Q640 1739 661 1726T703 1712Q732 1712 745 1734T764 1808H957Z"/><glyph unicode="Ä" horiz-adv-x="1165" d="M1128 0H776L723 266H440L389 0H37L408 1434H760L1128 0ZM666 545L657 592Q633 734 612 851T580 1067Q570 968 550 851T504 590L496 545H666ZM953 1675Q953 1643 940 1614T905 1563T853 1528T791 1515Q758 1515 729 1528T677 1563T642 1614T629 1675Q629 1708 642 1737T677 1788T728 1822T791 1835Q823 1835 852 1823T904 1788T940 1737T953 1675ZM541 1675Q541 1643 528 1614T493 1563T441 1528T379 1515Q346 1515 317 1528T265 1563T230 1614T217 1675Q217 1708 230 1737T265 1788T316 1822T379 1835Q411 1835 440 1823T492 1788T528 1737T541 1675Z"/><glyph unicode="Å" horiz-adv-x="1165" d="M1128 0H776L723 266H440L389 0H37L385 1348Q360 1380 346 1419T332 1503Q332 1557 351 1603T405 1682T485 1734T584 1753Q638 1753 684 1734T763 1682T816 1603T836 1503Q836 1458 822 1419T782 1348L1128 0ZM682 1503Q682 1550 655 1580T584 1610Q540 1610 514 1580T487 1503Q487 1457 513 1428T584 1399Q627 1399 654 1428T682 1503ZM666 545L657 592Q633 734 612 851T580 1067Q570 968 550 851T504 590L496 545H666Z"/><glyph unicode="Æ" horiz-adv-x="1645" d="M1573 0H766V217H438L365 0H18L649 1434H1559V1141H1079V895H1384V604H1079V293H1573V0ZM770 1098Q760 1067 746 1032T717 960T688 886T662 813L553 489H766V823Q766 855 766 894T767 971T768 1042T770 1098Z"/><glyph unicode="Ç" horiz-adv-x="1098" d="M1040 397Q1017 303 983 228T896 98T771 13T600 -23L578 -92Q592 -84 615 -79T664 -74Q694 -74 720 -84T766 -114T796 -162T807 -225Q807 -309 750 -352T592 -395Q520 -395 457 -376T342 -328L383 -244Q433 -268 473 -279T553 -291Q591 -291 615 -274T639 -227Q639 -201 625 -189T590 -176Q571 -176 555 -183T522 -201L449 -152L492 -16Q280 11 173 197T66 715Q66 901 100 1040T200 1272T360 1410T575 1456Q688 1456 766 1425T898 1336T983 1196T1036 1010L717 920Q706 984 695 1029T668 1104T629 1147T573 1161Q532 1161 503 1138T456 1062T429 925T420 719Q420 595 428 510T456 372T505 296T578 272Q608 272 630 283T670 321T703 393T735 506L1040 397Z"/><glyph unicode="È" horiz-adv-x="1030" d="M958 0H104V1434H944V1141H444V895H770V604H444V293H958V0ZM663 1515H442L151 1843H516L663 1515Z"/><glyph unicode="É" horiz-adv-x="1030" d="M958 0H104V1434H944V1141H444V895H770V604H444V293H958V0ZM883 1843L592 1515H371L518 1843H883Z"/><glyph unicode="Ê" horiz-adv-x="1030" d="M958 0H104V1434H944V1141H444V895H770V604H444V293H958V0ZM870 1515H655L524 1650L395 1515H184L407 1843H647L870 1515Z"/><glyph unicode="Ë" horiz-adv-x="1030" d="M958 0H104V1434H944V1141H444V895H770V604H444V293H958V0ZM895 1675Q895 1643 882 1614T847 1563T795 1528T733 1515Q700 1515 671 1528T619 1563T584 1614T571 1675Q571 1708 584 1737T619 1788T670 1822T733 1835Q765 1835 794 1823T846 1788T882 1737T895 1675ZM483 1675Q483 1643 470 1614T435 1563T383 1528T321 1515Q288 1515 259 1528T207 1563T172 1614T159 1675Q159 1708 172 1737T207 1788T258 1822T321 1835Q353 1835 382 1823T434 1788T470 1737T483 1675Z"/><glyph unicode="Ì" horiz-adv-x="569" d="M457 0H111V1434H457V0ZM406 1515H185L-106 1843H259L406 1515Z"/><glyph unicode="Í" horiz-adv-x="569" d="M457 0H111V1434H457V0ZM679 1843L388 1515H167L314 1843H679Z"/><glyph unicode="Î" horiz-adv-x="569" d="M457 0H111V1434H457V0ZM628 1503H413L282 1638L153 1503H-58L165 1831H405L628 1503Z"/><glyph unicode="Ï" horiz-adv-x="569" d="M457 0H111V1434H457V0ZM653 1671Q653 1639 640 1610T605 1559T553 1524T491 1511Q458 1511 429 1524T377 1559T342 1610T329 1671Q329 1704 342 1733T377 1784T428 1818T491 1831Q523 1831 552 1819T604 1784T640 1733T653 1671ZM241 1671Q241 1639 228 1610T193 1559T141 1524T79 1511Q46 1511 17 1524T-35 1559T-70 1610T-83 1671Q-83 1704 -70 1733T-35 1784T16 1818T79 1831Q111 1831 140 1819T192 1784T228 1733T241 1671Z"/><glyph unicode="Ð" horiz-adv-x="1180" d="M1110 727Q1110 533 1074 396T964 170T782 41T526 0H141V610H45V877H141V1434H557Q695 1434 799 1393T972 1265T1075 1045T1110 727ZM758 721Q758 852 747 935T711 1066T644 1131T543 1149H467V877H590V610H467V283H535Q595 283 637 300T706 366T745 499T758 721Z"/><glyph unicode="Ñ" horiz-adv-x="1192" d="M1085 0H811L600 412Q570 470 542 527T489 635T445 730T416 805Q419 774 421 727T424 626T425 514T426 406V0H104V1434H403L586 1106Q617 1050 646 992T701 879T746 780T776 705Q773 734 771 782T767 888T765 1004T764 1112V1434H1085V0ZM977 1806Q977 1734 961 1679T914 1585T843 1527T751 1507Q725 1507 704 1510T662 1520T621 1537T579 1562Q548 1582 527 1596T485 1610Q456 1610 443 1588T424 1513H231Q231 1586 247 1642T294 1735T365 1792T457 1812Q483 1812 504 1809T546 1799T586 1782T629 1757Q660 1737 681 1724T723 1710Q752 1710 765 1732T784 1806H977Z"/><glyph unicode="Ò" horiz-adv-x="1157" d="M1092 719Q1092 529 1057 390T955 159T792 22T575 -23Q455 -23 360 21T200 156T101 386T66 715Q66 905 101 1044T202 1275T363 1411T580 1456Q700 1456 795 1412T956 1277T1057 1047T1092 719ZM739 715Q739 845 729 931T698 1068T648 1140T578 1161Q537 1161 507 1141T457 1070T428 934T418 719Q418 589 428 503T459 366T509 293T580 272Q620 272 649 292T699 363T729 499T739 715ZM692 1519H471L180 1847H545L692 1519Z"/><glyph unicode="Ó" horiz-adv-x="1157" d="M1092 719Q1092 529 1057 390T955 159T792 22T575 -23Q455 -23 360 21T200 156T101 386T66 715Q66 905 101 1044T202 1275T363 1411T580 1456Q700 1456 795 1412T956 1277T1057 1047T1092 719ZM739 715Q739 845 729 931T698 1068T648 1140T578 1161Q537 1161 507 1141T457 1070T428 934T418 719Q418 589 428 503T459 366T509 293T580 272Q620 272 649 292T699 363T729 499T739 715ZM959 1847L668 1519H447L594 1847H959Z"/><glyph unicode="Ô" horiz-adv-x="1157" d="M1092 719Q1092 529 1057 390T955 159T792 22T575 -23Q455 -23 360 21T200 156T101 386T66 715Q66 905 101 1044T202 1275T363 1411T580 1456Q700 1456 795 1412T956 1277T1057 1047T1092 719ZM739 715Q739 845 729 931T698 1068T648 1140T578 1161Q537 1161 507 1141T457 1070T428 934T418 719Q418 589 428 503T459 366T509 293T580 272Q620 272 649 292T699 363T729 499T739 715ZM922 1515H707L576 1650L447 1515H236L459 1843H699L922 1515Z"/><glyph unicode="Õ" horiz-adv-x="1157" d="M1092 719Q1092 529 1057 390T955 159T792 22T575 -23Q455 -23 360 21T200 156T101 386T66 715Q66 905 101 1044T202 1275T363 1411T580 1456Q700 1456 795 1412T956 1277T1057 1047T1092 719ZM739 715Q739 845 729 931T698 1068T648 1140T578 1161Q537 1161 507 1141T457 1070T428 934T418 719Q418 589 428 503T459 366T509 293T580 272Q620 272 649 292T699 363T729 499T739 715ZM946 1808Q946 1736 930 1681T883 1587T812 1529T720 1509Q694 1509 673 1512T631 1522T590 1539T548 1564Q517 1584 496 1598T454 1612Q425 1612 412 1590T393 1515H200Q200 1588 216 1644T263 1737T334 1794T426 1814Q452 1814 473 1811T515 1801T555 1784T598 1759Q629 1739 650 1726T692 1712Q721 1712 734 1734T753 1808H946Z"/><glyph unicode="Ö" horiz-adv-x="1157" d="M1092 719Q1092 529 1057 390T955 159T792 22T575 -23Q455 -23 360 21T200 156T101 386T66 715Q66 905 101 1044T202 1275T363 1411T580 1456Q700 1456 795 1412T956 1277T1057 1047T1092 719ZM739 715Q739 845 729 931T698 1068T648 1140T578 1161Q537 1161 507 1141T457 1070T428 934T418 719Q418 589 428 503T459 366T509 293T580 272Q620 272 649 292T699 363T729 499T739 715ZM947 1675Q947 1643 934 1614T899 1563T847 1528T785 1515Q752 1515 723 1528T671 1563T636 1614T623 1675Q623 1708 636 1737T671 1788T722 1822T785 1835Q817 1835 846 1823T898 1788T934 1737T947 1675ZM535 1675Q535 1643 522 1614T487 1563T435 1528T373 1515Q340 1515 311 1528T259 1563T224 1614T211 1675Q211 1708 224 1737T259 1788T310 1822T373 1835Q405 1835 434 1823T486 1788T522 1737T535 1675Z"/><glyph unicode="×" horiz-adv-x="1536" d="M472 376L352 492L648 792L352 1088L480 1212L768 912L1068 1204L1184 1088L892 792L1184 492L1068 376L768 668L472 376Z"/><glyph unicode="Ø" horiz-adv-x="1157" d="M1118 1536L981 1241Q1035 1150 1063 1021T1092 719Q1092 529 1057 390T955 159T792 22T575 -23Q494 -23 424 -2L379 -102H37L174 195Q66 372 66 715Q66 905 101 1044T202 1275T363 1411T580 1456Q661 1456 729 1438L776 1536H1118ZM739 715Q739 845 729 931T698 1068T648 1140T578 1161Q537 1161 507 1141T457 1070T428 934T418 719Q418 589 428 503T459 366T509 293T580 272Q620 272 649 292T699 363T729 499T739 715Z"/><glyph unicode="Ù" horiz-adv-x="1180" d="M1079 502Q1079 366 1045 267T947 104T792 8T586 -23Q475 -23 385 8T231 103T133 264T98 494V1434H444V483Q444 380 479 327T592 274Q667 274 700 327T733 483V1434H1079V502ZM721 1503H500L209 1831H574L721 1503Z"/><glyph unicode="Ú" horiz-adv-x="1180" d="M1079 502Q1079 366 1045 267T947 104T792 8T586 -23Q475 -23 385 8T231 103T133 264T98 494V1434H444V483Q444 380 479 327T592 274Q667 274 700 327T733 483V1434H1079V502ZM971 1831L680 1503H459L606 1831H971Z"/><glyph unicode="Û" horiz-adv-x="1180" d="M1079 502Q1079 366 1045 267T947 104T792 8T586 -23Q475 -23 385 8T231 103T133 264T98 494V1434H444V483Q444 380 479 327T592 274Q667 274 700 327T733 483V1434H1079V502ZM932 1515H717L586 1650L457 1515H246L469 1843H709L932 1515Z"/><glyph unicode="Ü" horiz-adv-x="1180" d="M1079 502Q1079 366 1045 267T947 104T792 8T586 -23Q475 -23 385 8T231 103T133 264T98 494V1434H444V483Q444 380 479 327T592 274Q667 274 700 327T733 483V1434H1079V502ZM957 1675Q957 1643 944 1614T909 1563T857 1528T795 1515Q762 1515 733 1528T681 1563T646 1614T633 1675Q633 1708 646 1737T681 1788T732 1822T795 1835Q827 1835 856 1823T908 1788T944 1737T957 1675ZM545 1675Q545 1643 532 1614T497 1563T445 1528T383 1515Q350 1515 321 1528T269 1563T234 1614T221 1675Q221 1708 234 1737T269 1788T320 1822T383 1835Q415 1835 444 1823T496 1788T532 1737T545 1675Z"/><glyph unicode="Ý" horiz-adv-x="1153" d="M1133 1434L750 555V0H406V549L20 1434H399L465 1243Q505 1125 536 1018T580 829Q591 911 622 1018T694 1243L760 1434H1133ZM973 1849L682 1521H461L608 1849H973Z"/><glyph unicode="Þ" horiz-adv-x="1077" d="M1032 754Q1032 626 998 537T901 392T752 311T563 285H440V0H104V1434H440V1198H588Q684 1198 765 1175T906 1100T998 962T1032 754ZM692 745Q692 839 664 883T563 928H440V557H557Q631 557 661 601T692 745Z"/><glyph unicode="ß" horiz-adv-x="1012" d="M956 471Q956 232 847 116T502 0H481V258H500Q534 258 559 268T601 301T625 363T633 461Q633 528 624 570T598 637T554 671T492 680H481V932H492Q511 932 524 938T545 961T557 1003T561 1071Q561 1157 543 1192T479 1227Q433 1227 416 1192T399 1079V-272L84 -395V1067Q84 1176 113 1255T196 1386T323 1462T485 1487Q570 1487 641 1464T763 1393T842 1277T870 1116Q870 1054 859 1009T829 930T785 871T733 825Q775 810 815 784T887 717T937 616T956 471Z"/><glyph unicode="à" horiz-adv-x="926" d="M848 0H539V61Q495 23 445 0T332 -23Q198 -23 126 66T53 340Q53 517 136 605T369 694Q426 694 466 685T539 659V743Q539 802 513 826T430 850Q367 850 310 831T186 768L96 987Q177 1037 273 1067T481 1098Q670 1098 759 1013T848 756V0ZM539 246V459Q517 470 493 475T432 481Q390 481 369 450T348 344Q348 276 368 244T434 211Q466 211 493 220T539 246ZM894 1208H673L382 1536H747L894 1208Z"/><glyph unicode="á" horiz-adv-x="926" d="M848 0H539V61Q495 23 445 0T332 -23Q198 -23 126 66T53 340Q53 517 136 605T369 694Q426 694 466 685T539 659V743Q539 802 513 826T430 850Q367 850 310 831T186 768L96 987Q177 1037 273 1067T481 1098Q670 1098 759 1013T848 756V0ZM539 246V459Q517 470 493 475T432 481Q390 481 369 450T348 344Q348 276 368 244T434 211Q466 211 493 220T539 246ZM819 1536L528 1208H307L454 1536H819Z"/><glyph unicode="â" horiz-adv-x="926" d="M848 0H539V61Q495 23 445 0T332 -23Q198 -23 126 66T53 340Q53 517 136 605T369 694Q426 694 466 685T539 659V743Q539 802 513 826T430 850Q367 850 310 831T186 768L96 987Q177 1037 273 1067T481 1098Q670 1098 759 1013T848 756V0ZM539 246V459Q517 470 493 475T432 481Q390 481 369 450T348 344Q348 276 368 244T434 211Q466 211 493 220T539 246ZM807 1455H592L461 1590L332 1455H121L344 1783H584L807 1455Z"/><glyph unicode="ã" horiz-adv-x="926" d="M848 0H539V61Q495 23 445 0T332 -23Q198 -23 126 66T53 340Q53 517 136 605T369 694Q426 694 466 685T539 659V743Q539 802 513 826T430 850Q367 850 310 831T186 768L96 987Q177 1037 273 1067T481 1098Q670 1098 759 1013T848 756V0ZM539 246V459Q517 470 493 475T432 481Q390 481 369 450T348 344Q348 276 368 244T434 211Q466 211 493 220T539 246ZM846 1501Q846 1429 830 1374T783 1280T712 1222T620 1202Q594 1202 573 1205T531 1215T490 1232T448 1257Q417 1277 396 1291T354 1305Q325 1305 312 1283T293 1208H100Q100 1281 116 1337T163 1430T234 1487T326 1507Q352 1507 373 1504T415 1494T455 1477T498 1452Q529 1432 550 1419T592 1405Q621 1405 634 1427T653 1501H846Z"/><glyph unicode="ä" horiz-adv-x="926" d="M848 0H539V61Q495 23 445 0T332 -23Q198 -23 126 66T53 340Q53 517 136 605T369 694Q426 694 466 685T539 659V743Q539 802 513 826T430 850Q367 850 310 831T186 768L96 987Q177 1037 273 1067T481 1098Q670 1098 759 1013T848 756V0ZM539 246V459Q517 470 493 475T432 481Q390 481 369 450T348 344Q348 276 368 244T434 211Q466 211 493 220T539 246ZM832 1615Q832 1583 819 1554T784 1503T732 1468T670 1455Q637 1455 608 1468T556 1503T521 1554T508 1615Q508 1648 521 1677T556 1728T607 1762T670 1775Q702 1775 731 1763T783 1728T819 1677T832 1615ZM420 1615Q420 1583 407 1554T372 1503T320 1468T258 1455Q225 1455 196 1468T144 1503T109 1554T96 1615Q96 1648 109 1677T144 1728T195 1762T258 1775Q290 1775 319 1763T371 1728T407 1677T420 1615Z"/><glyph unicode="å" horiz-adv-x="926" d="M848 0H539V61Q495 23 445 0T332 -23Q198 -23 126 66T53 340Q53 517 136 605T369 694Q426 694 466 685T539 659V743Q539 802 513 826T430 850Q367 850 310 831T186 768L96 987Q177 1037 273 1067T481 1098Q670 1098 759 1013T848 756V0ZM539 246V459Q517 470 493 475T432 481Q390 481 369 450T348 344Q348 276 368 244T434 211Q466 211 493 220T539 246ZM719 1454Q719 1401 700 1356T647 1278T567 1227T467 1208Q414 1208 368 1226T288 1278T235 1356T215 1454Q215 1508 234 1553T288 1632T368 1685T467 1704Q521 1704 567 1685T646 1633T699 1554T719 1454ZM565 1454Q565 1501 538 1531T467 1561Q424 1561 398 1531T371 1454Q371 1408 397 1379T467 1350Q510 1350 537 1379T565 1454Z"/><glyph unicode="æ" horiz-adv-x="1389" d="M1335 522Q1335 507 1335 484T1333 446H831Q834 381 843 339T868 271T905 236T954 225Q979 225 1000 230T1042 250T1084 287T1130 346L1317 199Q1282 149 1245 108T1162 38T1063 -7T940 -23Q892 -23 853 -14T781 13T723 52T680 102Q630 49 554 13T383 -23Q296 -23 234 -1T131 66T72 179T53 340Q53 517 136 605T369 694Q426 694 466 685T539 659V743Q539 802 513 826T430 850Q367 850 310 831T186 768L96 987Q177 1037 273 1067T475 1098Q572 1098 628 1065T711 981Q748 1034 807 1066T952 1098Q1042 1098 1113 1062T1233 954T1309 774T1335 522ZM1047 653Q1043 710 1036 749T1015 813T982 849T934 860Q911 860 893 850T863 816T842 752T831 653H1047ZM551 252Q548 264 546 291T542 349T540 410T539 459Q517 470 493 475T432 481Q390 481 369 450T348 344Q348 275 370 243T438 211Q470 211 500 223T551 252Z"/><glyph unicode="ç" horiz-adv-x="879" d="M836 293Q807 214 773 156T696 59T601 0T483 -23L461 -92Q475 -84 498 -79T547 -74Q609 -74 649 -114T690 -225Q690 -309 633 -352T475 -395Q403 -395 340 -376T225 -328L266 -244Q316 -268 356 -279T436 -291Q474 -291 498 -274T522 -227Q522 -201 508 -189T473 -176Q455 -176 439 -183T406 -201L332 -152L375 -14Q300 1 241 41T141 148T77 312T55 535Q55 1098 473 1098Q548 1098 605 1076T704 1012T777 914T829 786L580 668Q569 714 559 746T536 797T507 825T469 834Q442 834 423 819T392 768T375 676T369 535Q369 452 375 396T393 306T426 257T475 242Q494 242 510 250T540 277T569 330T600 414L836 293Z"/><glyph unicode="è" horiz-adv-x="909" d="M854 446H350Q353 381 363 339T388 271T426 236T475 225Q499 225 520 230T561 250T603 287T649 346L836 199Q802 149 765 108T683 38T584 -7T461 -23Q360 -23 284 15T157 125T81 300T55 532Q55 810 160 954T461 1098Q651 1098 752 955T854 522V446ZM567 653Q564 709 557 748T536 812T502 848T455 860Q431 860 413 850T382 816T362 752T350 653H567ZM853 1208H632L341 1536H706L853 1208Z"/><glyph unicode="é" horiz-adv-x="909" d="M854 446H350Q353 381 363 339T388 271T426 236T475 225Q499 225 520 230T561 250T603 287T649 346L836 199Q802 149 765 108T683 38T584 -7T461 -23Q360 -23 284 15T157 125T81 300T55 532Q55 810 160 954T461 1098Q651 1098 752 955T854 522V446ZM567 653Q564 709 557 748T536 812T502 848T455 860Q431 860 413 850T382 816T362 752T350 653H567ZM838 1536L547 1208H326L473 1536H838Z"/><glyph unicode="ê" horiz-adv-x="909" d="M854 446H350Q353 381 363 339T388 271T426 236T475 225Q499 225 520 230T561 250T603 287T649 346L836 199Q802 149 765 108T683 38T584 -7T461 -23Q360 -23 284 15T157 125T81 300T55 532Q55 810 160 954T461 1098Q651 1098 752 955T854 522V446ZM567 653Q564 709 557 748T536 812T502 848T455 860Q431 860 413 850T382 816T362 752T350 653H567ZM803 1445H588L457 1580L328 1445H117L340 1773H580L803 1445Z"/><glyph unicode="ë" horiz-adv-x="909" d="M854 446H350Q353 381 363 339T388 271T426 236T475 225Q499 225 520 230T561 250T603 287T649 346L836 199Q802 149 765 108T683 38T584 -7T461 -23Q360 -23 284 15T157 125T81 300T55 532Q55 810 160 954T461 1098Q651 1098 752 955T854 522V446ZM567 653Q564 709 557 748T536 812T502 848T455 860Q431 860 413 850T382 816T362 752T350 653H567ZM828 1615Q828 1583 815 1554T780 1503T728 1468T666 1455Q633 1455 604 1468T552 1503T517 1554T504 1615Q504 1648 517 1677T552 1728T603 1762T666 1775Q698 1775 727 1763T779 1728T815 1677T828 1615ZM416 1615Q416 1583 403 1554T368 1503T316 1468T254 1455Q221 1455 192 1468T140 1503T105 1554T92 1615Q92 1648 105 1677T140 1728T191 1762T254 1775Q286 1775 315 1763T367 1728T403 1677T416 1615Z"/><glyph unicode="ì" horiz-adv-x="496" d="M406 0H90V1075H406V0ZM380 1208H159L-132 1536H233L380 1208Z"/><glyph unicode="í" horiz-adv-x="496" d="M406 0H90V1075H406V0ZM888 1536L597 1208H376L523 1536H888Z"/><glyph unicode="î" horiz-adv-x="496" d="M406 0H90V1075H406V0ZM591 1178H376L245 1313L116 1178H-95L128 1506H368L591 1178Z"/><glyph unicode="ï" horiz-adv-x="496" d="M406 0H90V1075H406V0ZM616 1365Q616 1333 603 1304T568 1253T516 1218T454 1205Q421 1205 392 1218T340 1253T305 1304T292 1365Q292 1398 305 1427T340 1478T391 1512T454 1525Q486 1525 515 1513T567 1478T603 1427T616 1365ZM204 1365Q204 1333 191 1304T156 1253T104 1218T42 1205Q9 1205 -20 1218T-72 1253T-107 1304T-120 1365Q-120 1398 -107 1427T-72 1478T-21 1512T42 1525Q74 1525 103 1513T155 1478T191 1427T204 1365Z"/><glyph unicode="ð" horiz-adv-x="944" d="M889 547Q889 395 859 287T774 110T642 9T469 -23Q377 -23 301 10T170 108T85 264T55 475Q55 592 83 684T160 839T274 937T412 971Q492 971 544 949T635 879Q614 1001 539 1090L459 1006L332 1120L401 1192Q364 1211 321 1221T231 1237V1456Q334 1453 417 1431T569 1366L657 1456L784 1343L698 1253Q798 1138 843 959T889 547ZM575 475Q575 544 569 589T549 662T516 700T471 711Q445 711 426 700T395 661T376 590T369 479Q369 411 375 366T394 293T426 254T473 242Q498 242 517 253T549 292T568 364T575 475Z"/><glyph unicode="ñ" horiz-adv-x="969" d="M891 0H575V707Q575 827 498 827Q467 827 444 816T399 786V0H84V1075H399V1014Q420 1032 442 1047T491 1073T548 1091T618 1098Q752 1098 821 1016T891 762V0ZM869 1501Q869 1429 853 1374T806 1280T735 1222T643 1202Q617 1202 596 1205T554 1215T513 1232T471 1257Q440 1277 419 1291T377 1305Q348 1305 335 1283T316 1208H123Q123 1281 139 1337T186 1430T257 1487T349 1507Q375 1507 396 1504T438 1494T478 1477T521 1452Q552 1432 573 1419T615 1405Q644 1405 657 1427T676 1501H869Z"/><glyph unicode="ò" horiz-adv-x="944" d="M889 541Q889 263 781 120T469 -23Q371 -23 295 12T165 118T83 293T55 535Q55 808 161 953T473 1098Q572 1098 649 1063T780 957T861 783T889 541ZM575 537Q575 623 569 680T551 771T519 820T471 834Q443 834 424 820T392 771T375 680T369 541Q369 457 374 400T392 308T424 257T473 242Q500 242 519 257T551 307T569 398T575 537ZM849 1208H628L337 1536H702L849 1208Z"/><glyph unicode="ó" horiz-adv-x="944" d="M889 541Q889 263 781 120T469 -23Q371 -23 295 12T165 118T83 293T55 535Q55 808 161 953T473 1098Q572 1098 649 1063T780 957T861 783T889 541ZM575 537Q575 623 569 680T551 771T519 820T471 834Q443 834 424 820T392 771T375 680T369 541Q369 457 374 400T392 308T424 257T473 242Q500 242 519 257T551 307T569 398T575 537ZM856 1536L565 1208H344L491 1536H856Z"/><glyph unicode="ô" horiz-adv-x="944" d="M889 541Q889 263 781 120T469 -23Q371 -23 295 12T165 118T83 293T55 535Q55 808 161 953T473 1098Q572 1098 649 1063T780 957T861 783T889 541ZM575 537Q575 623 569 680T551 771T519 820T471 834Q443 834 424 820T392 771T375 680T369 541Q369 457 374 400T392 308T424 257T473 242Q500 242 519 257T551 307T569 398T575 537ZM813 1445H598L467 1580L338 1445H127L350 1773H590L813 1445Z"/><glyph unicode="õ" horiz-adv-x="944" d="M889 541Q889 263 781 120T469 -23Q371 -23 295 12T165 118T83 293T55 535Q55 808 161 953T473 1098Q572 1098 649 1063T780 957T861 783T889 541ZM575 537Q575 623 569 680T551 771T519 820T471 834Q443 834 424 820T392 771T375 680T369 541Q369 457 374 400T392 308T424 257T473 242Q500 242 519 257T551 307T569 398T575 537ZM844 1501Q844 1429 828 1374T781 1280T710 1222T618 1202Q592 1202 571 1205T529 1215T488 1232T446 1257Q415 1277 394 1291T352 1305Q323 1305 310 1283T291 1208H98Q98 1281 114 1337T161 1430T232 1487T324 1507Q350 1507 371 1504T413 1494T453 1477T496 1452Q527 1432 548 1419T590 1405Q619 1405 632 1427T651 1501H844Z"/><glyph unicode="ö" horiz-adv-x="944" d="M889 541Q889 263 781 120T469 -23Q371 -23 295 12T165 118T83 293T55 535Q55 808 161 953T473 1098Q572 1098 649 1063T780 957T861 783T889 541ZM575 537Q575 623 569 680T551 771T519 820T471 834Q443 834 424 820T392 771T375 680T369 541Q369 457 374 400T392 308T424 257T473 242Q500 242 519 257T551 307T569 398T575 537ZM840 1605Q840 1573 827 1544T792 1493T740 1458T678 1445Q645 1445 616 1458T564 1493T529 1544T516 1605Q516 1638 529 1667T564 1718T615 1752T678 1765Q710 1765 739 1753T791 1718T827 1667T840 1605ZM428 1605Q428 1573 415 1544T380 1493T328 1458T266 1445Q233 1445 204 1458T152 1493T117 1544T104 1605Q104 1638 117 1667T152 1718T203 1752T266 1765Q298 1765 327 1753T379 1718T415 1667T428 1605Z"/><glyph unicode="÷" horiz-adv-x="1536" d="M208 684V896H1328V684H208ZM768 228Q704 228 656 276T608 388Q608 452 650 500T768 548Q840 548 884 500T928 388Q928 324 880 276T768 228ZM768 1028Q704 1028 656 1076T608 1188Q608 1252 650 1300T768 1348Q840 1348 884 1300T928 1188Q928 1124 880 1076T768 1028Z"/><glyph unicode="ø" horiz-adv-x="944" d="M915 1178L797 936Q889 794 889 541Q889 263 781 120T469 -23Q406 -23 354 -8L309 -102H25L145 141Q100 213 78 310T55 535Q55 808 161 953T473 1098Q535 1098 588 1085L631 1178H915ZM575 537Q575 623 569 680T551 771T519 820T471 834Q443 834 424 820T392 771T375 680T369 541Q369 457 374 400T392 308T424 257T473 242Q500 242 519 257T551 307T569 398T575 537Z"/><glyph unicode="ù" horiz-adv-x="969" d="M885 0H569V61Q528 26 477 2T348 -23Q214 -23 146 59T78 313V1075H393V369Q393 248 471 248Q502 248 525 259T569 289V1075H885V0ZM869 1208H648L357 1536H722L869 1208Z"/><glyph unicode="ú" horiz-adv-x="969" d="M885 0H569V61Q528 26 477 2T348 -23Q214 -23 146 59T78 313V1075H393V369Q393 248 471 248Q502 248 525 259T569 289V1075H885V0ZM862 1536L571 1208H350L497 1536H862Z"/><glyph unicode="û" horiz-adv-x="969" d="M885 0H569V61Q528 26 477 2T348 -23Q214 -23 146 59T78 313V1075H393V369Q393 248 471 248Q502 248 525 259T569 289V1075H885V0ZM825 1208H610L479 1343L350 1208H139L362 1536H602L825 1208Z"/><glyph unicode="ü" horiz-adv-x="969" d="M885 0H569V61Q528 26 477 2T348 -23Q214 -23 146 59T78 313V1075H393V369Q393 248 471 248Q502 248 525 259T569 289V1075H885V0ZM850 1368Q850 1336 837 1307T802 1256T750 1221T688 1208Q655 1208 626 1221T574 1256T539 1307T526 1368Q526 1401 539 1430T574 1481T625 1515T688 1528Q720 1528 749 1516T801 1481T837 1430T850 1368ZM438 1368Q438 1336 425 1307T390 1256T338 1221T276 1208Q243 1208 214 1221T162 1256T127 1307T114 1368Q114 1401 127 1430T162 1481T213 1515T276 1528Q308 1528 337 1516T389 1481T425 1430T438 1368Z"/><glyph unicode="ý" horiz-adv-x="961" d="M938 1075L530 -379H225L340 -31L23 1075H352L406 807Q420 733 432 666T454 537T470 417T481 301Q486 358 492 416T508 536T530 666T557 809L610 1075H938ZM877 1517L586 1189H365L512 1517H877Z"/><glyph unicode="þ" horiz-adv-x="948" d="M891 543Q891 397 872 291T814 114T720 11T592 -23Q530 -23 484 2T399 59V-272L84 -395V1370L399 1493V1012Q419 1030 440 1046T486 1073T538 1091T600 1098Q668 1098 722 1065T813 962T871 789T891 543ZM578 535Q578 632 573 690T556 779T528 821T489 831Q462 831 441 822T399 795V283Q418 266 439 255T492 244Q513 244 529 253T556 294T572 382T578 535Z"/><glyph unicode="ÿ" horiz-adv-x="961" d="M938 1075L530 -379H225L340 -31L23 1075H352L406 807Q420 733 432 666T454 537T470 417T481 301Q486 358 492 416T508 536T530 666T557 809L610 1075H938ZM848 1605Q848 1573 835 1544T800 1493T748 1458T686 1445Q653 1445 624 1458T572 1493T537 1544T524 1605Q524 1638 537 1667T572 1718T623 1752T686 1765Q718 1765 747 1753T799 1718T835 1667T848 1605ZM436 1605Q436 1573 423 1544T388 1493T336 1458T274 1445Q241 1445 212 1458T160 1493T125 1544T112 1605Q112 1638 125 1667T160 1718T211 1752T274 1765Q306 1765 335 1753T387 1718T423 1667T436 1605Z"/><glyph unicode="ı" horiz-adv-x="496" d="M406 0H90V1075H406V0Z"/><glyph unicode="Ł" horiz-adv-x="985" d="M930 0H141V467L55 406V717L141 778V1434H475V987L637 1104V791L475 676V299H930V0Z"/><glyph unicode="ł" horiz-adv-x="567" d="M530 725L434 659V0H131V473L35 410V713L131 778V1370L434 1493V963L530 1028V725Z"/><glyph unicode="Œ" horiz-adv-x="1638" d="M1567 0H831V115Q788 47 720 12T555 -23Q445 -23 355 21T201 156T101 386T66 715Q66 905 102 1044T203 1275T358 1411T559 1456Q653 1456 722 1422T831 1321V1434H1552V1141H1063V895H1378V604H1063V293H1567V0ZM739 715Q739 845 729 931T698 1068T648 1140T578 1161Q537 1161 507 1141T457 1070T428 934T418 719Q418 589 428 503T459 366T509 293T580 272Q620 272 649 292T699 363T729 499T739 715Z"/><glyph unicode="œ" horiz-adv-x="1425" d="M1370 522Q1370 507 1370 484T1368 446H866Q868 381 877 339T903 271T940 236T989 225Q1014 225 1035 230T1077 250T1119 287T1165 346L1352 199Q1317 149 1280 108T1198 38T1100 -7T981 -23Q929 -23 889 -12T818 17T764 60T723 113Q702 84 677 60T621 17T552 -12T465 -23Q370 -23 294 12T165 118T84 293T55 535Q55 808 161 953T469 1098Q563 1098 627 1061T729 965Q769 1025 831 1061T981 1098Q1073 1098 1145 1062T1268 954T1344 774T1370 522ZM1081 653Q1077 710 1070 749T1049 813T1017 849T969 860Q946 860 928 850T897 816T877 752T866 653H1081ZM575 537Q575 623 569 680T551 771T519 820T471 834Q443 834 424 820T392 771T375 680T369 541Q369 457 374 400T392 308T424 257T473 242Q500 242 519 257T551 307T569 398T575 537Z"/><glyph unicode="Š" horiz-adv-x="1061" d="M995 399Q995 298 960 220T863 87T715 5T530 -23Q446 -23 379 -6T256 43T152 121T59 227L293 438Q365 352 424 308T537 264Q591 264 625 292T659 379Q659 409 653 434T628 482T572 529T475 580Q368 627 294 672T174 771T107 889T86 1038Q86 1126 117 1202T205 1334T345 1423T530 1456Q613 1456 677 1441T794 1398T891 1327T981 1229L743 1016Q706 1060 680 1089T629 1136T579 1161T520 1169Q496 1169 477 1161T445 1138T425 1106T418 1067Q418 1038 426 1015T454 971T510 930T600 885Q708 837 783 789T906 685T974 559T995 399ZM872 1849L649 1521H409L186 1849H401L530 1714L661 1849H872Z"/><glyph unicode="š" horiz-adv-x="866" d="M805 309Q805 228 778 166T700 62T580 -1T426 -23Q370 -23 322 -14T230 12T142 56T53 117L205 340Q248 306 280 284T338 250T385 232T428 227Q463 227 487 245T512 299Q512 317 509 331T494 357T462 381T406 408Q312 446 250 482T151 561T99 654T84 774Q84 847 107 907T175 1009T286 1075T440 1098Q498 1098 545 1089T634 1064T714 1023T793 969L641 745Q603 776 575 796T523 828T480 843T440 848Q405 848 389 831T373 788Q373 770 376 756T392 730T426 706T485 678Q575 641 636 604T734 524T788 429T805 309ZM768 1536L545 1208H305L82 1536H297L426 1401L557 1536H768Z"/><glyph unicode="Ÿ" horiz-adv-x="1153" d="M1133 1434L750 555V0H406V549L20 1434H399L465 1243Q505 1125 536 1018T580 829Q591 911 622 1018T694 1243L760 1434H1133ZM945 1673Q945 1641 932 1612T897 1561T845 1526T783 1513Q750 1513 721 1526T669 1561T634 1612T621 1673Q621 1706 634 1735T669 1786T720 1820T783 1833Q815 1833 844 1821T896 1786T932 1735T945 1673ZM533 1673Q533 1641 520 1612T485 1561T433 1526T371 1513Q338 1513 309 1526T257 1561T222 1612T209 1673Q209 1706 222 1735T257 1786T308 1820T371 1833Q403 1833 432 1821T484 1786T520 1735T533 1673Z"/><glyph unicode="Ž" horiz-adv-x="1067" d="M975 0H86V258L410 836Q432 876 457 921T508 1009T555 1089T594 1153Q565 1152 530 1152T456 1151T378 1150T301 1149H115V1434H973V1176L649 600Q626 558 601 513T550 424T503 344T465 281Q494 282 529 282T603 283T680 284T756 285H975V0ZM885 1843L662 1515H422L199 1843H414L543 1708L674 1843H885Z"/><glyph unicode="ž" horiz-adv-x="893" d="M813 0H70V233L291 573Q345 657 386 717T459 819Q437 818 410 817T354 815T295 814T238 813H96V1075H813V842L594 502Q541 421 499 360T424 256Q445 257 472 258T528 260T587 261T645 262H813V0ZM803 1536L580 1208H340L117 1536H332L461 1401L592 1536H803Z"/><glyph unicode="ƒ" horiz-adv-x="731" d="M662 1200Q642 1209 613 1214T557 1219Q515 1219 499 1202T483 1149V1075H633V817H485V-274L174 -395V817H74V1075H174V1178Q174 1324 246 1390T459 1456Q527 1456 575 1448T662 1423V1200Z"/><glyph unicode="ˆ" horiz-adv-x="850" d="M768 1208H553L422 1343L293 1208H82L305 1536H545L768 1208Z"/><glyph unicode="ˇ" horiz-adv-x="850" d="M768 1536L545 1208H305L82 1536H297L426 1401L557 1536H768Z"/><glyph unicode="˘" horiz-adv-x="850" d="M766 1520Q746 1364 663 1286T424 1208Q274 1208 191 1286T88 1520H274Q280 1491 291 1468T321 1428T365 1402T428 1393Q498 1393 532 1427T580 1520H766Z"/><glyph unicode="˙" horiz-adv-x="850" d="M592 1368Q592 1335 579 1305T542 1253T489 1217T424 1204Q390 1204 360 1217T308 1252T272 1305T258 1368Q258 1402 271 1432T307 1485T360 1521T424 1534Q458 1534 488 1521T542 1486T578 1433T592 1368Z"/><glyph unicode="˚" horiz-adv-x="850" d="M676 1454Q676 1401 657 1356T604 1278T524 1227T424 1208Q371 1208 325 1226T245 1278T192 1356T172 1454Q172 1508 191 1553T245 1632T325 1685T424 1704Q478 1704 524 1685T603 1633T656 1554T676 1454ZM522 1454Q522 1501 495 1531T424 1561Q381 1561 355 1531T328 1454Q328 1408 354 1379T424 1350Q467 1350 494 1379T522 1454Z"/><glyph unicode="˛" horiz-adv-x="850" d="M668 -317Q612 -353 551 -374T418 -395Q333 -395 283 -353T233 -242Q233 -179 269 -121T367 0H485Q467 -37 455 -66T435 -119T424 -165T420 -207Q420 -239 437 -257T487 -276Q553 -276 633 -238L668 -317Z"/><glyph unicode="˜" horiz-adv-x="850" d="M799 1501Q799 1429 783 1374T736 1280T665 1222T573 1202Q547 1202 526 1205T484 1215T443 1232T401 1257Q370 1277 349 1291T307 1305Q278 1305 265 1283T246 1208H53Q53 1281 69 1337T116 1430T187 1487T279 1507Q305 1507 326 1504T368 1494T408 1477T451 1452Q482 1432 503 1419T545 1405Q574 1405 587 1427T606 1501H799Z"/><glyph unicode="˝" horiz-adv-x="850" d="M891 1536L610 1208H403L557 1536H891ZM496 1536L215 1208H10L162 1536H496Z"/><glyph unicode="̄" horiz-adv-x="850" d="M727 1239H121V1452H727V1239Z"/><glyph unicode="Δ" horiz-adv-x="1536" d="M76 0L652 1536H884L1456 0H76ZM352 148H1164L752 1256L352 148Z"/><glyph unicode="Ω" horiz-adv-x="1664" d="M832 1376Q644 1376 510 1234T376 836Q376 592 464 432T724 180V0H88V196H536Q416 240 304 406T192 848Q192 1112 358 1330T832 1548Q1140 1548 1306 1338T1472 848Q1472 572 1360 406T1128 196H1576V0H940V180Q1112 272 1200 432T1288 836Q1288 1044 1162 1210T832 1376Z"/><glyph unicode="μ" horiz-adv-x="1408" d="M252 -424Q196 -424 168 -392T140 -280Q140 -200 144 -106T156 100Q164 200 168 256T172 328Q176 348 176 356T176 368V1176H368V320Q368 228 450 176T628 124Q760 124 858 190T1008 380V1176H1200V308L1220 0H1056L1020 176Q952 68 836 14T572 -40Q520 -40 444 -14T324 60Q324 -28 352 -112T380 -264Q380 -424 252 -424Z"/><glyph unicode="π" horiz-adv-x="1408" d="M296 0V1028H12V1176H1316V1028H996V344Q996 228 1042 184T1152 140Q1200 140 1232 142T1296 156V28Q1248 4 1206 -6T1088 -16Q960 -16 886 64T812 336V1028H484V0H296Z"/><glyph unicode="–" horiz-adv-x="913" d="M815 588H98V895H815V588Z"/><glyph unicode="—" horiz-adv-x="1087" d="M989 588H98V895H989V588Z"/><glyph unicode="‘" horiz-adv-x="551" d="M446 1434L416 864H70L244 1434H446Z"/><glyph unicode="’" horiz-adv-x="551" d="M481 1434L307 864H104L135 1434H481Z"/><glyph unicode="‚" horiz-adv-x="551" d="M477 354L305 -215H102L131 354H477Z"/><glyph unicode="“" horiz-adv-x="1026" d="M922 1434L891 864H545L719 1434H922ZM446 1434L416 864H70L244 1434H446Z"/><glyph unicode="”" horiz-adv-x="1026" d="M956 1434L782 864H580L610 1434H956ZM481 1434L307 864H104L135 1434H481Z"/><glyph unicode="„" horiz-adv-x="1026" d="M952 354L780 -215H578L606 354H952ZM477 354L305 -215H102L131 354H477Z"/><glyph unicode="†" horiz-adv-x="983" d="M909 733H649V-205H332V733H72V1032H332V1434H649V1032H909V733Z"/><glyph unicode="‡" horiz-adv-x="983" d="M909 199H643V-205H340V199H72V481H340V750H72V1032H340V1434H643V1032H909V750H643V481H909V199Z"/><glyph unicode="•" horiz-adv-x="973" d="M864 750Q864 670 835 601T755 482T635 402T485 373Q405 373 336 402T216 481T136 601T106 750Q106 830 135 899T216 1020T336 1100T485 1130Q566 1130 635 1101T755 1020T835 900T864 750Z"/><glyph unicode="…" horiz-adv-x="1604" d="M1534 174Q1534 131 1520 95T1479 33T1416 -8T1337 -23Q1294 -23 1258 -9T1196 32T1154 95T1139 174Q1139 217 1154 253T1195 314T1258 354T1337 369Q1380 369 1416 355T1478 315T1519 253T1534 174ZM999 174Q999 131 985 95T944 33T882 -8T803 -23Q760 -23 724 -9T661 32T619 95T604 174Q604 217 619 253T660 314T723 354T803 369Q846 369 882 355T944 315T984 253T999 174ZM465 174Q465 131 451 95T410 33T347 -8T268 -23Q225 -23 189 -9T127 32T85 95T70 174Q70 217 85 253T126 314T189 354T268 369Q311 369 347 355T409 315T450 253T465 174Z"/><glyph unicode="‰" horiz-adv-x="2623" d="M760 1012Q760 902 735 818T662 678T550 592T403 563Q322 563 258 591T148 676T78 815T53 1008Q53 1117 78 1201T149 1341T261 1427T408 1456Q489 1456 554 1428T664 1344T735 1205T760 1012ZM1444 1434L690 0H412L1165 1434H1444ZM2591 426Q2591 316 2566 232T2493 92T2381 6T2234 -23Q2153 -23 2089 5T1979 90T1909 229T1884 422Q1884 532 1909 615T1980 755T2092 841T2238 870Q2319 870 2384 842T2495 758T2566 619T2591 426ZM1802 426Q1802 316 1777 232T1705 92T1593 6T1446 -23Q1365 -23 1301 5T1191 90T1121 229T1096 422Q1096 532 1121 615T1192 755T1304 841T1450 870Q1531 870 1596 842T1706 758T1777 619T1802 426ZM489 1008Q489 1076 485 1121T470 1192T444 1230T406 1241Q383 1241 367 1231T342 1195T328 1125T324 1012Q324 943 328 898T343 827T369 789T408 778Q431 778 446 788T471 824T485 894T489 1008ZM2320 422Q2320 490 2316 535T2301 606T2274 644T2236 655Q2213 655 2198 645T2172 609T2158 539T2154 426Q2154 358 2159 313T2174 242T2200 204T2238 193Q2261 193 2277 203T2302 239T2316 309T2320 422ZM1532 422Q1532 490 1527 535T1512 606T1486 644T1448 655Q1425 655 1409 645T1384 609T1370 539T1366 426Q1366 358 1371 313T1386 242T1412 204T1450 193Q1473 193 1488 203T1514 239T1528 309T1532 422Z"/><glyph unicode="‹" horiz-adv-x="670" d="M600 0H276L43 537L276 1075H600L369 539L600 0Z"/><glyph unicode="›" horiz-adv-x="670" d="M625 539L393 0H68L299 537L68 1075H393L625 539Z"/><glyph unicode="⁄" horiz-adv-x="938" d="M1038 1434L260 0H-100L678 1434H1038Z"/><glyph unicode="€" horiz-adv-x="1067" d="M393 748V719V676H723V481H406Q414 416 428 374T463 306T509 272T567 262Q624 262 663 302T737 424L1018 285Q979 201 934 143T834 47T713 -6T565 -23Q313 -23 188 165T63 715Q63 1088 193 1272T571 1456Q661 1456 731 1434T855 1369T948 1264T1014 1122L719 1001Q687 1092 653 1133T563 1174Q530 1174 504 1163T458 1125T425 1054T403 942H723V748H393Z"/><glyph unicode="℗" horiz-adv-x="1350" d="M1270 717Q1270 556 1228 420T1107 186T919 32T674 -23Q539 -23 430 32T243 185T123 420T80 717Q80 878 122 1013T242 1247T429 1401T674 1456Q809 1456 919 1401T1107 1248T1227 1014T1270 717ZM1133 717Q1133 852 1102 964T1011 1157T867 1282T674 1327Q567 1327 483 1283T339 1157T249 964T217 717Q217 582 248 470T339 276T482 151T674 106Q782 106 867 150T1011 276T1101 469T1133 717ZM973 870Q973 798 954 748T899 665T815 619T709 604H641V311H451V1122H723Q777 1122 822 1109T901 1066T954 988T973 870ZM780 864Q780 918 766 942T709 967H641V760H707Q747 760 763 785T780 864Z"/><glyph unicode="™" horiz-adv-x="1358" d="M557 1266H393V623H201V1266H35V1434H557V1266ZM1300 623H1124V803Q1124 934 1130 1038Q1123 1014 1114 984T1095 923T1074 860T1053 801L977 598L901 801Q891 828 880 859T859 922T840 984T825 1038Q827 987 828 928T829 803V623H655V1434H829L901 1235Q914 1199 926 1164T948 1096T966 1035T979 985Q987 1030 1008 1096T1055 1237L1124 1434H1300V623Z"/><glyph unicode="Ω" horiz-adv-x="1664" d="M832 1376Q644 1376 510 1234T376 836Q376 592 464 432T724 180V0H88V196H536Q416 240 304 406T192 848Q192 1112 358 1330T832 1548Q1140 1548 1306 1338T1472 848Q1472 572 1360 406T1128 196H1576V0H940V180Q1112 272 1200 432T1288 836Q1288 1044 1162 1210T832 1376Z"/><glyph unicode="∂" horiz-adv-x="1280" d="M476 -32Q276 -32 166 80T56 360Q56 580 214 750T604 920Q700 920 802 886T964 816Q976 900 976 984Q976 1172 908 1278T720 1384Q592 1384 518 1356T368 1280L324 1444Q400 1488 492 1518T720 1548Q956 1548 1064 1394T1172 968Q1172 552 968 260T476 -32ZM488 128Q660 128 774 268T944 684Q912 716 824 748T648 780Q456 780 360 654T264 372Q264 264 318 196T488 128Z"/><glyph unicode="∆" horiz-adv-x="1536" d="M76 0L652 1536H884L1456 0H76ZM352 148H1164L752 1256L352 148Z"/><glyph unicode="∏" horiz-adv-x="1536" d="M332 0V1348H80V1524H1456V1348H1212V0H1004V1356H540V0H332Z"/><glyph unicode="∑" horiz-adv-x="1152" d="M1084 1524V1344H332L796 784L304 188H1080V0H40V172L560 788L68 1380V1524H1084Z"/><glyph unicode="−" horiz-adv-x="1536" d="M200 692V888H1336V692H200Z"/><glyph unicode="∕" horiz-adv-x="938" d="M1038 1434L260 0H-100L678 1434H1038Z"/><glyph unicode="∙" horiz-adv-x="535" d="M465 752Q465 710 451 674T410 611T347 570T268 555Q225 555 189 570T127 611T85 673T70 752Q70 795 85 830T126 891T189 931T268 946Q311 946 347 932T409 892T450 831T465 752Z"/><glyph unicode="√" horiz-adv-x="1112" d="M1071 1434L668 0H332L47 696H377L414 586Q437 515 457 439T487 291Q490 328 496 370T510 456T527 544T545 627L733 1434H1071Z"/><glyph unicode="∞" horiz-adv-x="1536" d="M468 1216Q616 1216 706 1134T848 840Q856 660 920 608T1072 556Q1156 556 1218 626T1280 816Q1280 916 1234 988T1080 1060Q972 1060 920 968T836 752Q796 596 688 496T440 396Q284 396 190 508T96 808Q96 984 208 1100T468 1216ZM1072 396Q924 396 840 482T712 764Q672 924 614 986T472 1048Q376 1048 316 982T256 792Q256 668 302 610T448 552Q540 552 608 624T716 864Q764 1044 860 1130T1100 1216Q1248 1216 1346 1112T1444 820Q1444 640 1340 518T1072 396Z"/><glyph unicode="∫" horiz-adv-x="1152" d="M-8 -392L56 -260Q80 -268 104 -274T164 -280Q212 -280 242 -246T288 -112L516 1224Q544 1384 636 1464T880 1544Q972 1544 1042 1522T1152 1476L1088 1304Q1044 1332 988 1356T868 1380Q776 1380 730 1322T672 1188L448 -224Q428 -332 350 -382T176 -432Q116 -432 66 -420T-8 -392Z"/><glyph unicode="≈" horiz-adv-x="1536" d="M236 400Q228 444 228 480Q228 580 288 652T476 724Q576 724 650 696T788 642T912 598T1020 580Q1096 580 1128 610T1160 684Q1160 700 1156 716H1300Q1308 672 1308 636Q1308 536 1248 464T1060 392Q960 392 886 418T748 470T624 512T516 528Q440 528 408 500T376 432Q376 416 380 400H236ZM236 860Q228 904 228 940Q228 1040 288 1112T476 1184Q576 1184 650 1156T788 1102T912 1058T1020 1040Q1096 1040 1128 1070T1160 1144Q1160 1160 1156 1176H1300Q1308 1132 1308 1096Q1308 996 1248 924T1060 852Q960 852 886 878T748 930T624 972T516 988Q440 988 408 960T376 892Q376 876 380 860H236Z"/><glyph unicode="≠" horiz-adv-x="1536" d="M212 404V604H1328V404H212ZM212 976V1176H1328V976H212ZM548 188H372L996 1356H1168L548 188Z"/><glyph unicode="≤" horiz-adv-x="1536" d="M1348 236L208 708V872L1348 1344V1128L448 792L1348 452V236ZM212 24V216H1348V24H212Z"/><glyph unicode="≥" horiz-adv-x="1536" d="M212 236V452L1112 792L212 1128V1344L1352 872V708L212 236ZM212 24V216H1348V24H212Z"/><glyph unicode="◊" horiz-adv-x="1152" d="M472 -48L68 756L472 1560H656L1084 756L656 -48H472ZM556 152L876 768L572 1356L252 740L556 152Z"/><glyph unicode="" horiz-adv-x="1522" d="M1495 725L1178 453Q1155 433 1134 430T1098 438Q1079 452 1075 471T1079 524L1096 598H887V348L963 365Q997 373 1016 369T1049 346Q1058 331 1056 310T1034 266L760 -51L487 266Q467 289 465 310T473 346Q487 365 505 369T559 365L633 348V598H424L442 524Q452 489 447 471T422 438Q406 427 387 430T342 453L25 725L342 997Q367 1017 386 1020T422 1012Q442 998 447 980T442 926L424 852H633V1085L559 1069Q524 1061 506 1065T473 1087Q462 1103 464 1123T487 1167L760 1485L1034 1167Q1054 1144 1056 1124T1049 1087Q1035 1069 1016 1065T963 1069L887 1085V852H1096L1079 926Q1071 961 1075 979T1098 1012Q1113 1023 1134 1020T1178 997L1495 725Z"/><glyph unicode="ﬁ" horiz-adv-x="1126" d="M1059 1339Q1059 1302 1046 1272T1009 1221T952 1188T879 1176Q840 1176 808 1187T752 1220T715 1272T702 1339Q702 1375 715 1404T751 1455T807 1487T879 1499Q919 1499 952 1488T1009 1455T1046 1405T1059 1339ZM610 1227Q590 1235 568 1239T520 1243Q483 1243 468 1227T453 1174V1075H590V815H455V0H145V815H51V1075H145V1208Q145 1281 164 1334T218 1421T302 1471T414 1487Q482 1487 529 1480T610 1458V1227ZM1036 0H721V1075H1036V0Z"/><glyph unicode="ﬂ" horiz-adv-x="1126" d="M1036 0H721V1370L1036 1493V0ZM610 1227Q590 1235 568 1239T520 1243Q483 1243 468 1227T453 1174V1075H590V815H455V0H145V815H51V1075H145V1208Q145 1281 164 1334T218 1421T302 1471T414 1487Q482 1487 529 1480T610 1458V1227Z"/></font>
</defs>
</svg>
